#TITLE:Pressure;
#SUBTITLE:;
#ARTIST:Nadia Ali, Starkillers & Alex Kenji;
#TITLETRANSLIT:;
#SUBTITLETRANSLIT:;
#ARTISTTRANSLIT:;
#GENRE:;
#CREDIT:Braeden;
#MUSIC:Pressure.ogg;
#BANNER:Pressure.png;
#BACKGROUND:Pressure-bg.png;
#CDTITLE:;
#SAMPLESTART:68.213;
#SAMPLELENGTH:12.000;
#SELECTABLE:YES;
#OFFSET:-0.040;
#BPMS:0.000=128.000
,48.000=256.000
,49.000=128.000
,167.000=256.000
,168.000=128.000
,171.000=256.000
,172.000=128.000
,175.000=256.000
,176.000=128.000
,179.000=256.000
,180.000=128.000
,183.000=256.000
,184.000=128.000
,187.000=256.000
,188.000=128.000
,191.000=256.000
,192.000=128.000
;
#STOPS:48.000=0.059
,48.250=0.059
,48.500=0.059
,48.750=0.059
,167.000=0.059
,167.250=0.059
,167.500=0.059
,167.750=0.059
,171.000=0.059
,171.250=0.059
,171.500=0.059
,171.750=0.059
,175.000=0.059
,175.250=0.059
,175.500=0.059
,175.750=0.059
,179.000=0.059
,179.250=0.059
,179.500=0.059
,179.750=0.059
,183.000=0.059
,183.250=0.059
,183.500=0.059
,183.750=0.059
,187.000=0.059
,187.250=0.059
,187.500=0.059
,187.750=0.059
,191.000=0.059
,191.250=0.059
,191.500=0.059
,191.750=0.059
;
#DISPLAYBPM:128.000;
#BGCHANGES:;
#FGCHANGES:;

//--------------- dance-single - ----------------
#NOTES:
     dance-single:
     :
     Beginner:
     1:
     0,0,0,0,0:
0000
0000
0000
0000
,
1001
0000
0000
0000
,
1000
0000
0000
0000
,
0001
0000
0000
0000
,
0100
0000
0000
0000
,
0010
0000
0000
0000
,
1000
0000
0000
0000
,
0001
0000
0000
0000
,
1000
0000
0000
0000
,
0001
0000
1000
0000
,
0010
0000
0000
0000
,
1000
0000
0001
0000
,
0100
0000
0000
0000
,
0010
0000
1000
0000
,
0001
0000
0000
0000
,
0010
0000
0100
0000
,
2000
0000
3000
0000
,
1001
0000
0000
0000
,
0001
0000
0000
0000
,
0010
0000
0000
0000
,
0100
0000
0000
0000
,
0010
0000
0000
0000
,
0001
0000
0000
0000
,
1000
0000
0000
0000
,
0010
0000
0000
0000
,
0100
0000
0001
0000
,
1000
0000
0000
0000
,
0001
0000
0100
0000
,
0010
0000
0000
0000
,
1000
0000
0001
0000
,
0010
0000
0000
0000
,
0100
0000
1000
0000
,
0001
0000
0000
0000
,
1000
0000
0000
0000
,
0001
0000
0000
0000
,
0100
0000
0000
0000
,
0010
0000
0000
0000
,
0100
0000
0000
0000
,
0001
0000
0000
0000
,
2000
0000
0000
0000
,
3000
0000
0000
0000
,
0001
0000
0000
0200
,
0300
0000
0000
0020
,
0030
0000
0000
2000
,
3000
0000
0000
0002
,
0003
0000
0000
0020
,
0030
0000
0000
0200
,
0300
0000
0000
0020
,
0030
0000
0000
0002
,
0003
0000
0000
2000
,
3000
0000
0000
0020
,
0030
0000
0000
0200
,
0300
0000
0000
0002
,
0003
0000
0000
2000
,
3000
0000
0000
0020
,
0030
0000
0000
2000
,
3000
0000
0000
0000
,
1001
0000
0000
0002
,
0003
0000
0000
0200
,
0300
0000
0000
0020
,
0030
0000
0000
2000
,
3000
0000
0000
0002
,
0003
0000
0000
2000
,
3000
0000
0000
0002
,
0003
0000
0000
0000
,
1001
0000
0000
0000
;

//--------------- dance-single - ----------------
#NOTES:
     dance-single:
     :
     Easy:
     5:
     0.206,0.053,0.073,0.163,0:
0000
0000
0000
0000
,
1001
0000
0000
0000
,
1000
0000
0000
0000
,
0001
0000
0000
0000
,
0100
0000
0000
0000
,
1000
0000
0000
0000
,
0001
0000
0000
0000
,
1000
0000
0000
0000
,
0010
0000
0000
0000
,
2000
0000
0000
3000
,
0002
0000
0000
0003
,
0200
0000
0000
0300
,
0020
0000
0000
0030
,
2000
0000
0000
3000
,
0002
0000
0000
0003
,
1000
0010
1000
0001
,
2002
0000
0000
3003
,
1001
0000
0000
0000
,
0001
0000
0000
0000
,
1000
0000
0000
0000
,
0010
0000
0000
0000
,
0100
0000
0000
0001
0000
0000
0000
0000
,
1000
0000
0000
0010
0000
0000
0000
0000
,
1000
0000
0000
0001
0000
0000
0000
0000
,
1000
0000
0000
0010
0000
0000
0000
0000
,
1000
0010
0100
0001
,
0010
0100
1000
0010
,
0100
0100
0001
0001
,
1000
1000
0002
0000
,
1003
0010
0100
0001
,
0010
0010
0100
0100
,
1000
1000
0010
0100
,
0001
0010
0200
0000
,
0310
0000
0000
0001
0000
0000
1000
0000
,
0010
0000
0000
0100
0000
0000
0001
0000
,
1000
0000
0000
0010
0000
0000
1000
0000
,
0001
0000
0000
0100
0000
0000
0010
0000
,
1000
0000
0000
1000
0000
0000
1000
0000
,
0100
0000
0000
0100
0000
0000
0100
0000
,
0020
0000
0000
0030
,
0002
0000
0000
0003
,
1001
0000
0000
1000
0000
0000
0001
0000
,
1000
0000
0000
0001
0000
0000
1000
0000
,
0010
0000
0000
0100
0000
0000
0001
0000
,
1000
0000
0000
0010
0000
0000
0100
0000
,
0001
0000
0000
1000
0000
0000
0100
0000
,
0010
0000
0000
0001
0000
0000
0100
0000
,
0010
0000
0000
1000
0000
0000
0001
0000
,
1000
0000
0000
0001
0000
0000
1000
0000
,
0001
0000
0000
0001
0000
0000
0100
0000
,
0010
0000
0000
1000
0000
0000
0100
0000
,
0100
0000
0000
0010
0000
0000
0001
0000
,
0001
0000
0000
0100
0000
0000
0010
0000
,
0010
0000
0000
1000
0000
0000
1000
0000
,
1000
0000
0000
0001
0000
0000
0001
0000
,
0002
0000
0000
1000
,
1003
1001
1100
0011
,
2001
0000
0000
0001
,
3002
0000
0000
0100
,
2003
0000
0000
0010
,
3020
0000
0000
1000
,
2030
0000
0000
0001
,
3002
0000
0000
0100
,
0203
0000
0000
0010
,
0310
1000
1000
0001
,
1001
0000
0000
0000
;

//--------------- dance-single - SJ- JA ----------------
#NOTES:
     dance-single:
     SJ- JA:
     Medium:
     8:
     0.325,0.08,0.171,0.188,0.024:
0000
0000
0000
0000
,
1001
0000
0000
0000
0000
0000
0000
1000
,
0100
1000
0000
0000
0000
0000
0000
0000
,
0001
0000
0000
0000
0000
0000
0000
1000
,
0100
1000
0000
0000
0000
0000
0000
0000
,
0001
0010
0100
1000
,
0010
1000
0000
0000
0001
0000
0100
0000
,
0010
1000
0100
0010
,
0001
0100
0000
0000
0010
0000
1000
0000
,
0100
1000
0100
0000
0010
0100
0010
0000
,
0001
0100
0001
0000
2000
0000
3000
0000
,
0001
0100
0001
0000
0010
0100
0010
0000
,
1000
0100
1000
0000
0002
0000
0003
0000
,
1000
0100
0010
0000
0001
0100
0010
0000
,
1000
0100
0010
0001
0010
0000
0000
0000
,
0001
1000
0001
0000
1000
0001
1000
0000
,
0200
0000
0000
0300
,
2000
0000
0000
0000
,
3002
0000
0000
0000
,
0203
0000
0000
0000
,
0320
0000
0000
0000
,
1030
0000
0000
0001
0000
0000
1000
0000
,
0001
0000
0000
1000
0000
0000
0010
0000
,
0010
0000
0000
0100
0000
0000
0001
0000
,
0001
0000
0000
1000
0000
0000
0001
0000
,
1000
0100
1000
0000
0001
0100
0001
0000
,
1000
1000
0001
0001
,
1000
0100
0001
0000
0001
0100
1000
0000
,
1000
0100
1000
0000
0001
0000
0000
0000
,
1000
0100
1000
0000
0001
0100
0001
0000
,
1000
0010
1000
0000
0001
0000
0100
0000
,
0010
1000
0010
0000
1000
0100
0010
0000
,
0001
0010
0100
1000
0100
0000
0000
0000
,
0020
0000
0000
0001
0000
0000
0100
0000
,
0032
0000
0000
1000
0000
0000
0100
0000
,
2003
0000
0000
0000
,
3002
0000
0000
0100
0000
0000
1000
0000
,
2003
0000
0000
0010
0000
0000
0001
0000
,
3010
0000
0000
0100
0000
0000
0010
0000
,
2002
0000
0000
3003
,
2200
0000
0000
3300
,
1001
0000
0000
0001
0000
0000
1000
0100
,
1100
0000
0000
0001
0000
0000
1000
0001
,
1001
0000
0000
0100
0000
0000
0001
0100
,
0101
0000
0000
0010
0000
0000
1000
0100
,
1100
0000
0000
0001
0000
0000
1000
0001
,
1001
0000
0000
0100
0000
0000
0010
0100
,
0110
0000
0000
0001
0000
0000
1000
0001
,
1001
0000
0000
1000
0000
0000
1001
0000
,
1000
0000
0000
0001
0000
0000
1000
0001
,
1001
0000
0000
0100
0000
0000
0010
0100
,
0110
0000
0000
0001
0000
0000
1000
0001
,
1001
0000
0000
0100
0000
0000
0000
0000
,
1000
0000
0000
0010
0000
0000
1000
0000
0000
0010
0000
0000
1000
0000
0000
0000
,
0001
0000
0000
0100
0000
0000
0001
0000
0000
0100
0000
0000
0001
0000
0000
0000
,
1000
0000
0000
0010
0000
0000
1000
0000
0000
0010
0000
0000
1000
0000
0000
0000
,
1001
1000
0010
0100
,
1001
0000
0000
2000
0000
0000
0001
0001
,
3001
0000
0000
0200
0000
0000
0010
0010
,
0310
0000
0000
2000
0000
0000
0001
0001
,
3001
0000
0000
0020
0000
0000
1000
1000
,
1030
0000
0000
0020
0000
0000
0001
0001
,
0031
0000
0000
0200
0000
0000
0010
0010
,
0310
0000
0000
2000
0000
0000
0001
0001
,
3001
1001
1100
0011
,
1001
0000
0000
0000
;

//--------------- dance-single - XO JA ----------------
#NOTES:
     dance-single:
     XO JA:
     Hard:
     12:
     0.521,0.133,0.082,0.253,0.506:
0000
0000
0000
0000
,
2002
0000
0000
0000
3003
0000
0000
1000
,
0010
1000
0000
0000
0000
0000
0000
0000
,
0002
0000
0000
0000
0003
0000
0000
1000
,
0010
1000
0000
0000
0000
0000
0000
0000
,
0001
0000
1000
0100
0000
0000
0100
0010
0000
0000
0010
0001
0000
0000
0001
0100
,
0000
0000
0100
0010
0000
0000
0010
1000
0000
0000
1000
0001
0000
0000
0001
0100
,
0000
0000
0100
0001
0000
0000
0001
1000
0000
0000
1000
0010
0000
0000
0010
0100
,
0000
0000
0100
0001
0000
0000
0001
1000
0000
0000
1000
0010
0000
0000
0000
0000
,
1000
0100
0010
0100
0001
0100
1000
0000
,
0001
0010
1000
0010
0001
0000
0000
0000
,
1000
0100
0001
0100
0010
0001
1000
0000
,
0001
0100
1000
0100
0001
0000
0000
0000
,
1000
0010
1000
0010
0100
0001
0200
0000
,
0301
0100
1000
0100
0002
0000
0003
0000
,
1000
0000
0010
0000
1000
0000
0001
0100
0001
0000
1000
0000
0020
0000
0000
0000
,
1030
0100
0001
0100
1000
0000
0000
0000
,
1000
0001
1000
0010
0000
0000
0100
0001
0100
0000
0010
1000
0010
0000
0100
0000
,
0001
0000
0000
1000
0000
0000
0001
0010
0001
0000
1000
0100
1000
0000
0001
0000
,
1000
0010
1000
0010
0000
0000
0100
0001
0100
0001
0000
1000
0001
0000
0100
0010
,
1000
0000
0000
1000
0100
0000
0000
0100
0010
0000
0000
0010
0001
0000
1000
0001
,
1000
0000
0000
0100
0010
0000
0000
0001
0010
0000
0000
0100
1000
0000
0001
1000
,
0001
0000
0000
0010
0100
0000
0000
0100
1000
0000
0000
1000
0100
0000
0010
0001
,
0010
0000
0000
0100
0000
0000
1000
0000
0000
0001
0000
0000
1000
0000
0010
0000
,
1000
0000
0000
1000
0000
0000
0010
0000
0000
0010
0000
0000
1000
0000
0100
0000
,
0010
0001
0020
0000
0130
1000
0020
0000
,
0130
0001
1000
0010
0200
0000
0302
0000
,
0103
1000
0100
0000
0001
0010
0002
0000
,
0013
0100
1000
0100
0020
0000
0000
0000
,
0031
0100
0001
0000
0001
0100
0001
0000
,
0010
0100
0010
0100
2000
0000
3002
0000
,
0103
0010
1000
0000
1000
0100
1000
0000
,
0001
0100
0001
0010
0100
0000
0000
0000
,
1000
0000
0000
0001
0000
0000
1000
0000
0000
0001
0000
0000
1000
0000
0000
0000
,
1000
0000
0000
0100
0000
0000
1000
0000
0000
0001
0000
0000
1000
0000
0000
0000
,
0001
0000
0000
0100
0000
0000
0001
0000
0000
0100
0000
0000
0001
0000
0000
0000
,
1000
0000
0000
0010
0000
0000
1000
0000
0000
0100
0000
0000
1000
0000
0000
0000
,
1000
0000
0000
0001
0000
0000
1000
0000
0000
0001
0000
0000
1000
0000
0000
0000
,
0001
0000
0000
0100
0000
0000
1000
0000
0000
0100
0000
0000
0001
0000
0000
0000
,
2002
0000
0000
0000
,
0000
0000
3003
1001
,
1000
0000
0000
1000
0000
0000
0010
0000
0000
0010
0000
0000
0100
0001
0100
0001
,
0100
0000
0000
0010
0000
0000
1000
0000
0000
0100
0000
0000
0010
0001
0010
0001
,
0010
0000
0000
0100
0000
0000
1000
0000
0000
0001
0000
0000
1000
0010
1000
0010
,
1000
0000
0000
0100
0000
0000
0010
0000
0000
0001
0000
0000
1000
0010
1000
0010
,
1000
0000
0000
1000
0000
0000
0010
0000
0000
0010
0000
0000
1000
0001
1000
0001
,
2000
0000
0000
3010
0000
0000
0200
0000
0000
0301
0000
0000
0010
0001
0010
0001
,
0010
0000
0000
0001
0000
0000
1000
0000
0000
0010
0000
0000
0100
0010
0100
0010
,
0100
0000
0000
0001
0000
0000
0010
0000
0000
0100
0000
0000
1001
0000
0000
0000
,
2000
0000
0000
0010
0000
0000
0010
0000
0000
3010
0000
0000
0100
0001
0100
0010
,
2000
0000
0000
0010
0000
0000
0010
0000
0000
3010
0000
0000
1000
0100
0010
0100
,
2000
0000
0000
0100
0000
0000
0100
0000
0000
3100
0000
0000
0010
0001
0010
0100
,
2000
0000
0000
0001
0000
0000
0001
0000
0000
3001
0000
0000
0001
0010
0100
1000
,
0002
0000
0000
0000
0203
0000
0000
0000
0320
0000
0000
0000
1030
0001
1000
0001
,
2000
0000
0000
0000
3020
0000
0000
0000
0230
0000
0000
0000
0301
0010
0100
0010
,
0200
0000
2300
0000
3002
0000
1003
0100
,
1100
0000
0000
0000
0110
0000
0000
0000
0011
0000
0000
0000
1000
0001
1000
0001
,
1000
0000
0000
0100
0000
0000
1000
0000
0000
0100
0000
0000
1000
0000
1000
0000
,
1000
0000
0000
0001
0000
0000
0100
0000
0000
0010
0000
0000
1000
0000
1000
0000
,
1000
0000
0000
0000
0100
0000
0010
0000
0000
0001
0000
0000
0100
0000
0100
0000
,
0100
0000
0000
0010
0000
0000
1000
0000
0000
0010
0000
0000
1000
0000
1000
0000
,
1000
0000
0000
0001
0000
0000
0100
0000
0000
0010
0000
0000
1000
0000
1000
0000
,
1000
0000
0000
0100
0000
0000
0010
0000
0000
0001
0000
0000
0100
0000
0100
0000
,
0100
0000
0000
0010
0000
0000
1000
0000
0000
0010
0000
0000
1000
0000
1000
0000
,
1001
0000
0000
0000
1100
0000
0000
0000
1001
0000
0000
0000
1000
0001
1000
0001
,
1000
0000
0000
0000
;

//--------------- dance-single - FS XO ----------------
#NOTES:
     dance-single:
     FS XO:
     Challenge:
     14:
     0,0,0,0,0:
0000
0000
0000
0000
,
1001
0000
0001
0100
0010
0100
0001
1000
,
0002
0000
0100
0000
1003
0000
0001
0010
0001
0000
1000
0100
1000
0000
0001
0000
,
0002
0010
1003
0001
0100
0010
1000
0001
,
2000
0000
0010
0000
3001
0000
1000
0010
1000
0000
0001
0010
0001
0000
1000
0000
,
0002
0000
0100
0000
1003
0000
0001
0100
0001
0000
1000
0100
1000
0000
0001
0000
,
2000
0000
0010
0000
3001
0000
0100
0010
1000
0000
0100
0010
0001
0000
1000
0000
,
0200
0000
0010
0000
1300
0000
0001
1000
0001
0000
0100
0010
0100
0000
0001
0000
,
0200
0000
0010
0000
0301
0000
1000
0010
1000
0000
0001
0100
0001
0000
1000
0000
,
0001
0000
0100
0000
1000
0000
0100
0000
0001
0000
0100
0000
0010
0000
1000
0001
,
1000
0000
0100
0000
0001
0000
0100
0000
1000
0000
0010
0000
0100
0000
0001
1000
,
0001
0100
0010
0001
0010
0100
0001
1000
,
0001
0100
0001
0100
0001
0000
1000
0000
0010
0000
0100
0000
0001
0000
1000
0000
,
0001
0000
0100
0000
0010
0000
0001
0000
0010
0000
0100
0000
0001
0000
1000
0010
,
1000
0000
0100
0000
0010
0000
0001
0000
1000
0000
0010
0000
1000
0000
0001
0100
,
0001
0100
1000
0100
0001
0010
0100
1000
,
0001
0100
0001
0100
0010
1000
0010
1000
0001
0000
0100
0000
0010
0000
1000
0000
,
0001
0100
0010
1000
0001
0000
0010
0100
1000
0000
0001
0100
0001
0000
1000
0010
,
1000
0000
0001
0100
0000
0000
0010
1000
0010
0000
1000
0100
0010
0000
0001
1000
,
0001
0000
1000
0010
0000
0000
1000
0100
1000
0000
0001
0010
0100
0000
1000
0001
,
1000
0000
0001
0010
0000
0000
0001
1000
0001
0000
1000
0010
0100
0000
0001
0100
,
0010
0000
1000
0100
0000
0000
0010
0001
0010
0000
0001
1000
0001
0000
1000
0010
,
1000
0000
0001
0100
0000
0000
0010
1000
0010
0000
1000
0000
0100
0000
0010
0000
,
0001
0000
0100
0010
0000
0000
1000
0000
0100
0000
0010
0000
0001
0000
0100
0000
,
0001
0000
1000
0010
0000
0000
1000
0000
0100
0000
0010
0000
0001
0000
1000
0000
,
0001
0100
2000
0000
3001
0010
2000
0000
,
3001
0100
0010
0100
0001
0000
1001
0000
,
1000
0100
0002
0000
0103
0010
0200
0000
,
0310
0001
1000
0010
0100
0000
0001
0000
,
0010
0100
0002
0000
1003
0010
0002
0000
,
1003
0010
0100
0001
1000
0000
1001
0000
,
0001
0100
0010
0000
0001
0010
0200
0000
,
0301
1000
0010
0100
0002
0000
1003
0000
,
0001
0000
0000
0100
0000
0000
0001
0000
0000
0010
0000
0000
0001
0000
0100
0000
,
0010
0000
0000
1000
0000
0000
0100
0000
0000
0010
0000
0000
0001
0000
0000
0000
,
1000
0000
0000
0010
0000
0000
1000
0000
0000
0001
0000
0000
0100
0000
0000
0000
,
0010
0000
0000
1000
0000
0000
0100
0000
0000
0010
0000
0000
0001
0000
0000
0000
,
1000
0000
0000
0010
0000
0000
0100
0000
0000
0001
0000
0000
0010
0000
0000
0000
,
0100
0000
0000
1000
0000
0000
0001
0000
0000
0100
0000
0000
0010
0000
0000
0000
,
2002
0000
0000
0000
,
0000
0000
3003
0110
,
0100
0000
0000
0001
0000
0000
0100
0000
0000
0010
0000
0000
1000
0100
0010
0001
,
1000
0000
0000
0010
0000
0000
0100
0000
0000
0001
0000
0000
1000
0100
1000
0010
,
1000
0000
0000
0001
0000
0000
0100
0000
0000
0010
0000
0000
1000
0100
0010
0001
,
1000
0000
0000
0001
0000
0000
0100
0000
0000
0010
0000
0000
0100
0001
0010
0001
,
1000
0000
0000
0100
0000
0000
0010
0000
0000
0001
0000
0000
1000
0010
0100
0001
,
1000
0000
0000
0001
0000
0000
0010
0000
0000
0100
0000
0000
1000
0010
1000
0100
,
0010
0000
0000
0001
0000
0000
0100
0000
0000
0010
0000
0000
0100
0001
0010
0001
,
1000
0000
0000
0010
0000
0000
0100
0000
0000
0001
0000
0000
1000
0010
1000
0010
,
1000
0000
0000
0001
0000
0000
1000
0000
0000
0001
0000
0000
0010
0100
0010
0100
,
1000
0000
0000
0001
0000
0000
0100
0000
0000
0010
0000
0000
1000
0001
1000
0001
,
0010
0000
0000
0100
0000
0000
1000
0000
0000
0001
0000
0000
0100
0010
0100
0010
,
1000
0000
0000
0001
0000
0000
0010
0000
0000
0001
0000
0000
1000
0001
1000
0001
,
0010
0000
0000
0100
0000
0000
1000
0000
0000
0001
0000
0000
0100
0010
0100
0010
,
1000
0000
0000
0001
0000
0000
0010
0000
0000
0100
0000
0000
1000
0001
1000
0001
,
0100
0000
0000
0010
0000
0000
1000
0000
0000
0100
0000
0000
0010
0001
0010
0001
,
1000
0000
0000
0000
1001
0000
0000
0000
0101
0000
0000
0000
1000
0001
0100
0001
,
1000
0000
0000
0000
0100
0000
0010
0000
0100
0000
0000
0000
1000
0000
0000
0000
0001
0000
0010
0000
0001
0000
0000
0000
1000
0000
0010
0000
0100
000M
0100
0000
,
1000
0000
0000
0000
0001
0000
0100
0000
0001
0000
0000
0000
1000
0000
0000
0000
0010
0000
0100
0000
0010
0000
0000
0000
1000
0000
0001
0000
0100
00M0
0100
0000
,
1000
0000
0001
0100
0001
0000
1000
0000
0100
0010
0100
0000
1000
0001
0010
0M10
,
1000
0000
0000
0000
0001
0000
0100
0000
0001
0000
0000
0000
1000
0000
0000
0000
0100
0000
0010
0000
0100
0000
0000
0000
1000
0000
0001
0000
0100
00M0
0100
0000
,
1000
0000
0000
0000
0001
0000
0010
0000
0100
0000
0000
0000
1000
0000
0000
0000
0100
0000
0010
0000
0001
0000
0000
0000
1000
0000
0001
0000
0100
00M0
0100
0000
,
1000
0000
0000
0000
0001
0000
0100
0000
0001
0000
0000
0000
1000
0000
0000
0000
0100
0000
0010
0000
0001
0000
0000
0000
1000
0000
0001
0000
0100
00M0
0100
0000
,
1000
0000
0000
0000
0001
0000
0010
0000
0001
0000
0000
0000
1000
0000
0000
0000
0010
0000
0100
0000
0010
0000
0000
0000
1000
0000
0100
0000
0010
000M
0010
0000
,
1000
0000
0001
0000
1001
0000
1000
0000
1010
0000
0010
0000
0100
0001
0010
0001
,
0010
0000
0000
0000
;

//--------------- dance-double - XO ----------------
#NOTES:
     dance-double:
     XO:
     Hard:
     13:
     0,0,0,0,0:
00000000
00000000
00000000
00000000
,
00012000
00000000
00000000
00000000
01003000
00000000
00010000
10000000
,
01000000
00010000
01000000
00000000
00001000
00010000
00001000
00010000
,
00000020
00000000
00001030
00000000
00000001
00000010
00000100
00001000
,
00000100
00000001
00000100
00000000
00001000
00000001
00001000
00000000
,
00000020
00000000
00010030
00000000
00001000
01000000
00010000
10000000
,
00100000
00010000
00100000
00000000
01000000
00010000
10000000
00000000
,
00020000
00000000
01030000
00000000
00010000
00100000
00010000
10000000
,
01000000
00010000
01000000
00000000
10000000
00010000
10000000
00000000
,
10000000
01000000
00010000
00000100
00001000
00000010
00001000
00000000
,
00000001
00000100
00001000
01000000
00020000
00000000
00130000
00000000
,
00010000
01000000
10000000
01000000
00001000
00010000
00002000
00000000
,
00013000
00000100
00010000
00000100
00010000
00000000
00000010
00000000
00002000
00000000
00000000
00000000
00003001
00000000
00000000
00000000
,
00000001
00000100
00001000
00010000
00100000
10000000
00010000
00000000
,
10000000
00100000
00010000
00001000
00000100
00000001
00001000
00000000
,
00000001
00001000
00000001
00000100
00000001
00000010
00000001
00000000
,
00010000
00001000
00010000
00001000
00020000
00000000
00031000
00000000
,
00011000
00000000
00001000
00010000
00000000
00000000
00001000
01000000
00001000
00000000
10000000
00000000
01000000
00000000
00100000
00010000
,
00100000
00000000
00001000
01000000
00001000
00000000
00100000
00000000
00001000
00000000
00010000
00000000
00000010
00000000
00001000
00000001
,
00001000
00000000
00000001
00000010
00000100
00000000
00001000
00000000
00010000
00000000
00100000
00000000
00001000
00000000
00100000
00001000
,
00100000
00000000
00010000
10000000
00010000
00000000
10000000
00000000
01000000
00000000
00100000
00000000
00010000
00000000
00001000
00000000
,
00000100
00000000
00001000
00000000
00000010
00000000
00001000
00000001
00000010
00000000
00000100
00000010
00000100
00000000
00001000
00000000
,
00000001
00000010
00000100
00001000
00010000
00100000
00010000
01000000
,
00100000
10000000
01000000
00100000
00010000
00001000
00010000
00100000
,
00010000
01000000
00001000
00100000
00010000
00100000
00010000
00000000
,
10000000
01000000
00010000
00000000
10000000
00100000
00010000
00000000
,
10000000
01000000
00100000
00010000
00001000
00000000
00010000
00000000
,
00100000
00001000
00010000
00000000
00000010
00000100
00000010
00000000
,
00010000
00000100
00000010
00000100
00020000
00000000
00030100
00000000
,
00001000
00000100
00000001
00000000
00001000
00000010
00000100
00000000
,
00001000
00000100
00010000
00001000
00010000
00000000
00011000
00000000
,
00001000
01000000
00100000
00000000
00010000
00100000
01000000
00000000
,
00010000
01000000
00100000
01000000
00010000
00000000
10000000
00000000
,
00010000
00000000
00000000
01000000
00000000
00000000
00010000
00000000
00000000
01000000
00000000
00000000
00001000
00000000
00000000
00000000
,
00010000
00000000
00000000
00000010
00000000
00000000
00010000
00000000
00000000
00000010
00000000
00000000
00001000
00000000
00000000
00000000
,
00000001
00000000
00000000
00000100
00000000
00000000
00000010
00000000
00000000
00001000
00000000
00000000
00000001
00000000
00000000
00000000
,
00010000
00000000
00000000
00001000
00000000
00000000
00010000
00000000
00000000
00000100
00000000
00000000
00001000
00000000
00000000
00000000
,
00000001
00000000
00000000
00000010
00000000
00000000
00000100
00000000
00000000
00001000
00000000
00000000
00010000
00000000
00000000
00000000
,
00100000
00000000
00000000
00010000
00000000
00000000
01000000
00000000
00000000
00100000
00000000
00000000
10000000
00000000
00000000
00000000
,
00001000
00000000
00000000
01000000
00000000
00000000
00010000
00000000
00000000
00100000
00000000
00000000
00001000
00000000
00000000
00000000
,
00010000
00000000
00000000
00000100
00000000
00000000
00010000
00000000
00000000
00000100
00000000
00000000
00010000
00000000
00000000
00000000
,
00010010
00000000
00000000
00000010
00000000
00000000
00001000
00000000
00000000
00000001
00000000
00000000
00001000
00000001
00001000
00000001
,
00001000
00000000
00000000
00000010
00000000
00000000
00010000
00000000
00000000
00001000
00000000
00000000
00100000
00010000
00100000
00010000
,
00100000
00000000
00000000
00010000
00000000
00000000
01000000
00000000
00000000
00100000
00000000
00000000
10000000
00010000
10000000
00010000
,
10000000
00000000
00000000
00100000
00000000
00000000
01000000
00000000
00000000
00001000
00000000
00000000
00010000
00001000
00010000
00001000
,
00010000
00000000
00000000
00000010
00000000
00000000
00000100
00000000
00000000
00000001
00000000
00000000
00001000
00000100
00001000
00000100
,
00001000
00000000
00000000
00000100
00000000
00000000
00000010
00000000
00000000
00000100
00000000
00000000
00001000
00000001
00001000
00000001
,
00001000
00000000
00000000
00000010
00000000
00000000
00100000
00000000
00000000
00001000
00000000
00000000
00100000
00001000
00100000
00001000
,
00100000
00000000
00000000
00010000
00000000
00000000
10000000
00000000
00000000
00010000
00000000
00000000
10000000
01000000
00100000
00010000
,
10000000
00000000
00000000
01000000
00000000
00000000
00010000
00000000
00000000
00001000
00000000
00000000
00010000
00000100
00001000
00000100
,
00010000
00000000
00000000
00000100
00000000
00000000
00001000
00000000
00000000
00000001
00000000
00000000
00001000
00000010
00001000
00000010
,
00001000
00000000
00000000
00000001
00000000
00000000
00000010
00000000
00000000
00000100
00000000
00000000
00010000
00001000
00010000
00001000
,
00010000
00000000
00000000
00001000
00000000
00000000
01000000
00000000
00000000
00100000
00000000
00000000
10000000
00010000
10000000
00010000
,
00100000
00000000
00000000
01000000
00000000
00000000
10000000
00000000
00000000
01000000
00000000
00000000
00100000
00001000
00010000
00001000
,
00100000
00000000
00000000
00001000
00000000
00000000
00010000
00000000
00000000
00000010
00000000
00000000
00001000
00000010
00000100
00000001
,
00001000
00000000
00000000
00000001
00000000
00000000
00001000
00000000
00000000
00000010
00000000
00000000
00010000
00001000
00010000
00001000
,
00010000
00000000
00000000
00000000
00011000
00000000
00000000
00000000
01001000
00000000
00000000
00000000
00010000
10000000
01000000
10000000
,
00010000
00000000
01000000
00000000
10000000
00000000
01000000
00000000
00100000
00000000
10000000
00000000
00010000
10000000
00010000
10000000
,
00010000
00000000
01000000
00000000
00001000
00000000
00010000
00000000
00000100
00000000
00001000
00000000
00000001
00000010
00000001
00000010
,
00000001
00000000
00001000
00000000
00000010
00000000
00000100
00000000
00001000
00000000
00000100
00000000
00000010
00001000
00000010
00001000
,
00000010
00000000
00000100
00000000
00000001
00000000
00001000
00000000
00000100
00000000
00000000
00000000
00000010
00000001
00001000
00000100
,
00000010
00000000
00000001
00000000
00001000
00000000
00000100
00000000
00010000
00000000
00001000
00000000
01000000
00010000
01000000
00100000
,
10000000
00000000
00010000
00000000
01000000
00000000
00010000
00000000
00100000
00000000
01000000
00000000
10000000
00010000
01000000
00100000
,
10000000
00000000
01000000
00000000
00100000
00000000
00010000
00000000
00001000
00000000
00000100
00000000
00000010
00000001
00001000
00000001
,
00000010
00000000
00000000
00000000
00000110
00000000
00000000
00000000
00010010
00000000
00000000
00000000
00010000
00001000
00100000
00010000
,
10000000
00000000
00000000
00000000
;
