#TITLE:Ouragan;
#SUBTITLE:;
#ARTIST:Kelly G;
#TITLETRANSLIT:;
#SUBTITLETRANSLIT:;
#ARTISTTRANSLIT:;
#GENRE:Vocal Trance;
#CREDIT:Braeden;
#MUSIC:Ouragan.ogg;
#BANNER:;
#BACKGROUND:;
#CDTITLE:;
#SAMPLESTART:81.430;
#SAMPLELENGTH:15.000;
#SELECTABLE:YES;
#OFFSET:-0.428;
#BPMS:0.000=139.989;
#STOPS:185.000=1.286;
#BGCHANGES:;
#FGCHANGES:;

//--------------- dance-single - ----------------
#NOTES:
     dance-single:
     :
     Beginner:
     1:
     0.074,0,0.035,0,0:
0000
0000
0000
0000
,
0000
0000
0000
0000
,
0000
1000
0000
0000
,
0000
0001
0000
1000
,
0000
1001
0000
0000
,
0000
0001
0000
0000
,
0000
0010
0000
0000
,
0000
0100
0000
0000
,
0000
1000
0000
0000
,
0000
0001
0000
0000
,
0000
0010
0000
0000
,
0000
0100
0000
0000
,
0000
1001
0000
0000
,
0000
0001
0000
0000
,
0000
0100
0000
0000
,
0000
0020
0000
0000
,
0000
0030
0000
0000
,
0000
2000
0000
0000
,
0000
3000
0000
0000
,
0000
0001
0000
0000
,
0000
0100
0000
0000
,
0000
0010
0000
0000
,
0000
1001
0000
0000
,
0000
0001
0000
0000
,
0000
0010
0000
0000
,
0000
0100
0000
0000
,
0000
1000
0000
0000
,
0000
0100
0000
0000
,
0000
0010
0000
0000
,
0000
0001
0000
0000
,
0000
1001
0000
0000
,
0000
1000
0000
0000
,
0000
0010
0000
0000
,
0000
0100
0000
0000
,
0000
0001
0000
0000
,
0000
0010
0000
0000
,
0000
0100
0000
0000
,
0000
1000
0000
0000
,
0000
1001
0000
0000
,
0000
0000
0000
0000
,
0000
0010
0000
0000
,
0000
0000
0000
0000
,
0000
0100
0000
0000
,
0000
0001
0000
0000
,
0000
1000
0000
0000
,
0000
0010
0000
0000
,
0000
0001
0001
0000
,
0000
0000
1000
0000
,
0000
0000
0010
0000
,
0000
0000
0100
0000
,
0000
0000
0001
0000
,
0000
0000
0010
0000
,
0000
0000
0100
0000
,
0000
0000
1000
0000
,
0000
0000
1001
0000
,
0000
0000
1000
0000
,
0000
0000
0010
0000
,
0000
0000
0100
0000
,
0000
0000
0001
0000
,
0000
0000
1000
0000
,
0000
0000
0100
0000
,
0000
0000
0010
0000
,
0000
0000
1001
0000
;

//--------------- dance-single - ----------------
#NOTES:
     dance-single:
     :
     Easy:
     4:
     0.17,0,0.027,0.089,0:
0000
0000
0000
0000
,
0000
0000
0000
0000
,
0000
2000
3000
0000
,
0000
0001
0100
0010
,
1000
0001
0010
0000
,
0100
0000
1000
0000
,
0001
0000
0010
0000
,
0100
0000
1000
0000
,
0001
0000
0100
0010
,
0100
0000
0001
0000
,
0010
0000
0100
1000
,
0001
0000
0100
0000
,
0001
1001
1000
0010
,
0200
0300
0001
0010
,
0200
0300
1000
0001
,
0200
0320
0000
0000
,
0000
1030
0001
0010
,
0001
2000
0000
0000
,
0000
3001
0010
0100
,
1000
0001
0100
0010
,
1000
0001
0010
0001
,
0010
0200
0000
0000
,
0300
1001
0001
1000
,
0010
0100
0001
0010
,
0100
1000
0010
0100
,
0001
0010
0100
1000
,
0001
1000
0100
1000
,
0010
0100
0001
0010
,
0100
0010
0001
1000
,
0010
0200
0000
0000
,
0300
1001
0002
0000
,
0003
1000
0020
0000
,
0030
1000
2000
0000
,
3000
0000
0001
0000
0000
1000
0000
0000
,
0000
0001
0200
0000
,
0300
0010
2000
0000
,
3000
0100
0010
0001
,
0010
0002
0000
0000
,
0003
1001
0000
0000
,
0000
1000
0000
0000
,
0000
0010
0000
0000
,
0000
0100
0000
0000
,
0000
1001
0001
1000
,
0010
0100
0001
0010
,
0100
1000
0001
0010
,
0001
2000
0000
0000
,
3000
10M1
1001
2000
,
0000
3000
0001
0200
,
0000
0300
0001
0020
,
0000
0000
0030
0000
0100
0000
0000
0010
,
0000
0000
0001
2000
,
0000
3000
0001
0020
,
0000
0030
0100
0020
,
0000
0000
0030
0000
0001
0000
0000
1000
,
0000
0000
2001
0000
,
0000
3000
0002
0000
,
0000
0003
0200
0000
,
0000
0000
0300
0000
0010
0000
0000
1000
,
0000
0000
0002
0000
,
0000
0003
2000
0000
,
0000
3000
0020
0000
,
0000
0000
0130
0000
,
0000
0000
1001
0000
;

//--------------- dance-single - ----------------
#NOTES:
     dance-single:
     :
     Medium:
     7:
     0.271,0,0.027,0.151,0:
0000
0000
0000
0000
,
0000
0000
0000
0000
,
0000
1001
0001
0010
,
0100
2000
3002
0203
,
0310
1010
0000
1000
,
0001
0200
0000
0300
0000
0000
0001
0000
,
0010
0200
0000
0300
0000
0000
1000
0000
,
0001
0200
0000
0000
0300
0000
0000
0000
,
0000
0000
0001
0000
1000
0100
1000
0000
,
0001
0100
0010
1000
,
0100
0000
0010
0000
0001
1000
0001
0000
,
0100
0010
1000
0001
,
0010
0011
0001
2000
,
3001
0100
0010
0000
1000
0000
0002
0000
,
0013
0100
1000
0000
0001
0000
2000
0000
,
3100
0010
0200
0000
0000
0320
0000
0000
,
0031
1000
0010
0000
1000
0000
0001
0000
,
0010
0100
0020
0000
0000
0032
0000
0000
,
1003
0010
0100
0000
0001
0000
0010
0000
,
0100
1000
0001
0100
,
0010
1000
0100
0010
,
0001
0000
1000
0001
1000
0001
1000
0001
,
1000
0001
0200
0000
0310
0000
2000
0000
,
3001
0020
0130
2000
,
3001
0020
0130
2000
,
3100
0020
0031
1000
,
0010
0200
0301
0020
,
0130
2000
3001
0010
,
0100
0010
0001
1000
,
0001
0000
0010
0100
0010
0100
1000
0001
,
1000
0001
2000
0000
3001
0200
0000
0301
,
0200
0000
0302
0000
0013
0200
0000
1300
,
0001
0000
2000
0000
3100
0020
0000
0031
,
1000
0000
0002
0000
0000
1003
0000
0000
,
0001
0000
2000
0000
3100
0020
0000
0031
,
0010
0000
0002
0000
0103
0020
0000
0130
,
0001
0000
0010
0000
0100
2000
0000
3001
,
0020
0000
0031
0100
0001
0100
0010
1000
,
0010
1000
0002
0000
0000
0000
0000
0000
,
0000
0203
0000
0000
,
0000
0320
0000
0000
,
0000
2030
0000
0000
,
3000
0000
1000
0001
0000
0100
0000
0001
,
0000
0010
0000
0100
0000
1000
0000
0001
,
0000
0100
0000
0001
0000
0010
0000
0001
,
0000
1000
0001
0010
0001
0010
0100
1000
,
0001
1000
00M1
0000
1001
0000
1000
0200
,
0000
0310
0002
0000
0203
0000
0301
0020
,
0000
0130
1000
0000
0002
0000
0103
0020
,
0000
0130
0001
0000
2000
0000
0000
3010
,
0000
0000
0100
0000
0002
0000
0013
0002
,
0000
1003
0010
0000
2000
0000
3001
2000
,
0000
3100
1000
0000
0002
0000
1003
0100
,
0000
0010
0001
0000
2000
0000
0000
3010
,
0000
0000
1000
0000
1002
0000
1003
0020
,
0000
0130
0001
0000
0010
0000
0100
1000
,
0000
0001
0100
0000
0020
0000
1030
0100
,
0000
0010
0001
0000
2000
0000
0000
3010
,
0000
0000
0000
0000
2000
0000
3001
0020
,
0000
0130
1000
0000
0002
0000
0103
0010
,
0000
0100
0001
0000
2000
0000
3100
0010
,
0000
0001
0100
0000
0020
0000
0000
1030
,
0000
0000
0110
0000
;

//--------------- dance-single - JA XO- ----------------
#NOTES:
     dance-single:
     JA XO-:
     Hard:
     10:
     0.373,0,0.186,0.373,0.035:
0000
0000
0000
0000
,
0000
0000
0000
0000
,
0000
0000
1000
0001
0000
1000
0000
0010
,
0000
0100
0001
0010
0100
1000
0001
0100
,
0010
1000
0002
0000
0103
0000
0020
0000
,
1000
2030
0000
3000
0001
0000
0020
0000
,
0100
0230
0000
0300
1000
0000
0002
0000
,
0010
0023
0000
0000
0130
0000
0000
0000
,
1000
0000
0001
0000
0100
0010
0100
0001
,
0200
0010
0000
0310
0100
0001
1000
0000
,
0001
0010
0100
0000
1000
0010
1000
0001
,
0200
0010
0000
0310
1000
0000
0100
0000
,
0010
0000
0011
0000
0001
0010
0100
0000
,
1000
0100
0010
0000
0001
0010
0001
0000
,
1000
0010
1000
0000
0001
0010
0100
0000
,
1000
0010
2000
0000
0000
0001
0000
0000
,
0100
3100
0010
0000
0001
0100
0010
0100
,
0001
1000
0020
0000
0000
1000
0000
0000
,
0100
0130
0010
1000
0010
1000
0001
0010
,
0100
1000
0001
0100
0010
1000
0001
0010
,
0001
0010
0100
1000
0100
1000
0100
1000
,
0001
1000
0001
0010
0100
1000
0100
0010
,
0001
1000
1001
0001
0010
1000
0000
0010
,
0001
1000
0000
0001
0100
1000
0000
0100
,
0001
0010
0000
0001
0100
1000
0000
0100
,
0010
0100
0000
0001
0010
0100
0000
1000
,
0001
1000
0000
0001
0100
1000
0000
0100
,
0010
0100
0000
0001
0010
0100
0000
1000
,
0001
1000
0001
0010
0001
0010
0100
1000
,
0001
0100
0010
1000
0100
0010
0001
0010
,
0100
1000
0002
0000
0100
0100
0000
0010
,
0023
0000
0230
0000
0010
0010
0000
1000
,
1300
0000
0002
0000
1003
0020
0000
0130
,
0001
0000
0010
0001
1000
0001
0000
1000
,
0010
1000
0002
0000
1000
1000
0000
0010
,
0013
0000
0200
0000
1000
1000
0000
0010
,
0310
0000
0001
1000
0001
1000
0010
0100
,
0010
0100
0001
0010
0100
1000
0100
0010
,
0001
1000
1001
0000
0001
0000
0010
0000
,
0100
0000
1000
0000
0001
0010
0001
0000
,
0100
0000
0010
1000
0010
0000
1000
0100
,
0010
0000
0001
0010
0001
0000
0100
0010
,
0100
0000
0101
0001
0000
1000
0000
0010
,
0000
0100
0000
0001
0000
0010
0000
0100
,
0000
1000
0000
0001
0000
0010
0000
0001
,
0000
1000
0100
0010
0001
0010
0100
1000
,
0010
1000
1M01
0000
0102
0000
1000
1000
,
0000
0010
0023
0000
0230
0000
1000
1000
,
0000
0010
0310
0000
0002
0000
0013
0100
,
0000
0100
0010
0000
0001
1000
0010
0000
,
0100
0001
0100
0000
0020
0000
1000
1000
,
0000
0100
0230
0000
0302
0000
0010
0010
,
0000
1000
1003
0000
0002
0000
0103
0020
,
0000
1030
0010
0000
1000
0001
0000
0100
,
0000
0010
0000
1000
1002
0000
0103
0020
,
0000
1030
0001
0000
0020
0000
0032
2000
,
0003
3001
0010
0000
0200
0000
0310
0002
,
0000
1003
0010
0000
0200
0000
0000
0302
,
0000
0003
0000
0000
2000
0000
3100
0020
,
0030
0001
0010
0000
0200
0000
1300
0020
,
0000
0130
0001
0000
0020
0000
0130
2000
,
0000
3001
0100
0000
0020
0000
0000
2030
,
0000
3000
0000
0000
1001
0000
0000
0000
;

//--------------- dance-single - STR FS+ DS ----------------
#NOTES:
     dance-single:
     STR FS+ DS:
     Challenge:
     16:
     0.567,0,0.16,0.488,0.373:
0000
0000
0000
0000
,
0000
0000
0000
0000
,
0000
0000
1000
0001
0100
0010
0M00
0010
,
0001
0000
1000
0000
0001
0100
0001
0100
0010
1000
0100
1000
0001
0010
0100
1000
,
0001
0100
0010
1000
0001
0000
0000
1000
0000
0100
0010
0000
0001
0000
0000
0100
,
0000
0010
1000
0000
0001
0000
0000
0100
0000
0010
1000
0000
0001
0000
0000
0100
,
0000
0010
1000
0000
0001
0000
0000
0010
0000
0100
1000
0000
0001
0000
0000
0100
,
0000
0010
1000
0000
0001
0000
0000
1000
0000
0100
1000
0000
0001
0000
0000
1000
,
0000
0100
1000
0000
0001
0000
0100
0010
0100
0000
0001
0000
1000
0000
0001
0100
,
0001
0000
1000
0000
0002
0000
0003
1000
0000
0001
0010
0000
0100
0000
0000
1000
,
0000
0100
1000
0000
0002
0000
0000
0000
1003
0000
0010
0000
0100
0000
0001
0000
,
0100
0000
0010
0000
1000
0000
0000
0001
0000
0010
0100
0000
1000
0000
0000
0010
,
0000
0100
0001
0000
1001
0000
1000
0100
0010
0001
1000
0000
0001
0000
1000
0100
,
0010
0100
1000
0000
0001
0000
1000
0010
0100
0010
1000
0000
0001
0000
1000
0100
,
0010
0001
1000
0000
0001
0000
0100
0010
0100
0001
0100
0000
0010
0000
1000
0100
,
1000
0001
1000
0000
0002
0000
0000
0000
0000
0000
2003
0000
0000
0000
0000
0000
,
3010
0M00
0010
0000
0002
0000
0000
0000
1003
0000
0001
0000
0100
00M0
0100
0000
,
1000
0001
2000
0000
0000
3002
0000
0000
,
0103
00M0
0100
0000
1000
0010
1000
0100
1000
0001
0100
0010
0100
0001
0100
0010
,
1000
0100
0010
0001
1000
0010
1000
0001
0010
0100
1000
0001
0100
0010
0100
0001
,
1000
0010
1000
0010
0100
0001
0010
0001
1000
0100
0010
0001
1000
0010
0100
0001
,
1000
0100
1000
0001
1000
0100
0010
0001
1000
0010
0100
0001
1000
0100
0010
0001
,
1000
0000
0010
0000
0100
0000
0001
0000
1000
0000
0000
0000
0100
00M0
0100
0000
0001
0000
0000
0000
0100
0000
0000
0000
0001
0000
0000
0000
0100
00M0
0100
0000
,
1000
0000
0000
0000
0010
0M00
0010
0000
0001
0000
0000
0000
1000
0000
0000
0000
0001
0000
0100
0000
00M0
0000
0100
0000
1000
0000
0000
0000
0001
0000
0000
0000
,
1000
0000
0000
0000
0010
0M00
0010
0000
0001
0000
0000
0000
0100
M000
0100
0000
0010
0000
0000
0000
0001
0000
0100
0000
0001
0000
0000
0000
0100
00M0
0100
0000
,
1000
0000
0000
0000
0010
0M00
0010
0000
0001
0000
0000
0000
1000
0000
0000
0000
0001
0000
0100
0000
0010
0000
0000
0000
0010
0000
0000
0000
1000
0000
0001
0000
,
1000
0000
0000
0000
0100
00M0
0100
0000
0001
0000
0000
0000
0010
0M00
0010
0000
1000
0000
0000
0000
0100
00M0
0100
0000
0001
0000
0000
0000
0010
0000
001M
0000
,
0100
0000
0000
0000
0001
0000
0000
0000
0100
0000
0000
0000
0010
0000
0000
0000
1000
0000
0000
0000
0001
0000
1000
0000
0100
00M0
0100
0000
0001
0000
1000
0000
,
0001
0000
1000
0010
1000
0100
0010
0001
1000
0010
0100
0001
1000
0100
1000
0010
,
0100
0001
0010
0001
1000
0100
1000
0100
0010
0001
0010
0001
0100
0010
0100
0010
,
1000
0100
0010
0001
2000
0000
0000
0000
0001
0000
3200
0000
0000
0000
1000
0000
,
0320
0000
0032
0000
1000
0023
0000
0001
,
0130
0000
2000
0000
0001
3020
0000
0100
,
1030
0000
0000
0000
0002
0000
0000
0000
1003
0000
0010
0000
0100
00M0
0100
0000
,
1000
0001
2000
0000
0001
3020
0000
0100
,
1030
0000
0002
0000
1000
0203
0000
0010
,
0301
0000
0000
0000
1000
0100
0010
0001
1000
0010
1000
0010
0100
0001
1000
0100
,
0010
0100
1000
0001
1000
0100
0010
0001
1000
0010
0100
0001
1000
0100
0010
0001
,
1000
0000
0010
0000
0100
0000
0001
0000
1000
0000
0000
0000
0010
0000
0100
0000
0010
0000
0000
0000
1000
0000
0100
0000
1000
0000
0000
0000
0001
0000
0100
00M0
,
0100
1000
0010
0100
0001
0100
0100
1000
0001
0000
0100
0000
0001
0010
0010
1000
,
0100
0100
0001
0010
0001
1000
0100
0100
0001
1000
0100
0100
0001
1000
0010
0010
,
0001
1000
0010
0010
0001
0100
0001
0100
0010
1000
0010
1000
0001
0010
0100
1000
,
0001
0100
0010
1000
0001
0100
0001
0010
0100
1000
0001
0100
0010
1000
0001
0010
,
0001
0100
0010
1000
0100
1000
0001
0010
0100
1000
0001
0100
0001
0010
0100
1000
,
0010
1000
0001
0010
0100
1000
0001
0100
0001
1000
0001
0010
0001
1000
0100
0010
,
0100
1000
0100
0010
0001
0100
0001
0100
0010
1000
0010
1000
0001
0010
0001
0010
,
0100
1000
0100
1000
00M1
0000
0000
0000
2001
0000
0000
0000
0001
0000
3200
0000
,
0000
1000
0320
0000
0032
0000
1000
0023
,
0000
0001
0130
0000
2000
0000
0001
3200
,
0000
0000
0010
0000
1300
0000
0010
0100
0010
0000
1000
0000
0001
0000
0100
0000
,
0001
0010
0100
0010
0002
0000
1000
0023
,
0000
0100
0032
0000
2003
0000
0001
3020
,
0000
0100
1030
0000
0002
0000
1000
0203
,
0000
0010
0301
0000
1000
0010
1000
0010
,
0100
0001
0010
0001
2000
0000
3001
0100
,
00M0
0100
2000
0000
3002
0000
1003
0010
,
0M00
0010
0002
0000
2003
0000
3001
0100
,
00M0
0100
1000
0000
0002
0000
0000
2003
,
0000
3000
0000
0000
0002
0000
0103
0010
,
0M00
0010
0001
0000
2000
0000
3010
0100
,
00M0
0100
1000
0000
0020
0000
1030
0010
,
0M00
0010
0001
0000
0200
0000
0000
0301
,
0000
0000
1001
0000
;

//--------------- dance-double - ----------------
#NOTES:
     dance-double:
     :
     Hard:
     11:
     0,0,0,0,0:
00000000
00000000
00000000
00000000
,
00000000
00000000
00000000
00000000
,
00000000
00000000
00010000
00001000
00000000
01000000
00000000
00010000
,
00000000
10000000
00010000
01000000
00010000
01000000
00001000
00010000
,
00001000
00010000
00000100
00000000
00010000
00000000
00000002
00000000
,
00001003
00001000
00000010
00000000
00001000
00000000
00000020
00000000
,
00010030
00010000
00000000
00000000
00001000
00000000
02000000
00000000
,
03010000
00010000
10000000
00000000
00010000
00000000
00000000
00000000
,
01000000
00000000
00001000
00000000
00010000
00000100
00010000
00000100
,
00002000
00000010
00000000
00003100
00001000
00000000
00000001
00000000
,
00000010
00000000
00000100
00000000
00001000
00000100
00000010
00000001
,
00002000
00000010
00000000
00003100
00001000
00000000
00000100
00000000
,
00010000
00000000
00010100
00000000
00000100
00010000
00001000
00000000
,
00000100
00001000
00010000
00000000
00001000
01000000
00100000
00000000
,
00010000
00100000
01000000
00000000
00010000
10000000
01000000
00000000
,
10000000
00010000
20000000
00000000
00000000
30002000
00000000
00000000
,
00013000
00010000
00000100
00000000
00010000
00000010
00000100
00000010
,
00010000
00000001
00020000
00000000
00000000
00030020
00000000
00000000
,
00000130
00000100
00000010
00001000
00000010
00010000
00001000
00010000
,
00001000
01000000
00100000
10000000
01000000
00100000
00010000
10000000
,
00100000
10000000
00010000
00100000
00001000
00100000
00010000
00100000
,
00001000
00010000
00000100
00001000
00000001
00000010
00000100
00001000
,
00000001
00001000
00001001
00000001
00001000
00000010
00000M00
00000010
,
00000001
00001000
00000000
00001000
00000100
00010000
00M00000
00010000
,
01000000
00100000
00000000
01000000
00010000
01000000
M0000000
01000000
,
00100000
00001000
00000000
00010000
00000010
00000100
0000M000
00000100
,
00001000
00000100
00001000
00000001
00000100
00000010
00000000
00010000
,
00001000
00010000
00000000
00001000
00100000
00010000
00000000
10000000
,
00010000
10000000
00010000
00100000
01000000
10000000
00100000
01000000
,
00001000
00010000
00000100
00001000
00000100
00001000
00000001
00000010
,
00000100
00001000
00000200
00000000
00000001
00000001
00000000
00001000
,
00001300
00000000
00000200
00000000
00010000
00010000
00000000
00001000
,
00001300
00000000
00000100
00010000
00001000
10000000
01000000
00100000
,
00010000
10000000
00010000
00100000
01000000
10000000
00100000
01000000
,
00001000
01000000
00020000
00000000
10000000
10000000
00000000
00100000
,
00130000
00000000
00020000
00000000
10000000
10000000
00000000
00100000
,
00130000
00000000
10000000
01000000
00100000
00001000
00010000
00000100
,
00000010
00000100
00000001
00001000
00000100
00001000
00000001
00001000
,
00000100
00001000
00001001
00000000
00000001
00000000
00001000
00000000
,
00000001
00000000
00001000
00000100
00001000
00000000
00000001
00000010
,
00000001
00000000
00001000
00000010
00000100
00000010
00001000
00000001
,
00000010
00000100
00001000
00010000
00100000
01000000
10000000
00010000
,
01000000
00010000
10000000
01000000
10000000
01000000
00100000
00010000
,
00100000
00010000
01000000
00001000
00010000
00001000
00010000
00000100
,
00001000
00000100
00010000
00000010
00000100
00000010
00001000
00000001
,
00000010
00000100
00001000
00000001
00001000
00000010
00000100
00000001
,
00000010
00000100
MMMM1100
00000000
00000002
00000000
00001000
00001000
,
00000000
00000010
00000013
00000000
00000002
00000000
00010000
00010000
,
00000000
00001000
00001003
00000000
00000010
00010000
00001000
00100000
,
00010000
10000000
01000000
00100000
00010000
00001000
00000100
00000010
,
00000100
00001000
00010000
00100000
02000000
00000000
10000000
10000000
,
00000000
00010000
03010000
00000000
00200000
00000000
00001000
00001000
,
00000000
00010000
00310000
00000000
00001000
00010000
00000100
00010000
,
00000100
00001000
00000010
00000100
00000001
00000010
00000100
00001000
,
00010000
00100000
01000000
10000000
10020000
00000000
10030000
02000000
,
00000000
03100000
00010000
00000000
00001000
00000000
00000100
00020000
,
00000000
00030010
00001000
00000000
00000100
00000000
00010000
00001000
,
00000000
00010000
00000100
00000000
00002000
00000000
00000000
00003001
,
00000000
00000000
00000000
00000000
00000001
00000000
00000100
00001000
,
00000000
00000100
00000010
00000000
00010000
00000000
00001000
00100000
,
00000000
00010000
10000000
00000000
01000000
00000000
00100000
00010000
,
00000000
01000000
00100000
00000000
20000000
00000000
00000000
30010000
,
00000000
00000000
01100000
00000000
;
