#TITLE:Наедине;
#SUBTITLE:;
#ARTIST:Нюша;
#TITLETRANSLIT:Naedine;
#SUBTITLETRANSLIT:;
#ARTISTTRANSLIT:Nyusha;
#GENRE:;
#CREDIT:Braeden;
#MUSIC:Naedine.ogg;
#BANNER:;
#BACKGROUND:;
#CDTITLE:;
#SAMPLESTART:92.966;
#SAMPLELENGTH:16.520;
#SELECTABLE:YES;
#OFFSET:-0.301;
#BPMS:0.000=120.000;
#STOPS:183.000=1.000;
#BGCHANGES:;
#FGCHANGES:;

//--------------- dance-single - ----------------
#NOTES:
     dance-single:
     :
     Beginner:
     3:
     0.056,0.064,0,0.094,0:
0000
0000
0000
0000
,
0000
0000
0000
0000
,
0000
0001
0001
0000
,
1000
0000
0001
0000
,
0100
0000
0000
0000
,
0010
0000
1000
0000
,
0001
0000
0000
0000
,
1000
0000
0000
0000
,
0000
0001
0000
1000
,
0000
0010
0000
0100
,
0000
0001
0000
0010
,
0000
0100
0000
0010
,
0000
0001
0000
1000
,
0000
0001
0000
0010
,
0000
0100
0000
1000
,
1000
1000
0000
0000
,
0002
0000
0000
0003
,
0000
0000
0100
0100
,
0000
0000
0000
0000
,
0000
0000
0010
0000
,
0200
0000
0000
0300
,
0000
0000
0010
0010
,
0000
0000
0000
0000
,
0000
0000
1000
0000
,
0002
0000
0000
0003
,
0000
0000
0100
0100
,
0000
0000
0000
0000
,
0000
0000
0010
0000
,
2000
0000
0000
3000
,
0000
0000
0010
0010
,
0000
0100
0000
0001
,
0000
1000
0000
0001
,
1000
0000
0001
0000
,
1000
0000
0001
0000
,
1000
0000
0001
0000
,
1000
0000
0001
0000
,
2000
0000
0000
3002
,
0000
0003
0000
0000
,
0100
0000
0100
0000
,
0010
0000
1000
0000
,
0001
0000
0000
0010
,
0010
0000
0000
0100
,
0100
0000
0000
0010
,
0010
0000
0000
0001
,
0001
0000
0000
1000
,
1000
0000
0001
0001
,
1000
0000
0002
0000
,
0000
0003
0000
0000
,
0100
0100
0000
0010
,
0000
1000
0000
0001
,
0001
0000
0200
0000
,
0000
0300
0000
0000
,
0001
0001
0000
1000
,
0000
0100
0000
0010
,
0010
0000
0002
0000
,
0000
0003
0000
0000
,
0001
0001
0000
1000
,
0000
0010
0000
1000
,
0000
0010
0020
0000
,
0000
0030
0000
0000
,
0100
0100
0000
0001
,
0000
1000
0000
0001
,
0000
1000
0002
0000
,
0000
0003
1000
0000
,
0000
0000
0100
0000
;

//--------------- dance-single - ----------------
#NOTES:
     dance-single:
     :
     Easy:
     5:
     0.123,0.15,0.007,0.233,0:
0000
0000
0000
0000
,
0000
0000
0000
0000
,
1000
0001
0100
0010
,
1000
0001
1000
0100
,
0020
0031
1000
0000
,
0001
0100
0010
1000
,
0002
0103
0001
0000
,
0010
0100
1000
0002
,
1003
1001
0001
0100
,
0010
1000
0000
1001
,
0001
0100
0010
1000
,
0100
0010
0001
1000
,
0002
1003
0000
0001
,
0100
0010
1000
0100
,
0020
0130
0000
1000
,
0001
1000
0001
0000
1000
0000
0001
0000
,
2000
0000
0000
0000
0000
0000
3100
0100
,
0000
0000
0010
0001
,
1000
0020
0000
0130
,
0001
0010
0100
1000
,
0002
0000
0000
0000
0000
0000
1003
1000
,
0000
0010
0100
0001
,
0000
0010
0000
0100
,
1000
0001
0100
0010
,
2000
0000
0000
0000
0000
0000
3001
0001
,
0000
0100
0010
1000
,
0001
0010
0000
0100
,
1000
0001
1000
0100
,
0020
0000
0000
0000
0000
0000
0031
0001
,
0000
1000
0010
0100
,
0001
0010
0000
0100
,
1000
0001
1000
0100
,
0010
0000
0010
0000
,
0001
0000
1000
0000
,
0001
0000
0010
0000
,
0100
0000
1000
0000
,
0002
0000
1003
0010
,
0200
0300
0001
0000
,
1000
0000
0001
0000
,
0010
0000
0100
0000
,
1000
0000
0000
0001
0000
0000
1000
0000
,
0100
0000
0000
0010
0000
0000
0001
0000
,
0100
0000
0000
0010
0000
0000
1000
0000
,
0001
0000
0000
0010
0000
0000
0100
0000
,
1000
0000
0000
0001
0000
0000
0100
0000
,
0010
1000
0001
1000
,
0001
0100
0020
0000
,
0000
0000
1030
1000
0000
0000
0000
0000
,
0100
0010
0001
2001
,
0000
3001
0100
0010
,
2000
3002
2003
0001
,
0000
0000
0010
3010
0000
0000
0100
0000
,
0001
0010
0100
1001
,
0000
0010
1000
0001
,
1000
0100
0020
0001
,
0000
0000
0130
0100
0000
0000
0010
0000
,
0001
0010
0100
1000
,
0001
0100
0010
1000
,
0001
1000
0002
1000
,
0000
0000
0013
0010
0000
0000
0100
0000
,
0001
0010
0100
1000
,
0000
0001
0100
0010
,
1000
0001
2000
0000
,
3001
0100
0020
0000
,
1030
0000
0100
0010
,
0002
0000
0000
0000
,
0000
0000
0003
0000
;

//--------------- dance-single - ----------------
#NOTES:
     dance-single:
     :
     Medium:
     8:
     0.236,0.236,0.007,0.342,0:
0000
0000
0000
0000
,
0000
0000
0000
0000
,
1000
0001
0100
0010
,
1000
0001
1000
0000
0001
0010
0001
0010
,
0001
0100
0010
1000
,
0001
0000
0010
0000
0100
1000
0100
1000
,
0100
0010
0001
0100
,
0001
1000
0001
0000
0010
0000
0100
0000
,
1000
0000
1001
0000
0001
0000
0010
0100
,
1000
0100
2000
0000
3001
0000
0011
0000
,
0010
0000
0100
1000
0100
0000
1001
0000
,
0001
1000
0001
0000
1000
0100
0010
0001
,
2000
3001
0010
0100
,
1000
0001
1000
0000
0001
0010
0100
1000
,
0002
0103
0010
1000
,
0001
0000
0100
0000
0001
0000
0000
1000
0000
0001
0000
0000
0100
0000
0001
0000
,
2000
0000
0001
0000
0100
0000
3001
0001
,
0100
0010
0100
0000
0001
1000
0010
0000
,
1000
0000
0100
0000
0010
0000
0000
0001
0000
0000
0100
0000
0010
0000
0000
0000
,
1000
0001
1000
0000
0001
0010
0100
0000
,
2000
0000
0001
0000
0100
0000
3010
0010
,
1000
0000
0001
0000
0010
0100
1000
0000
,
0001
0000
0000
0000
1000
0000
0000
0010
0000
0000
0000
0000
1001
0000
0000
0000
,
1000
0100
0010
0000
0001
0100
0010
0000
,
2000
0000
0001
0000
0100
0000
3001
0001
,
0100
0000
0001
0000
0010
0100
1000
0000
,
0001
0000
0100
0000
0001
0000
0000
0010
0000
0000
0100
0000
1000
0000
0000
0000
,
0001
0100
0001
0000
0010
0100
1000
0000
,
0002
0000
1000
0000
0010
0000
0103
0100
,
0010
0000
1000
0000
0001
0010
0100
0000
,
1000
0000
0000
0000
0001
0000
0000
0100
0000
0000
0000
0000
0010
0000
0000
0000
,
1000
0000
0001
0000
0100
0000
0000
0001
0000
0000
0010
0000
0100
0000
0000
0000
,
1000
0000
0002
2003
,
3020
0030
1000
0000
,
0002
0003
0100
0000
,
0010
0000
1000
0000
,
0002
0000
0000
0000
1003
0000
0001
0100
,
0020
0030
1000
0000
,
0001
0000
0010
0000
,
0100
0000
0000
0000
0000
0000
0000
0000
1000
0000
0000
0001
0000
0000
0100
0000
,
0010
0000
0000
0010
0000
0000
1000
0000
0000
0001
0000
0000
1000
0000
0000
0000
,
0001
0000
0000
0010
0000
0000
0100
0000
0000
1000
0000
0000
0001
0000
0000
0000
,
0100
0000
0000
0010
0000
0000
0100
0000
0000
0001
0000
0000
0100
0000
0000
0000
,
0001
0000
0000
0010
0000
0000
0001
0000
0000
0010
0000
0000
0001
0000
0000
0000
,
1000
0000
0000
0100
0000
0000
0010
0000
0000
0001
0000
0000
1000
0000
0001
0000
,
0100
0010
0100
0001
0000
0000
0000
0000
,
1000
0001
1000
0000
0002
0000
0010
0000
,
0100
0000
1003
1000
0010
0000
0100
0000
,
0001
0000
0010
0000
0100
0000
0000
0000
1000
0000
0001
0000
1000
0000
0000
0100
,
0000
0010
0001
0000
1000
0010
1000
0000
,
0001
0010
0100
0000
2000
0000
0001
0000
,
0100
0000
3001
0001
1000
0000
1010
0000
,
0010
0000
0100
0000
0001
0000
0000
0000
0010
0000
0100
0000
1000
0000
0000
0001
,
0000
0100
0010
0000
0100
0001
0100
0000
,
0001
0010
0100
0000
2000
0000
0001
0000
,
0100
0000
3001
0001
0100
0000
0010
0000
,
1000
0000
0001
0000
1000
0000
0000
0000
0001
0000
0010
0000
0100
0000
0000
0010
,
0000
0001
1000
0000
0001
0100
0010
0000
,
1000
0001
0100
0000
0020
0000
1000
0000
,
0100
0000
1030
0001
0100
0000
0010
0000
,
1000
0000
0001
0000
1000
0000
0000
0000
0001
0000
0010
0000
0100
0000
0000
0010
,
0000
0001
1000
0000
0001
0100
0001
0000
,
0100
0000
0010
0000
2000
0000
0000
3001
,
0100
0000
0010
2000
3001
0000
0100
0000
,
0100
0001
0010
0000
,
0002
0000
0000
0000
,
0000
0000
0003
0000
;

//--------------- dance-single - FS SJ DS ----------------
#NOTES:
     dance-single:
     FS SJ DS:
     Hard:
     13:
     0.407,0.622,0.116,0.16,0.178:
0000
0000
0000
0000
,
0000
0000
0000
0000
,
1000
0001
0100
0010
2000
3100
0001
0100
,
1000
0000
0001
0000
0100
0010
0000
0010
0100
0000
0001
0000
0100
0000
1000
0000
,
0100
0000
0010
0000
1000
0001
0000
1000
0000
0000
0100
0000
0010
0000
0000
0000
,
0001
0000
0100
0000
0001
0010
0000
0001
0100
0000
0010
0000
1000
0000
0100
0000
,
0001
0000
0100
0000
1000
0001
0000
1000
0000
0000
0010
0000
0100
0000
0000
0000
,
0001
0000
0100
0000
0001
0010
0000
0100
0000
0000
1000
0000
0001
0000
0000
0000
,
0100
1000
1100
0100
0002
0000
1003
0001
,
0010
0000
0100
0000
1000
0001
0000
0010
0000
0000
0001
0000
1001
0000
0000
0000
,
1000
0100
0110
0100
1000
0000
0001
0100
,
1000
0000
0100
0000
0001
0010
0000
0100
0010
0000
0001
0000
1000
0000
0010
0000
,
1000
0000
0100
0000
0010
0100
0000
1000
0000
0000
0001
0000
0100
0000
0000
0000
,
0001
0000
0100
0000
1000
0100
0000
0010
0100
0000
0001
0000
0010
0000
0100
0000
,
1000
0000
0100
0000
0010
0001
0000
0010
0000
0000
0001
0000
0100
0000
0000
0000
,
0001
0000
0001
0000
1000
0010
0000
1000
0000
0010
0000
0100
0001
1000
0001
1000
,
0002
0000
0100
0000
1003
0010
0M00
0010
0000
0000
0001
0000
2000
0000
0010
0000
,
3001
0000
1000
0000
0001
0010
0M00
0010
1000
0000
0001
0000
0101
0000
0000
0000
,
0002
0000
0100
0000
1003
0000
0001
0010
0000
0M00
0010
0000
1000
0000
0002
0000
,
1000
0000
0000
0000
0000
0000
0000
0000
0000
0000
0000
0000
0013
0000
0000
0000
0000
0000
0000
0000
0000
0000
0000
0000
0001
0000
0000
0000
0000
0000
0000
0000
0000
0000
0000
0000
1000
0000
0000
0000
0000
0000
0010
0000
0000
0000
0000
0000
0100
0000
0000
0000
0000
0000
0000
0010
0000
0000
0000
0000
1000
0000
0000
0000
0000
0000
0000
0000
0000
0000
0000
0000
0002
0000
0000
0000
0000
0000
0000
0000
0000
0000
0000
0000
0100
0000
0000
0000
0000
0000
0000
0000
0000
0000
0000
0000
,
1003
0000
0001
0000
1000
0010
0M00
0010
0000
0000
0001
0000
1001
0000
1000
0000
,
0001
0000
0100
0000
0001
0010
0M00
0010
1000
0000
0010
0000
0100
0000
0000
0000
,
0001
0000
0100
0000
0001
0000
0001
0100
0000
00M0
0100
0000
1100
0000
2000
0000
,
0001
0000
3010
0000
1010
0000
1000
0100
0000
0100
0010
0000
0002
0000
0000
0000
,
2003
0000
0010
0000
3001
0100
00M0
0100
0000
0000
1000
0000
1001
0000
0001
0000
,
1000
0000
0100
0000
0010
0001
0010
0001
1000
0000
0010
0000
0110
0000
0100
0000
,
0002
0000
0000
0000
0100
0000
0000
0000
1003
0000
0000
0000
1000
0000
0010
0000
0000
0M00
0000
0000
0010
0000
0000
0000
0011
0000
0000
0000
0002
0000
0000
0000
,
1003
0000
0000
0000
0000
0000
0000
0000
0000
0000
0000
0000
0001
0000
0000
0000
0000
0000
0000
0000
0000
0000
0000
0000
0100
0000
0000
0000
0000
0000
0000
0000
0000
0000
0000
0000
0010
0000
0000
0000
0000
0000
1000
0000
0000
0000
0000
0000
0000
0000
0000
0000
0000
0000
1000
0000
0000
0000
0000
0000
0001
0000
0000
0000
0000
0000
0000
0000
0000
0000
0000
0000
1000
0000
0000
0000
0000
0000
0000
0000
0000
0000
0000
0000
0001
0000
0000
0000
0000
0000
0000
0010
0000
0000
0000
0000
,
0001
0000
1000
0000
0001
0100
00M0
0100
1000
0000
0010
0000
0110
0000
0100
0000
,
0001
0000
1000
0000
0001
0100
00M0
0100
1000
0000
0001
0000
1001
0000
1000
0000
,
0001
0000
0100
0000
0001
0000
1000
0010
0000
0M00
0010
0000
0100
0000
1000
0000
,
0001
0000
0100
0000
0110
0000
0010
1000
0000
1000
0001
0000
0100
0000
0010
0000
,
2000
0000
3000
0001
0200
0000
0320
0000
,
2030
0000
3000
0000
0001
0000
0000
1000
,
2000
0000
3001
0000
,
0100
0000
0000
0010
0020
0000
0030
1000
,
0002
0000
0000
0000
1000
0003
0100
0010
,
0200
0000
0300
0000
0001
0000
0000
1000
,
0002
0000
0103
0000
,
0010
0000
0000
0000
0000
0000
0000
0000
1000
0000
0000
0100
0000
0000
0010
0000
,
0002
0000
0000
1000
0000
0000
0013
0000
0000
0001
0000
0001
0100
0000
0010
0000
,
1000
0000
0000
0001
0000
0000
0100
0000
0000
0010
0000
1000
0100
0000
0010
0000
,
0001
0000
0000
1000
0000
0000
0001
0000
0000
0100
0000
0100
0010
0000
1000
0000
,
0100
0000
0000
0010
0000
0000
0001
0000
0000
1000
0000
1000
0010
0000
0100
0000
,
0001
0000
0000
0010
0000
0000
0100
0000
0000
1000
0000
1000
0010
0000
0100
0000
,
0001
1000
0001
1000
0010
0100
0010
0100
0001
0000
1000
0000
0M01
0000
0000
0000
,
0100
0000
0010
0000
0100
0000
0000
0000
2001
0000
0010
0000
3001
0100
00M0
0100
,
0000
0000
1000
0000
0002
0000
0100
0000
1003
0000
0010
0000
1000
0100
00M0
0100
,
0001
0000
1000
0000
1010
0000
0000
0000
2000
0000
0010
0000
3001
0000
1000
0100
,
0000
00M0
0100
0000
0001
0000
2000
0000
0001
0000
3100
0000
1000
0000
0001
0100
,
0010
0000
0000
0000
0000
0000
0000
0100
0000
0000
0000
0000
0001
0000
0000
0000
0000
0000
0000
0000
0000
0000
0000
0000
2000
0000
0000
0000
0000
0000
0000
0000
0000
0000
0000
0000
0010
0000
0000
0000
0000
0000
0000
0000
0000
0000
0000
0000
3001
0000
0000
0000
0000
0000
0000
0000
0000
0000
0000
0000
1000
0000
0000
0000
0000
0000
0000
0000
0000
0000
0000
0000
0001
0000
0000
0000
0000
0000
0100
0000
0000
0000
0000
0000
00M0
0000
0000
0000
0000
0000
0100
0000
0000
0000
0000
0000
,
0000
0000
1000
0000
1001
0000
0001
0000
1000
0000
0010
0000
1000
0100
00M0
0100
,
0001
0000
0100
0000
0010
0000
0000
0000
1000
0000
0010
0000
1000
0000
1000
0010
,
0000
0M00
0010
0000
0011
0000
0002
0000
1000
0000
0103
0000
0101
0000
0001
0010
,
0000
0010
0100
0000
2000
0000
0000
0000
3002
0000
0100
0000
1003
0010
0M00
0010
,
0000
0000
0001
0000
1001
0000
1000
0000
0001
0000
0010
0000
0100
1000
0100
1000
,
0001
0000
0100
0000
0110
0000
0010
0000
2000
0000
0010
0000
3001
0000
0001
0100
,
0000
00M0
0000
0000
0100
0000
0000
0000
1100
0000
0000
0000
2000
0000
0000
0000
3001
0000
0000
0000
1000
0000
0000
0000
0010
0000
0000
0000
0100
0000
0001
0000
,
0000
0000
0000
0000
0000
0000
0001
0000
0000
0000
0000
0000
1000
0000
0000
0000
0000
0000
0000
0000
0000
0000
0000
0000
0001
0000
0000
0000
0000
0000
0000
0000
0000
0000
0000
0000
1000
0000
0000
0000
0000
0000
0000
0100
0000
0000
0000
0000
1000
0000
0000
0000
0000
0000
0000
0000
0000
0000
0000
0000
0001
0000
0000
0000
0000
0000
0000
0000
0000
0000
0000
0000
1000
0000
0000
0000
0000
0000
0010
0000
0000
0000
0000
0000
0M00
0000
0000
0000
0000
0000
0010
0000
0000
0000
0000
0000
,
0001
0000
0100
0000
0110
0000
0010
0000
1000
0000
0001
0000
1000
0010
0M00
0010
,
0001
0000
1000
0000
1001
0000
0001
0000
1000
0000
0010
0000
1000
0000
0001
0100
,
0000
00M0
0100
0000
0010
0000
0001
0000
1000
0000
0010
0000
0110
0000
0100
0001
,
0000
0001
1000
0000
0010
0000
0100
0000
0002
0000
0000
0000
0003
0000
0100
0000
,
0010
0000
1000
0001
0100
0000
0001
0000
,
1000
0002
0000
0000
0103
0000
0001
0000
,
2000
0000
0000
0000
,
3000
0000
0000
0000
;
