#TITLE:Monster;
#SUBTITLE:;
#ARTIST:Meg & Dia;
#TITLETRANSLIT:;
#SUBTITLETRANSLIT:;
#ARTISTTRANSLIT:;
#GENRE:;
#CREDIT:;
#MUSIC:MONSTER.ogg;
#BANNER:;
#BACKGROUND:;
#CDTITLE:;
#SAMPLESTART:89.660;
#SAMPLELENGTH:14.920;
#SELECTABLE:YES;
#OFFSET:-0.415;
#BPMS:0.000=96.000
,64.000=96.155
,80.000=94.155
,81.000=95.908
,100.000=96.000
,128.000=96.100
,141.000=97.100
,143.000=95.772
,156.000=96.000
,170.000=97.000
,175.000=89.000
,176.000=94.000
,178.000=97.000
,180.000=95.000
,182.000=97.000
,183.000=96.000
;
#STOPS:;
#DISPLAYBPM:96.000;
#BGCHANGES:4.000=MONSTER.mpg=1.000=1=0=1===CrossFade==,
99999.000=-nosongbg-=1.000=0=0=0=StretchNoLoop====
;
#FGCHANGES:;

//--------------- dance-single - ----------------
#NOTES:
     dance-single:
     :
     Beginner:
     2:
     0,0,0,0,0:
0000
0000
0000
0000
,
0001
0000
1000
0000
,
0010
0000
0100
0000
,
0001
0000
1000
0000
,
0001
0001
0000
0000
,
0000
1000
0000
0010
,
0000
1000
0000
0000
,
0000
1000
0000
0010
,
0000
1001
0000
0001
,
0000
1000
0000
0010
,
0000
0100
0000
0000
,
0000
0001
0000
1000
,
0000
1001
0000
0000
,
0000
0001
0000
0000
,
0000
0100
0000
0000
,
0010
0000
0000
0000
,
0000
1000
0000
0000
,
0000
0010
0000
0000
,
0000
0100
0000
0000
,
0000
0010
0000
0000
,
0000
1000
0000
0001
,
0000
0100
0000
0010
,
0000
1000
0000
0100
,
0000
0010
0000
0100
,
0000
1001
0000
0000
,
0000
0001
0000
0100
,
0000
0000
0000
0010
,
0000
0100
0000
0001
,
0000
1000
0000
0010
,
0000
0100
0000
0001
,
0000
0010
0000
0000
,
0000
0100
0000
0010
,
0000
1001
0000
0000
,
0000
0010
0000
0000
,
0000
0100
0000
0000
,
0000
0000
0000
0000
,
0001
0000
0100
0000
,
0010
0000
1000
0000
,
0001
0000
0010
0000
,
0100
0000
0000
1001
,
0000
0000
0100
0000
,
0010
0000
0100
0000
,
0001
0000
1000
0000
,
0001
0000
0000
1001
,
0000
0000
0000
0100
,
0000
0000
0000
0001
,
0000
0000
0000
0100
;

//--------------- dance-single - ----------------
#NOTES:
     dance-single:
     :
     Easy:
     6:
     0,0,0,0,0:
0000
0000
1001
0000
1000
0000
0010
0010
,
0010
0000
0100
0000
0001
0000
1000
1000
,
1000
0000
0010
0000
0100
0000
0001
0001
,
0001
1000
0001
1000
,
0100
1001
0100
0010
,
1000
0001
1000
0001
,
1000
0010
0100
0001
,
1000
0100
0010
0001
,
1000
2001
3002
0203
,
0320
2030
3002
0203
,
0310
0000
0000
0000
1001
0000
0000
1000
0000
0000
0001
0000
0000
0000
0000
0000
,
1001
0000
1000
0001
0100
0100
0010
1000
,
1001
0002
2003
3020
,
0230
0302
2003
3002
,
1003
0000
0000
0000
1001
0000
0000
0100
0000
0000
1001
0000
0000
0000
1000
0000
,
1002
0000
0103
0100
0010
0010
1000
1000
,
1001
0002
0013
0000
,
0002
2003
3010
0000
,
0200
0302
1003
0000
,
0002
2003
3020
2030
,
3001
0000
1001
0000
1000
0000
0001
0100
,
0010
0000
1000
0000
0001
0000
0100
0010
,
1000
0000
0001
0000
0100
0000
0010
1000
,
0100
0000
0010
0000
0001
0000
1000
0010
,
0100
0001
1001
0000
0000
0000
0000
0000
,
1000
0001
1001
1000
0010
0000
0100
0001
,
0100
1000
0010
0100
,
0001
1000
0001
1000
,
0001
2000
3002
0203
,
0302
2003
3020
0230
,
0302
0000
0003
0000
1001
0000
0000
0010
0000
0000
1000
0000
0000
0000
0001
0000
,
1001
0000
1000
0010
0100
0001
1000
0010
,
1000
0010
1001
0000
0002
0000
0203
0000
,
0320
0000
0230
0000
0302
0000
1003
0010
,
0100
0000
0000
0000
1001
0000
0000
0001
0000
0000
1001
0000
0000
0000
1000
0000
,
2002
0000
0000
3003
0000
0000
1001
0000
,
0001
0000
0100
0010
1000
0000
0001
0100
,
0010
0000
1000
0100
0010
0000
0001
1000
,
0010
0000
0100
0000
0001
1000
0002
0000
,
0203
0000
0320
0000
1030
0000
1001
0001
,
0100
0000
0010
1000
0001
0000
1000
0100
,
0010
0000
0001
1000
0001
0000
0100
0010
,
0100
0000
0001
1000
0001
0100
0020
0000
,
2030
0000
3002
0000
1003
0000
1001
1000
,
0001
1000
0010
0100
1001
0000
0001
0100
,
0010
1000
0100
0010
0100
0000
1000
0001
,
0100
0010
1000
0001
0010
0000
0100
1000
,
0001
0100
0010
0100
2000
0000
0000
3000
;

//--------------- dance-single - ----------------
#NOTES:
     dance-single:
     :
     Medium:
     9:
     0.535,0.647,0.348,0.68,0:
0000
0000
1001
0001
0100
0010
1000
0100
,
0010
0001
0100
0010
0100
0001
1000
0100
,
0010
0100
1000
0001
1000
0001
0100
0010
,
0100
0001
1000
0100
0010
0001
0100
0010
,
1000
0000
0001
0000
1001
0000
1000
0000
0010
0000
0100
0000
0001
0000
0000
0001
,
0000
0000
0000
0000
0100
0000
0000
0100
0000
0000
0000
0000
0010
0000
0000
0010
,
0000
0000
0000
0000
1000
0000
0001
0000
1000
0000
0010
0000
0100
0000
0000
0100
,
0000
0000
0000
0000
0001
0000
0000
0001
0000
0000
0000
0000
1000
0000
0001
0000
,
1000
0001
0101
0100
0010
1000
0100
0010
,
0001
0100
0001
0010
0001
0100
0010
1000
,
0001
0000
1000
0000
1001
0000
0000
0001
0000
0000
0200
0000
0001
0000
0301
0000
,
1001
0000
1000
0000
0010
0000
0100
0000
0001
0010
0001
0000
1000
0000
0001
0000
,
1001
0000
1001
1000
0010
0100
0001
0010
,
0100
1000
0001
0010
0001
0100
0010
1000
,
0001
1000
1010
0010
1000
0200
1300
0010
,
0200
0000
0301
1000
0001
1000
0010
0100
,
0110
0020
2030
3000
,
0001
0000
0000
1000
0002
0000
0000
0000
2003
0000
0000
0000
3000
0000
0000
0000
,
0001
0010
0002
0000
0023
0000
0030
0000
,
0001
1000
0020
0000
0230
0000
0302
0000
,
0013
0000
0011
0001
1000
0010
1000
0001
,
0010
0100
1000
0001
0100
0001
0010
0001
,
0100
0100
0010
1000
0100
0010
0001
0100
,
0010
1000
0001
0010
0100
1000
0001
0100
,
0010
0000
1000
0000
1001
0000
0001
0000
0100
0000
0010
0000
1000
0000
0000
1000
,
0000
0001
1001
1000
0010
0000
0100
0001
,
0100
0010
1000
0100
0010
0001
0100
0010
,
1000
0000
0001
0010
0001
0000
0100
0010
,
1000
0000
0001
1000
0001
0000
1000
0000
0020
0000
0000
0000
0130
0000
0001
0000
,
2000
0000
3100
0010
0002
0000
0103
0010
,
2000
0000
3000
0000
1001
0000
0000
0010
0000
0000
2000
0000
0000
0000
3001
0000
,
0100
0000
0000
0000
0010
1000
0010
0000
1000
0000
0001
0000
0100
0001
0100
0000
,
0001
1000
1001
0001
0100
0010
1000
0100
,
0010
0100
1000
0001
0010
0001
0100
0010
,
1000
0001
1001
1000
0100
2100
3001
0100
,
0002
0000
2003
0000
0000
3000
1001
0001
,
0100
0000
0100
0001
0000
0001
0100
0000
0010
0000
0000
1000
0020
0000
0000
0000
,
0130
0000
0001
0100
0000
0100
0001
0000
1000
0000
0001
0000
0020
0000
0000
0000
,
0130
0000
1000
0001
0000
1000
0100
0000
0010
0000
0001
0000
2000
0000
0000
0000
,
3020
0000
0130
0001
1000
0010
1010
1000
,
0001
0000
0100
0001
0000
0100
0001
0000
0200
0000
0300
0010
1000
0000
0001
0000
,
0010
0000
0001
0100
0000
0001
0010
0000
0001
0000
0100
0000
0010
0000
1000
0000
,
0100
0000
0010
0001
0000
0100
0001
0000
1000
0000
0001
0000
0020
0000
0000
0000
,
0230
0000
0000
0000
2300
0000
0000
0000
3001
0000
0100
0000
0001
0010
0001
0000
,
1000
0000
0001
0010
0001
0000
1000
0000
0001
0200
0000
0000
0301
0010
0001
0000
,
1000
0000
0001
0100
0001
0000
0100
0000
0100
0010
0000
0000
1000
0001
1000
0000
,
0010
0000
1000
0010
1000
0000
0001
0000
0100
0020
0000
0000
1030
0100
1000
0000
,
0001
0000
0010
0001
0010
0000
0001
0000
1000
0002
0000
0000
0000
0000
0003
0000
;

//--------------- dance-single - SJ DS ----------------
#NOTES:
     dance-single:
     SJ DS:
     Hard:
     12:
     0.367,0.419,0.121,0.275,0:
0000
0000
1001
0010
0102
0010
1000
0103
,
1020
1000
0100
1030
0201
0001
0001
0310
,
0210
0010
0001
0310
2100
0001
0010
3100
,
0201
0001
0010
0301
2010
0001
0100
3010
,
0101
0001
1001
1000
0001
1000
0010
0100
,
0001
0000
1000
0000
0010
0000
0100
0001
0100
0000
0010
0000
1000
0000
0100
0010
,
0100
0000
2000
0000
3010
0000
0100
0000
0001
0000
0010
0000
0100
0000
1000
0010
,
1000
0000
0010
0000
0100
0000
0001
0010
0001
0000
0100
0000
0010
1000
0100
1000
,
0010
0100
0001
0010
0012
0000
0000
0000
0203
0000
0000
0000
0310
0000
1000
0000
,
1020
0000
0230
0000
0302
0000
0103
0001
,
0101
0000
0100
0000
0110
0000
0010
1000
0010
0000
0200
0000
0300
0000
0010
0000
,
1010
0000
1000
0001
1000
0000
0010
0000
1000
0100
1000
0010
0100
0000
0001
0000
,
0101
0000
2001
0000
3001
0100
0020
1000
,
1030
0010
0200
0001
0302
1003
0020
1030
,
0010
0000
0100
0000
0101
0000
0001
1000
0100
1000
0001
0000
1000
0100
0010
0001
,
0200
0000
0310
1000
0010
1000
0010
1000
,
1010
0000
2000
3001
2000
3010
1000
0100
,
0020
0000
0031
1000
0002
0000
0103
0000
0020
0000
1030
0000
0100
0000
0010
0000
,
0002
2003
3002
0103
0020
1030
0100
0010
,
0002
2003
3002
0103
0020
1030
0200
0310
,
0001
0000
0011
0001
0101
0010
1000
1000
,
1010
0010
0100
0001
0101
0001
0100
0010
,
1010
1000
0100
0010
0011
0001
0100
0100
,
0110
0010
1000
0100
0110
0010
0001
0100
,
0001
0000
0100
0001
0101
0000
0001
0000
0100
0000
0001
0000
0100
0000
0010
1000
,
0010
0000
1000
0100
1100
0000
0010
0000
0001
0000
0100
0000
0010
1000
0001
0000
,
1000
0100
1000
0001
0100
0000
0010
0000
1010
0000
1000
0001
0100
0000
0010
0000
,
1010
0000
0100
0000
0001
0000
0010
0000
0011
0000
0001
0000
0100
0010
0100
0000
,
0001
1000
0100
1000
1002
0000
0000
0000
0103
0000
0010
1000
0010
0000
0100
0000
,
0101
0000
0010
1000
0001
0100
0001
0000
1001
0000
1000
0100
0010
0001
0100
0000
,
0101
0000
0001
0100
0110
0000
0010
0000
1000
0000
0001
0000
1000
0000
0001
0000
,
1001
0000
1000
0001
1000
0100
0010
0100
1000
0001
1000
0001
0100
0010
0100
0001
,
1000
0100
0010
0001
1002
0000
1003
0000
0020
0000
0130
0000
0020
0000
1030
0000
,
0200
0310
0002
1003
2001
3001
0100
0100
,
0010
0000
0000
0000
0000
0000
0010
0000
0000
0000
0000
0000
1010
0000
0000
0000
0000
0000
1000
0000
0000
0100
0000
0000
0010
0000
0000
0001
0000
0000
1001
0000
0000
0000
0000
0000
1000
0000
0010
0000
0100
0000
0001
0000
1000
0000
0001
0000
,
2000
0000
3000
0000
0000
0000
1001
0001
,
0110
0000
0010
1000
0100
0000
0010
0000
0011
0000
0001
0100
0010
0000
1000
0000
,
1010
0000
0010
0100
0001
0100
0010
0000
1010
0000
1000
0100
0010
0000
0001
0000
,
0101
0000
0100
0010
0000
0100
0010
0000
1010
0000
1000
0000
0100
0000
0010
0001
,
0010
0000
0100
1000
0010
0100
0001
0100
0001
1000
0000
0000
1001
0000
1000
0000
,
1010
0000
0010
0100
0001
1000
0100
0010
0001
0000
0100
0010
0100
0000
0001
0000
,
1001
0000
1000
0100
0010
0100
1000
0001
0100
0000
0010
0000
1010
0000
1000
0000
,
0001
0100
0001
0100
0010
1000
0100
0000
0010
0000
0001
0000
0100
0010
0100
0010
,
1000
0100
1000
0100
0010
0001
0010
0001
0100
0010
1000
0001
1000
0100
1000
0000
,
1100
0000
0010
0001
0100
0000
0010
1000
0010
1000
0000
0000
0001
0100
0001
0000
,
0101
0000
0100
0010
0100
0000
0001
1000
0100
0010
0000
0000
0100
1000
0001
0000
,
1001
0000
1000
0010
0100
0000
0001
0100
0010
1000
0000
0000
0001
0100
0010
0000
,
1010
0000
1000
0100
0010
0000
0001
0100
0001
0020
0000
0000
0000
0000
0030
0000
;

//--------------- dance-single - Stamina 8/14*/8/31* ----------------
#NOTES:
     dance-single:
     Stamina 8/14*/8/31*:
     Edit:
     19:
     0.764,0.761,0.243,0.291,0.004:
0001
0000
1000
0000
0001
0000
1000
0000
0001
0100
0010
1000
0001
0010
0100
1000
0001
0100
0010
1000
0001
0010
0100
1000
0001
0100
0001
0010
0001
1000
0010
1000
,
0001
0100
0001
0010
0100
1000
0010
1000
0001
0100
0010
1000
0001
0010
0100
1000
0001
0100
0010
1000
0001
0010
0100
1000
0001
0100
0001
0010
0001
1000
0010
1000
,
0001
0010
0100
1000
0001
0100
0010
0100
0001
0010
0100
1000
0010
0100
0001
0010
0001
0100
0010
1000
0100
0010
0001
1000
0001
0100
0010
1000
0001
0010
0100
1000
,
0001
0100
0010
1000
0001
0010
0100
1000
0001
0100
0001
0010
0001
1000
0010
1000
0001
0100
0010
1000
0100
0010
0001
0100
0001
0010
0100
1000
0001
0100
0010
0100
,
0001
1000
0100
0010
0001
1000
0010
0100
0002
0000
0000
0000
0023
0000
0000
0000
0032
0000
0000
0000
2003
0000
0000
0000
3100
0000
0000
0000
0010
0000
0200
0000
,
0010
0000
1300
0000
0002
0000
1003
0010
1000
0000
0100
0000
0020
0000
0031
1000
,
0001
0000
0020
0000
0130
0000
2000
0000
3002
0000
0023
0000
0130
0000
1000
0001
,
2000
0000
3100
0000
0010
0000
0001
1000
0001
0000
0010
0000
0001
0000
1001
0000
,
1000
0000
0100
0000
0010
0000
0100
0000
1000
0010
0100
0001
0010
0100
1000
0001
1000
0010
0100
0001
0010
0100
1000
0001
1000
0010
0100
0001
1000
0010
1000
0001
,
1000
0100
0010
0001
0010
0100
1000
0001
1000
0010
0100
0001
0010
0100
1000
0001
1000
0001
0100
0001
0010
0100
1000
0001
0100
0010
0100
0001
1000
0010
0100
0001
,
1000
0100
0010
0100
1000
0001
0100
0001
1000
0010
0100
0001
1000
0100
1000
0010
0100
0001
0010
0100
1000
0010
0100
0001
0010
0100
1000
0010
0100
0001
1000
0001
,
1000
0010
0100
0001
1000
0100
1000
0100
0010
0001
0100
0010
0100
0001
0010
0100
1000
0000
0100
0000
1000
0000
0010
0000
1000
0100
0010
0001
1000
0010
0100
0001
,
0010
0000
0000
0000
0000
0000
0000
0000
0100
1000
0100
0010
0001
0100
0010
1000
0001
0010
0100
1000
0001
0100
0010
1000
0001
0100
0010
1000
0001
0010
0001
1000
,
0100
0010
0100
1000
0010
0100
0001
0010
0100
1000
0001
0100
0010
1000
0001
0010
0001
1000
0010
0100
0001
0010
0100
1000
0001
0100
0010
1000
0001
0010
0100
1000
,
0001
0100
0010
0100
0001
1000
0001
0100
0010
1000
0100
0010
0001
1000
0001
0010
0100
1000
0010
0100
0001
0010
0100
1000
0001
0100
0010
1000
0001
0010
0100
0010
,
0001
0100
0010
1000
0100
0010
0001
1000
0010
0000
0000
0000
0100
0000
0000
0000
0001
0000
0000
0000
1000
0000
0000
0000
0001
0000
0000
0000
0001
0000
0000
0000
,
1001
0000
1000
0001
0010
0100
1000
0001
,
2000
0000
3001
0010
0002
0000
1003
0000
0200
0000
0310
0000
0001
0000
1000
0000
,
0001
0010
0002
1003
0002
0013
0100
1000
,
0001
0100
0020
1030
0200
0310
0200
1300
,
1001
0000
0000
0000
0000
0000
0000
0000
0001
0010
0100
1000
0001
0100
0010
1000
0001
0010
0100
1000
0001
0100
0010
1000
0001
0100
0001
0010
0001
1000
0100
0010
,
0001
0100
0010
1000
0100
0010
0001
0100
0001
1000
0100
0010
0001
1000
0010
0100
0001
1000
0100
0010
0001
1000
0010
0100
0001
0010
0001
1000
0100
1000
0001
0100
,
0010
1000
0010
0100
0001
1000
0100
1000
0001
0100
0010
1000
0001
0010
0100
1000
0001
0100
0010
1000
0001
0010
0100
1000
0001
0100
0001
1000
0100
1000
0001
0100
,
0010
1000
0100
0010
0001
0100
0001
1000
0100
0010
0100
1000
0100
0010
0001
0100
0010
1000
0100
0010
0001
0100
0001
1000
0001
0100
0010
0100
0001
1000
0100
0010
,
0001
0100
0010
1000
0100
0010
0001
0100
0001
0000
0000
0000
0010
0000
0000
0000
0100
0000
0000
0000
1000
0000
0000
0000
0002
0000
0000
0000
1003
0000
0100
0000
,
1100
0000
0100
0010
0011
0000
0001
0000
2000
0000
3000
0000
0001
1000
0001
0000
,
1000
0100
0010
0000
0001
0000
1000
0000
1100
0000
0100
0010
0100
0000
0010
0000
,
0011
0000
0001
0000
1000
0000
0100
0000
0110
0000
0010
0000
0001
1000
0001
0000
,
1000
0000
0000
0000
0001
0000
0010
0000
0001
0100
0010
1000
0001
0010
0100
1000
0001
0100
0010
1000
0001
0010
0100
1000
0001
0010
0001
0100
0001
1000
0010
1000
,
0001
0010
0001
0100
0010
1000
0100
0010
0001
0100
0010
1000
0001
0010
0100
1000
0001
0100
0010
1000
0001
0010
0100
1000
0001
0100
0001
0010
0001
1000
0100
1000
,
0001
0100
0010
1000
0100
0010
0001
0100
0001
0010
0100
1000
0001
1000
0001
0100
0010
0100
0001
1000
0100
0010
0001
1000
0010
0100
0001
1000
0100
0010
0001
1000
,
0100
0000
0000
0000
0010
0000
0001
0000
1000
0010
1000
0100
1000
0001
0100
0010
1000
0010
0100
0001
1000
0010
1000
0001
0100
0010
0100
0001
0010
0100
1000
0010
,
0100
0000
0001
0000
0100
0000
0010
0000
1000
0100
0010
0001
1000
0010
0100
0001
1000
0100
0010
0001
1000
0010
0100
0001
1000
0010
1000
0100
1000
0001
0100
0001
,
1000
0100
0010
0001
0100
0001
1000
0100
1000
0010
0100
0001
1000
0100
1000
0001
0010
0100
1000
0010
0100
0010
1000
0001
1000
0010
0100
0001
0010
0100
1000
0010
,
1000
0001
0100
0001
0010
0100
1000
0010
1000
0100
0010
0001
1000
0001
0010
0100
1000
0010
0100
0001
1000
0010
0100
0010
1000
0001
0010
0100
1000
0001
0010
0100
,
2000
0000
0000
0000
0000
0000
0000
0000
0000
0000
0000
0000
0000
0000
0000
0000
0000
0000
0000
0000
3000
0000
0000
0000
0001
0010
0100
1000
0001
0010
0100
0010
,
0001
0100
0010
1000
0001
0010
0100
1000
0001
0100
0010
0100
0001
1000
0100
0010
0001
0100
0010
1000
0001
0010
0001
0100
0010
1000
0001
0100
0010
1000
0001
0010
,
0100
1000
0100
0010
0100
1000
0010
0100
0001
0100
0010
1000
0001
0010
0100
1000
0001
0010
0001
0100
0001
1000
0100
0010
0001
0100
0010
0100
0001
0010
0100
1000
,
0001
0100
0010
0100
0001
1000
0100
0010
0001
0100
0010
1000
0001
0010
0100
1000
0001
0100
0010
0100
0001
1000
0100
0010
0100
1000
0010
0100
0001
0010
0100
1000
,
0001
0100
0010
0100
0001
1000
0100
1000
0001
0010
0100
1000
0001
0100
0010
0100
0001
0010
0100
1000
0001
0100
0001
1000
0100
1000
0010
0100
0001
0010
0100
1000
,
0001
0010
0100
0010
0001
0100
0010
0100
0001
0010
0100
1000
0010
0100
0001
1000
0001
0010
0001
1000
0010
0100
0001
0100
0010
1000
0001
0010
0100
1000
0001
0100
,
0010
1000
0100
1000
0001
0100
0010
0100
0001
0010
0100
1000
0001
0100
0010
0100
0001
0010
0100
1000
0001
0100
0010
1000
0001
0010
0001
0100
0010
1000
0001
0100
,
0001
0010
0100
1000
0001
0100
0010
0100
0001
0010
0100
1000
0001
0010
0001
0100
0010
1000
0001
0010
0100
1000
0010
0100
0001
1000
0100
0010
0001
0100
0010
1000
,
0001
0010
0100
1000
0010
0100
0001
1000
0100
0010
0001
1000
0010
0100
0001
0010
0002
0000
0000
0000
0103
0000
0010
0000
0110
0000
0100
0000
0001
0000
0000
0000
,
0101
0000
0100
0010
1000
0000
0001
1000
1100
0100
0000
0000
1000
0001
1000
0000
,
1001
0000
0001
0100
0010
0000
1000
0010
1010
1000
0000
0000
0001
0100
0010
0000
,
1010
0000
1000
0001
0100
0000
0010
1000
1010
0010
0000
0000
0100
0001
0010
0000
,
0011
0000
0001
0100
0010
0000
1000
0000
0101
0020
0000
0000
0000
0000
0030
0000
;

//--------------- dance-double - XO BU- ----------------
#NOTES:
     dance-double:
     XO BU-:
     Hard:
     13:
     0,0,0,0,0:
00000000
00000000
00000000
00000000
,
00000000
00000000
00000000
00000000
,
00000000
00000000
00010000
00001000
00010000
00001000
01000000
00100000
,
01000000
00100000
10000000
00010000
00100000
01000000
10000000
01000000
,
00100000
00010000
10010000
10000000
00100000
01000000
00010000
00100000
,
00010000
00000000
00100000
00000000
00001000
00000000
00000000
00010000
00000000
00000000
00001000
00000000
00010000
00000000
00000010
00000000
,
00000100
00000010
00001000
00000001
00000100
00000010
00000100
00000001
,
00000010
00000000
00000100
00000000
00000010
00000000
00000000
00010000
00000000
00000000
00000000
00000000
00001000
00010000
00001000
00010000
,
00001000
00000000
01000000
00100000
20100000
00000000
00000000
00000000
30100000
00000000
01000000
00000000
10000000
00000000
01000000
00000000
,
00010000
00100000
00001000
00010000
00100000
00010000
00001000
00100000
,
00001000
00000000
00010000
00000000
00020100
00000000
00000000
00001000
00000000
00000000
00030010
00000000
00000000
00000000
00000010
00000000
,
00001000
00000000
00000001
00001000
00000010
00000000
00000010
00000000
00001000
00000100
00001000
00000100
00010000
00000000
00001000
00000000
,
00010000
00000000
00102000
00000000
01003000
00100000
00010000
00100000
,
01000000
00010000
01000000
00010000
00100000
01000000
10000000
00010000
,
00100000
00000000
00001000
00000000
00011000
00000000
00010000
00000100
00001000
00000100
00010000
00000000
00000010
00000100
00000010
00000100
,
00000010
00000000
00001000
00000100
00000010
00000001
00000010
00000100
,
00001100
00000000
00002000
00000000
00003002
00000000
00001003
00000100
,
00001000
00000000
00000000
00001000
00000200
00000000
00000000
00000000
02000300
00000000
00000000
00000000
03010000
00000000
10000000
00000000
,
00100000
01000000
00002000
00000000
10003000
00000000
00010000
01000000
,
00001000
00010000
00000020
00000000
00020030
00000000
00030002
00000000
,
00001003
00000000
00001001
00001000
00000100
00000001
00000100
00001000
,
00000010
00010000
00001000
00100000
01000000
00100000
00001000
01000000
,
10000000
01000000
00100000
10000000
01000000
00010000
01000000
10000000
,
00010000
00100000
00001000
00010000
00000100
00001000
00000010
00000100
,
00000001
00000000
00001000
00000010
00001010
00000000
00000000
00000000
00001000
00000000
00000000
00000000
00000001
00000000
00000000
00000000
,
00001000
00000000
00000001
00000100
00000010
00000000
00000001
00000000
00000010
00000000
00000100
00000000
00000001
00001000
00000001
00000000
,
00001000
00000100
00010000
00000000
00001000
00000000
00010000
00000000
01000000
00000000
10000000
00000000
00010000
00000000
01000000
00000000
,
00001000
00000000
00010000
00000000
00001000
00000000
00000100
00000000
00000001
00000000
00001000
00000000
00000001
00000010
00000100
00010000
,
00001000
00100000
00010000
00100000
00020000
00000000
00000000
00000000
10030000
00000000
01000000
00000000
00010000
00000000
01000000
00000000
,
00100000
00001000
00010000
00000100
00001000
00010000
00001000
00000100
,
00010000
00000000
00000010
00000000
00001010
00000000
00000000
00001000
00000000
00000000
00000001
00000000
00000010
00000000
00000001
00000000
,
00000011
00000000
00000010
00000100
00001000
00000100
00001000
00000100
00010000
00001000
00010000
00001000
00100000
00010000
00100000
00010000
,
10000000
00100000
01000000
00010000
01000000
00000000
00100000
00000000
10000000
00000000
01000000
00000000
00010000
00000000
01000000
00000000
,
10000000
00010000
01000000
00001000
00010000
00001000
00010000
00000100
,
00001000
00000000
00000000
00000000
00000000
00000000
00000100
00000000
00000000
00000000
00000000
00000000
00001100
00000000
00000000
00000000
00000000
00000000
00001000
00000000
00000000
00000001
00000000
00000000
00001000
00000000
00000000
00000001
00000000
00000000
00001000
00000000
00000000
00000000
00000000
00000000
00000001
00000000
00000010
00000000
00000100
00000000
00001000
00000000
00000100
00000000
00000010
00000000
,
00000002
00000000
00000000
00000000
00000003
00000000
00001001
00001000
,
00000001
00000000
00000100
00001000
00000000
00000100
00000010
00000000
00001000
00000000
00000001
00000100
00000001
00000000
00001000
00000000
,
00000100
00000000
00010000
00001000
00000000
00010000
00001000
00000000
01000000
00000000
00100000
00000000
10000000
00000000
01000000
00000000
,
00010000
00000000
01000000
10000000
00000000
01000000
00100000
00000000
00010000
00000000
00001000
00000000
00000200
00000000
00000010
00000000
,
00000310
00000000
00000001
00001000
00000001
00001000
00000100
00010000
00001000
00100000
00000000
00000000
00110000
00000000
00010000
00000000
,
10000000
00000000
00100000
00010000
00000000
00100000
10000000
00000000
00010000
00000000
00000000
00010000
00100000
00000000
00001000
00000000
,
00010000
00000000
00000010
00000100
00000000
00000010
00000100
00000000
00000001
00000000
00001000
00000000
00000001
00000000
00001000
00000000
,
00000010
00000000
00000100
00000001
00000000
00000100
00000001
00000000
00001000
00000000
00000100
00000000
00000002
00000000
00000000
00000000
,
00000103
00000000
00001000
00000100
00001000
00000100
00010000
00001000
01000000
00100000
00010000
00001000
10000000
01000000
00010000
00000000
,
00010000
00000000
00010000
01000000
10000000
00000000
00010000
01000000
00100000
02000000
00000000
00000000
03001000
00010000
00100000
00000000
,
00100000
00000000
00100000
00010000
00001000
00000000
00010000
00000100
00001000
00000002
00000000
00000000
00001003
00000100
00000001
00000000
,
00000001
00000000
00000001
00000100
00001000
00000000
00000100
00010000
00001000
00020000
00000000
00000000
00031000
01000000
00100000
00000000
,
00001000
00000000
00100000
01000000
00100000
00000000
10000000
00010000
01000000
00002000
00000000
00000000
00000000
00000000
00000000
00000000
,
00003000
00000000
00000000
00000000
;
