#TITLE:Metronogik;
#SUBTITLE:;
#ARTIST:Nasvine;
#TITLETRANSLIT:;
#SUBTITLETRANSLIT:;
#ARTISTTRANSLIT:;
#GENRE:;
#CREDIT:Braeden;
#MUSIC:Metronogic.ogg;
#BANNER:;
#BACKGROUND:;
#CDTITLE:;
#SAMPLESTART:0.000;
#SAMPLELENGTH:0.000;
#SELECTABLE:YES;
#OFFSET:-0.020;
#BPMS:0.000=130.000
,16.000=140.000
,17.000=142.000
,18.000=145.000
,19.000=152.000
,20.000=160.000
,22.000=169.000
,23.000=171.000
,24.000=180.000
,25.000=182.000
,26.000=188.000
,27.000=191.000
,28.000=199.000
,29.000=200.000
,30.000=207.000
,31.000=213.000
,32.000=220.000
,33.000=222.000
,34.000=227.000
,35.000=229.000
,36.000=240.000
,37.000=243.000
,38.000=248.000
,39.000=250.000
,40.000=259.000
,41.000=263.000
,42.000=266.000
,43.000=270.000
,44.000=280.000
,45.000=282.000
,46.000=288.000
,47.000=292.000
,48.000=290.000
,64.000=180.000
,80.000=190.000
,88.000=200.000
,128.000=180.000
,148.000=90.000
,149.000=180.000
,155.000=240.000
,166.500=120.000
,176.000=130.000
,184.000=260.000
,188.000=180.000
,198.938=150.000
,199.000=135.000
,202.000=152.000
,203.000=120.000
,204.000=90.000
,205.000=60.000
,209.000=90.000
,210.000=61.000
,211.000=100.000
,212.000=138.000
,213.000=179.000
,214.000=60.000
,215.000=100.000
,216.000=140.000
,217.000=180.000
,218.000=60.000
,219.000=100.000
,220.000=140.000
,221.000=179.000
,222.000=60.000
,223.000=100.000
,224.000=140.000
,225.000=179.000
,226.000=59.000
,227.000=100.000
,228.000=140.000
,229.000=179.000
,230.000=60.000
,231.000=100.000
,232.000=140.000
,233.000=180.000
,234.000=60.000
,235.000=98.000
,236.000=140.000
,237.000=180.000
,238.000=60.000
,239.000=100.000
,240.000=140.000
,241.000=180.000
,242.000=60.000
,243.000=99.000
,244.000=140.000
,245.000=180.000
,246.000=60.000
,247.000=100.000
,248.000=140.000
,249.000=180.000
,250.000=170.000
,254.000=160.000
,262.000=150.000
,278.000=141.000
,283.000=122.000
,300.000=244.000
,312.000=55.000
,313.000=313.000
,314.000=356.000
,315.000=361.000
,316.000=360.000
,321.000=420.000
,329.000=480.000
,361.000=499.500
;
#STOPS:253.000=1.412
,282.000=1.277
;
#BGCHANGES:;
#FGCHANGES:;

//--------------- dance-single - XMOD+ ----------------
#NOTES:
     dance-single:
     XMOD+:
     Beginner:
     7:
     0,0,0,0,0:
0000
0000
0000
0000
,
0000
0000
0000
0000
,
1000
0000
0001
0000
,
1000
0000
0001
0000
,
1000
0000
0010
0000
,
0100
0000
0001
0000
,
0010
0000
0100
0000
,
1000
0000
0001
0000
,
0100
0000
0010
0000
,
1000
0000
0100
0000
,
0010
0000
0001
0000
,
1000
0000
0001
0000
,
2000
0000
0000
0000
,
0000
0000
0000
0000
,
3000
0000
0000
0000
,
0000
0000
0000
0000
,
1000
1000
1000
1000
,
0000
0000
0000
0000
,
0001
0001
0001
0001
,
0000
0000
0000
0000
,
0100
0100
0100
0100
,
0000
0000
0000
0000
,
0001
0001
0001
0001
,
0000
0000
0000
0000
,
1000
0000
0001
0000
,
1000
0000
1001
0000
,
0001
0000
0100
0100
,
0000
0000
0110
0000
,
0010
0000
1001
0000
,
1000
0000
1001
0000
,
0001
0000
0100
0000
,
0010
0010
0000
1000
,
1000
0000
0001
0000
,
1000
0010
1000
0100
,
1000
0001
0010
0100
,
1000
0010
0100
0001
,
1000
0100
0010
0001
,
1000
0001
0100
0001
,
0010
0001
1000
0010
,
0000
1000
0000
0001
,
1000
0001
1000
0001
,
0000
0000
0100
0000
0000
0100
0000
0010
,
0000
0100
0000
0010
0000
0000
0000
0000
,
0000
0000
1000
0001
,
1000
0000
0001
0000
,
0100
0000
0010
0000
,
2000
0000
0000
3000
,
0001
0100
0001
0010
,
0001
0100
0010
0000
,
1000
0100
0010
0001
,
0000
0000
1000
0001
,
1000
0010
0100
0001
,
0200
0320
1030
0001
,
1000
0001
0100
0010
,
0100
0010
1001
0001
,
0100
0010
1000
0100
,
0010
0001
0000
0010
,
0001
1000
0010
0100
,
0001
1000
0001
0100
,
0010
1000
0001
0010
,
0100
1000
0001
0100
,
0010
1000
0100
0010
,
0001
1000
0002
0000
,
0000
0003
0200
0000
,
0000
0300
0010
0000
,
1000
0000
0001
0001
,
0100
0100
0010
0000
,
0100
0000
0001
0000
,
0000
0000
1000
0000
,
0001
0000
1000
0010
,
1000
0010
0010
0100
,
0001
0010
0001
0100
,
0000
0010
0000
2000
,
0000
0000
0000
0000
,
0000
0000
0000
3000
,
2002
0000
0000
0000
,
0000
0000
0000
0000
,
0000
0000
0000
3003
,
0000
0000
0000
0000
,
0000
1000
0000
0001
,
0000
1000
0000
0000
,
0000
0001
0000
0100
,
0000
0001
0000
0000
,
0000
1000
0000
0010
,
0000
1000
0000
0010
,
0000
0100
0000
0001
,
0000
0010
0000
0100
,
0000
1000
0000
0001
,
0000
0100
0000
0010
,
0000
1000
0000
0100
,
0000
0010
0000
0000
,
0000
0001
0000
1000
,
0000
0001
0000
1000
,
0000
0001
0000
1000
,
0000
0001
0000
0000
;

//--------------- dance-single - XMOD+ ----------------
#NOTES:
     dance-single:
     XMOD+:
     Easy:
     13:
     0,0,0,0,0:
0000
0000
0000
0000
,
0001
1000
0010
0100
,
0010
1000
0001
0010
,
0001
1000
0100
0010
,
0001
0000
1000
0010
1000
0000
0001
1000
,
0001
0000
0100
0010
0100
0000
0001
0010
,
0001
0000
1000
0100
1000
0000
0001
0010
,
0001
0000
1000
0010
1000
0000
0001
0100
,
0001
0000
1000
0010
1000
0000
0001
0100
,
0001
1000
0010
0100
,
0001
0010
0100
1000
,
0010
0100
0001
1000
,
0001
0100
0001
0100
,
0020
0000
0000
0000
,
0030
0000
0000
0000
,
0000
0000
0000
0000
,
1000
1000
1000
1000
,
0000
MMMM
0000
0000
,
0010
0010
0010
0010
,
0000
MMMM
0000
0000
,
0100
0100
0100
0100
,
0000
MMMM
0000
0000
,
0001
1000
0001
1000
,
0000
MMMM
0000
0000
,
0001
1000
0010
0100
,
0001
0000
0000
1000
0001
0000
0100
0000
,
0010
0000
0000
1000
0100
0000
0020
0032
,
0003
0000
1000
0000
0001
0100
0000
0000
,
0001
0000
0000
1000
0010
0000
1000
0001
,
1000
0000
0010
0100
0010
0000
1000
0000
,
0001
0000
0000
0100
0000
0000
0001
0000
1000
0000
0010
0000
1000
0000
0001
0000
,
1000
0000
2002
0000
3003
0001
0100
0000
,
0001
0010
0100
1000
,
1001
0000
0001
0000
1000
0000
0100
1000
,
0010
0100
0001
1000
,
0010
0000
1000
0000
0100
0000
0010
0001
,
1000
0100
0010
0001
,
10M0
0001
0100
0001
,
1000
0010
0100
0001
,
1000
0000
0001
0000
1000
0000
0001
0010
,
0001
0010
0100
1000
0100
0010
0001
0000
,
1000
0000
0010
0000
0100
001M
0000
1000
,
0000
0100
0000
0010
0000
0001
0000
1000
,
0000
0010
1000
0010
0000
0100
0001
1000
,
0001
0010
0001
1000
0020
0000
0000
0000
,
0230
0000
0302
0003
,
2002
0000
0000
3003
,
1001
0000
1000
0000
0010
0100
0010
0000
,
1000
0000
0001
0010
0100
1000
0001
0000
,
1000
0010
1000
0000
0001
0000
1000
0001
,
0100
0001
0100
0001
1000
0100
0010
0001
,
1000
0100
0010
0001
1000
0010
1000
0000
,
0001
2000
3001
0100
,
0010
1000
0100
1000
,
0010
0000
0100
0000
0101
0001
1000
0010
,
1000
0001
1000
1001
,
0001
0000
0100
0000
0010
1000
0001
0100
,
0001
0010
0001
0010
0200
0000
1300
0001
,
1000
0000
0000
0000
0000
0000
0020
0000
0000
0000
0000
0000
0130
0000
0000
0001
0000
0000
0100
0000
0001
0000
0100
0000
,
0001
2000
3001
0010
,
0100
0000
1000
0000
1100
0000
1000
0001
,
1000
0010
1000
0001
0100
0010
1000
0100
,
0010
0001
1000
0001
1000
0000
0010
0000
,
1000
0M10
1000
0001
,
1000
0001
0200
0300
,
0020
0030
1000
0001
,
0100
0001
2000
3000
,
0002
0003
2000
0000
,
3000
0001
1000
0000
,
0010
0000
1000
0001
,
0100
0010
100M
0100
,
1000
0010
0100
0002
,
0003
2000
3000
2002
,
0000
0000
0000
0000
,
0000
0000
0000
3003
,
0M00
00M0
0M00
00M0
,
0M00
00M0
0M00
00M0
,
0M00
00M0
0M00
00M0
,
0000
2000
0000
0000
,
0000
3001
0010
0100
,
1000
0002
0000
0000
,
0000
1003
0100
0010
,
0001
2000
0000
0000
,
0000
3001
0010
0001
,
0010
0100
1000
0100
,
1000
0010
0100
0010
,
1000
0001
0010
0100
,
1000
0100
0010
0001
,
1000
0010
0100
0001
,
1000
0002
0000
0000
,
0000
2003
0000
0000
,
0000
3001
0010
0100
,
1000
0100
0010
0001
,
1000
0010
1000
0001
,
1000
0001
0000
0000
;

//--------------- dance-single - XMOD+ ----------------
#NOTES:
     dance-single:
     XMOD+:
     Medium:
     16:
     0,0,0,0,0:
0000
0000
0000
0000
,
1000
0001
1000
0010
0100
0001
0010
0100
,
1000
0001
1000
0010
0100
0001
0010
0100
,
1000
0001
0100
0010
1000
0100
0010
0001
,
1000
0000
0000
0001
1000
0000
0100
1000
0100
0000
0000
0010
0001
0000
0100
0010
,
0100
0000
0000
0001
1000
0000
0010
1000
0010
0000
0000
0100
0001
0000
1000
0001
,
1000
0000
0001
0100
0001
0000
1000
0100
,
1000
0000
0001
0100
0010
0000
1000
0100
,
0010
0000
0001
0010
0001
0000
0100
0010
,
0100
0000
0001
0010
0100
0000
1000
0010
,
0100
0000
0001
1000
0100
0000
0010
0001
,
1000
0000
0001
0100
0001
0000
1000
0010
,
1000
0100
0010
0001
0100
0010
1000
0001
,
0020
0000
0000
0000
,
0030
0000
0000
0000
,
0000
0000
0000
0000
,
0001
0001
0001
0001
,
0000
000M
000M
000M
,
0100
0100
0100
0100
,
0000
0M00
0M00
0M00
,
0001
0001
0001
0001
,
0000
000M
000M
000M
,
1000
0010
1000
0010
,
0000
MMMM
0000
0000
,
1000
0000
0000
0001
0000
0000
0100
0000
0000
0001
0010
0100
,
1000
0000
0001
0100
0101
0000
0001
0000
,
1000
0000
0001
0010
0011
0000
0002
2003
,
3000
0001
0100
0010
1000
1000
0000
0000
,
0001
0000
0000
0100
0110
0000
0010
2000
,
3001
0000
0000
0000
0200
0000
0010
0000
0310
0000
0000
0000
1000
0000
0001
0100
,
0001
0000
0000
0010
0000
0000
0001
0000
1000
0001
1000
0000
0010
0000
1000
0100
,
0010
0000
0012
0000
0000
1003
1001
0000
,
0001
0100
0010
0100
0001
0100
0010
0000
,
1001
0000
1000
0000
0001
0000
0100
0010
,
0100
0000
0000
0001
0000
0000
0010
0000
0000
0100
1000
0001
,
1000
0000
0001
0000
0100
0000
0010
1000
,
0001
0000
0000
0100
0000
0000
0010
0000
0000
1000
0001
1000
,
00M0
0001
1001
1000
,
1010
0010
0110
0100
,
0001
0000
0100
0000
0001
0000
1000
0100
,
1000
0010
0100
0001
0100
0010
1000
0000
,
0001
0000
0100
0000
0001
01M0
0000
0001
,
0000
0100
0000
0010
0000
1000
0000
0001
,
0000
0010
0000
0100
1000
0001
0100
0010
,
1000
0100
1000
0010
0200
0000
0000
0000
,
0302
0000
2003
0000
,
3200
0000
0000
0300
,
1000
0010
1000
0000
0001
0100
0010
0000
,
1000
0000
0010
1000
0010
1000
0001
0000
,
0100
0000
0000
0010
0000
0000
0100
0000
0000
0001
0000
0000
1000
0000
0010
0000
1000
0000
0001
0000
0000
0100
0000
0000
,
0100
0000
0100
0000
0100
0000
0010
1000
0001
0100
0001
0100
0010
1000
0010
1000
,
0001
0010
0100
1000
0001
0100
0010
1000
0001
0010
0100
1000
0020
0000
0000
0000
,
0000
2030
3001
0100
,
0010
0000
0000
0000
1000
0000
0000
0000
0020
0030
0000
0000
1000
0000
0000
0000
,
0001
0000
0000
0000
0200
0000
0000
0300
0101
0000
0001
0000
1001
0000
1000
0000
,
0001
0100
0010
1000
0100
0010
0011
0001
,
0100
0010
0100
0001
1000
0001
1001
1000
,
0010
0000
0100
0000
0001
0000
0010
0000
0001
0000
0000
1000
1001
0000
0001
0100
,
0001
0000
0000
0000
0000
0000
1000
0000
0000
0000
0000
0000
0010
0000
0000
0000
0000
0000
1000
0000
0000
0000
0000
0000
0001
0000
0000
0100
0000
0000
0001
0000
0000
0100
0000
0000
0010
0000
0000
0000
1000
0000
0000
0000
0001
0000
0000
0000
,
1000
0010
0200
0000
0310
1000
0001
0100
,
0001
0010
0100
1000
1001
0000
0101
0001
,
0100
0010
1000
0100
0020
0032
1003
0010
,
1000
0001
0200
0000
0310
0000
0100
0000
,
0001
01M0
0001
1000
,
0010
0100
0020
0030
,
2000
0000
0000
0000
0000
0000
0000
0000
0000
0000
0000
0000
0000
0000
0000
0000
3000
0000
0000
0000
0000
0000
0000
0000
0000
0000
0000
0000
0000
0000
0000
0000
0001
0000
0000
0000
0000
0000
0000
1000
0000
0000
0000
0000
0000
0000
0000
0000
0010
0000
0000
0000
0000
0000
0000
0000
0000
0000
0000
0000
0000
0000
0000
0000
,
0100
0010
2000
3000
,
0002
0003
2000
0000
,
0000
3002
2003
0000
,
3020
0000
0000
0000
0000
0000
0000
0000
0000
0000
0000
0000
0000
0000
0000
0000
0030
0000
0000
0000
0000
0000
0000
0100
0000
0000
0000
0000
0000
0000
0000
0000
0001
0000
0000
0000
0000
0000
0000
0000
0000
0000
0000
0000
0000
0000
0000
0000
1000
0000
0000
0000
0000
0000
0000
0000
0000
0000
0000
0000
0000
0000
0000
0000
,
0001
0000
0100
0000
00M2
0003
1000
0000
,
0010
0000
0000
0000
0000
0000
0000
0000
0000
0000
0000
0000
0000
0000
0000
0000
0100
0000
0000
0000
0000
0000
0000
0000
0000
0000
0000
0000
0000
0000
0000
0000
0001
0000
0000
0000
0000
0000
0000
0000
0000
0000
0000
0000
0000
0000
0000
0000
1000
0000
0000
0000
0000
0000
0000
0000
0000
0000
0000
0000
0000
0001
0000
0000
,
1000
0020
0030
0200
,
0000
0000
0000
0000
,
0000
0000
0000
0300
,
MMMM
MMMM
MMMM
MMMM
,
MMMM
MMMM
MMMM
MMMM
,
MMMM
MMMM
MMMM
MMMM
,
0000
1000
0001
1000
,
0001
0000
1000
0100
1000
0000
0001
0010
,
0001
1000
0010
1000
,
0010
0000
1000
0001
1000
0000
0010
0100
,
0010
1000
0001
1000
,
0001
0000
1000
0100
1000
0000
0001
0000
,
0100
0000
0010
1000
0010
0000
0100
0000
,
0001
0000
1000
0001
1000
0000
0001
0000
,
0010
0000
0100
1000
0100
0000
0010
0000
,
0001
0000
1000
0001
1000
0001
1000
0001
,
1000
0001
1000
0001
1000
0001
1000
0001
,
1000
0001
1000
0000
0010
0000
0100
0000
,
0001
1000
0010
1000
,
0010
1000
0100
1000
,
0001
0010
0100
1000
,
0010
0100
0001
1000
,
0100
1000
0000
0000
;

//--------------- dance-single - XMOD+ BU+ MA RH ----------------
#NOTES:
     dance-single:
     XMOD+ BU+ MA RH:
     Hard:
     19:
     0,0,0,0,0:
0000
0000
0000
0000
,
0000
0000
0000
0000
,
0001
1000
0100
0010
0001
1000
0010
0100
0001
0100
0010
1000
0001
1000
0100
0010
,
0001
0010
0100
1000
0001
0100
0010
1000
0001
0100
0010
0100
0001
0100
0010
1000
,
0001
0000
0000
0001
0010
0000
0100
1000
0100
0000
0000
1000
0010
0000
0100
0001
,
0100
0000
0000
0010
1000
0000
0001
1000
0001
0000
0000
1000
0100
0000
1000
0001
,
1000
0000
0000
0100
0010
0000
0001
0100
0010
0000
0000
1000
0100
0000
1000
0001
,
1000
0000
0000
0010
0100
0000
0001
1000
0001
0000
0000
1000
0100
0000
1000
0001
,
1000
0000
0000
0010
0100
0000
0001
1000
0010
0000
0000
1000
0100
0000
0010
0001
,
1000
0000
0000
0001
0100
0000
0010
1000
0010
0000
0000
1000
0100
0000
1000
0001
,
1000
0000
0000
0010
0100
0000
0001
1000
0001
0000
0000
0100
0010
0000
1000
0001
,
1000
0000
0000
0001
0100
0000
0010
1000
0001
0000
0000
0100
0010
0000
1000
0001
,
1000
0100
0010
0001
1000
0010
0100
0001
,
4000
0004
0000
0000
0000
0000
0000
0000
,
3003
0000
0000
0000
,
0000
0000
0000
0000
,
0010
0010
0010
0010
,
0000
0000
0000
0000
00M0
00M0
00M0
00M0
00M0
00M0
00M0
00M0
00M0
0000
0000
0000
,
0001
0001
0001
0001
,
0000
0000
0000
0000
000M
000M
000M
000M
000M
000M
000M
000M
000M
0000
0000
0000
,
1000
1000
1000
1000
,
0000
0000
0000
0000
M000
M000
M000
M000
M000
M000
M000
M000
M000
0000
0000
0000
,
0100
0100
0100
0100
,
0000
0000
0000
0000
0M00
0M00
0M00
0M00
0M00
0M00
0M00
0M00
0M00
0000
0000
0000
,
1000
0000
0000
1000
0000
0000
0001
0000
0000
0001
0000
0000
0010
0000
0000
0010
0000
0000
0100
0000
1000
0000
0001
0000
,
0010
0000
0001
0000
1000
0000
0100
0000
1001
0000
1000
0000
0100
0000
1000
0010
,
1000
0000
0001
0000
0010
0000
0100
0000
1100
0000
1000
0000
0001
0010
0001
1000
,
0010
0000
0000
0000
0000
0000
1000
0000
0000
0100
0000
0000
0010
0000
0000
0000
0000
0000
0001
0000
0000
0000
0000
0000
0011
0000
0000
0000
0000
0000
0010
0000
0000
0000
0000
0000
0100
0000
0000
0000
0000
0000
1000
0000
0001
0000
1000
0000
,
0001
0000
0100
0000
0010
0000
1000
0001
1000
0100
0010
0000
0001
0000
1001
0000
,
1000
0000
0000
0000
0100
0000
0000
0000
0100
0000
0000
0000
0010
0000
0000
0000
0011
0000
0000
0000
0001
0000
0000
0000
1000
0000
0000
0000
0100
00M0
0100
0000
,
0001
0000
1000
0100
0010
0000
0001
0000
0010
0100
1000
0000
0001
0100
0010
0100
,
0001
0000
1000
0000
1001
0000
0001
0010
0100
0000
1000
0000
1001
0000
0001
0000
,
1000
0000
0000
0000
0000
0000
0000
0000
0002
0000
0000
0000
0103
0000
0000
0000
0000
0000
0000
0000
0020
0000
0000
0000
1030
0000
0000
0000
0000
0000
0000
0000
0200
0000
0000
0000
0310
0000
0000
0000
0000
0000
0000
0000
0000
1000
0000
0000
,
0001
0000
0000
0000
0000
0000
0000
0000
0010
0000
0000
0000
0001
0000
0000
0000
0000
0000
0000
0000
1000
0000
0000
0000
0001
0000
0000
0000
0000
0000
0000
0000
1000
0000
0000
0000
0100
0000
0000
0000
0000
0000
0010
0000
0000
0001
0000
0000
,
1000
0000
0001
0100
0000
0010
1000
0000
0100
0010
0001
1000
,
0010
0000
1000
0001
1000
0000
0002
0000
1003
0000
0001
0010
0100
0000
1000
0010
,
0100
0000
0000
0002
0000
0000
1003
0000
0000
0000
0001
0000
0100
0000
0000
0000
0000
0000
0010
0000
1000
0001
1000
0000
,
0020
0000
0000
1030
0100
0010
0001
1000
0010
0100
0001
0010
,
0100
1000
0010
0100
0001
1000
0010
1000
0001
0100
0000
0000
,
0100
0000
0000
0000
0100
0000
0000
0000
0100
0000
0000
0000
0001
0010
0100
1000
,
0001
0100
0010
1000
0001
0010
0100
1000
0001
0100
0010
0100
0001
0000
0000
0000
,
1000
0000
1001
0000
M001
0100
0010
1000
,
1100
0010
0001
1000
0010
0100
0001
1000
,
0010
0000
1000
0000
0001
0100
0010
1000
0001
0000
1000
0010
0100
0001
0010
0100
,
1000
0001
1000
0010
2000
0000
0000
0000
,
3002
0000
0203
0000
,
M304
0000
0000
0000
,
0103
0001
0100
0001
1000
0000
0010
0000
0100
0000
0001
0000
1000
0000
0100
0000
,
0010
0000
0000
0000
0011
0000
0001
0000
1001
0000
1000
0000
0100
0000
0000
0100
,
0001
0000
0000
0000
0000
0000
0010
0000
0000
0001
0000
0000
0010
0000
0000
0000
0000
0000
0100
0000
0000
1000
0000
0000
0001
0000
0000
0100
0000
0000
0010
0000
1000
0000
0001
0000
0100
0000
0000
0000
0000
0000
1000
0000
0000
0000
0000
0000
,
0001
0000
1000
0000
0001
0000
1000
0100
1000
0010
0100
0001
1000
0100
0010
0001
,
1000
0010
0100
0010
1000
0001
0100
0001
1000
0010
1000
0100
0010
0000
0000
0000
,
0001
0000
2002
3000
0013
0000
0001
0000
,
1000
0100
0010
0001
,
0100
0000
0000
0000
0020
0000
0030
0000
1010
0001
1000
0100
1000
0010
0100
0001
,
1000
0100
0010
0001
1000
0001
0100
0001
2000
0100
0100
3100
1100
1000
0001
0010
,
0001
0000
0100
0000
0010
0000
1000
0000
0001
0000
0010
0000
0100
0000
1000
0000
0001
0000
0000
0000
1000
0000
0100
0000
1000
0001
1000
0000
0100
0000
0010
0000
,
0001
0100
0010
1000
0001
0010
0100
1000
0002
0010
1000
0013
0011
0001
1000
0100
,
1000
0000
0000
0010
0000
0000
1000
0000
0000
0001
0000
0000
1000
0000
0000
0100
0000
0000
0010
0000
0000
0001
0000
0000
0010
0000
0000
0100
0000
0000
1000
0000
0000
0001
0000
0000
0101
0000
0000
0000
0001
0000
0000
0000
0100
0000
0000
0000
,
0010
0000
1000
0000
0001
0010
0100
1000
0001
0100
0010
1000
0001
0100
0001
0010
,
0001
1000
0100
0010
0001
1000
0100
1000
0020
0000
0000
0000
1030
0000
0001
0100
,
0001
0000
0000
0010
0000
0000
0100
0000
0000
1000
0000
0000
0001
0000
0000
0100
0000
0000
0010
0000
0000
1000
0000
0000
0001
0000
0100
0000
0000
0010
0100
0000
0001
0000
0000
1000
0001
0000
0000
0010
0000
0000
0100
0000
0000
1000
0000
0000
,
0001
0100
0001
0100
0001
1000
0100
1000
0100
0000
0000
0000
1000
0000
0000
0000
,
1000
1000
0010
0010
,
0010
0010
0200
0300
,
0002
0000
0000
0000
0000
0000
0000
0000
0000
0000
0000
0000
0000
0000
0000
0000
0003
0000
0000
0000
0000
0000
0000
0000
0000
0000
0000
0000
0000
0000
0000
0000
0001
0000
0000
0000
0000
0000
0000
1000
0000
0000
0000
0000
0000
0000
0000
0000
0010
0000
0000
0000
0000
0000
0000
0000
0000
0000
0000
0000
0000
0000
0000
0000
,
0100
0010
2000
3000
,
0002
0003
2000
0000
,
0000
3002
2003
0000
,
3020
0000
0000
0000
0000
0000
0000
0000
0000
0000
0000
0000
0000
0000
0000
0000
0030
0000
0000
0000
0000
0000
0000
0100
0000
0000
0000
0000
0000
0000
0000
0000
0001
0000
0000
0000
0000
0000
0000
0000
0000
0000
0000
0000
0000
0000
0000
0000
1000
0000
0000
0000
0000
0000
0000
0000
0000
0000
0000
0000
0000
0000
0000
0000
,
0001
0000
0100
0000
0002
0003
1000
0000
,
0010
0000
0000
0000
0000
0000
0000
0000
0000
0000
0000
0000
0000
0000
0000
0000
0100
0000
0000
0000
0000
0000
0000
0000
0000
0000
0000
0000
0000
0000
0000
0000
0001
0000
0000
0000
0000
0000
0000
0000
0000
0000
0000
0000
0000
0000
0000
0000
1000
0000
0000
0000
0000
0000
0000
0000
0000
0000
0000
0000
0000
0001
0000
0000
,
1000
0020
0030
2002
,
0000
0000
0000
0000
,
0000
0000
0000
3003
,
MMMM
MMMM
MMMM
MMMM
,
MMMM
MMMM
MMMM
MMMM
,
MMMM
MMMM
MMMM
MMMM
,
0000
1000
0001
1000
,
0001
0000
1000
0100
0010
0001
1000
0010
,
0100
0001
1000
0000
0001
0000
1000
0000
,
0001
0000
1000
0100
0010
0001
1000
0010
,
0100
0001
1000
0000
0001
0000
1000
0000
,
0001
0000
1000
0100
0010
0001
1000
0010
,
1000
0100
0010
0001
0100
0010
1000
0001
,
0010
0100
1000
0010
0100
0001
1000
0100
,
0010
0001
1000
0010
0100
0001
1000
0100
,
0010
0001
1000
0010
0100
0001
1000
0100
,
0010
0001
1000
0010
0100
0001
1000
0100
,
0010
0001
1000
0010
1000
0100
0010
0001
,
0100
0001
1000
0010
1000
0100
0010
0001
,
0100
0001
1000
0100
0010
0001
1000
0010
,
0100
0001
0010
0100
0010
0001
1000
0010
,
0100
0001
1000
0100
0010
0001
0100
0010
,
1000
0001
0010
0000
0000
0000
0000
0000
;

//--------------- dance-single - XMOD+ FS BU+ MA RH SJ ----------------
#NOTES:
     dance-single:
     XMOD+ FS BU+ MA RH SJ:
     Challenge:
     20:
     0,0,0,0,0:
0000
0000
0000
0000
,
0000
0000
0000
0000
,
0001
1000
0100
0100
0001
1000
0010
0010
0001
0100
0010
0010
0001
1000
0100
0100
,
0001
0010
0010
1000
0001
0100
0100
1000
0001
0010
0010
0100
0001
0010
0010
1000
,
0001
0000
0000
0001
0010
0000
0100
1000
0100
0000
0000
1000
0010
0000
0100
0001
,
0100
0000
0000
0010
1000
0000
0001
1000
0001
0000
0000
1000
0100
0000
1000
0001
,
1000
0000
0000
0100
0010
0000
0001
0100
0010
0000
0000
1000
0100
0000
1000
0001
,
1000
0000
0000
0010
0100
0000
0001
1000
0001
0000
0000
1000
0100
0000
1000
0001
,
1000
0000
0000
0010
0100
0000
0001
1000
0010
0000
0000
1000
0100
0000
0010
0001
,
1000
0000
0000
0001
0100
0000
0010
1000
0010
0000
0000
1000
0100
0000
1000
0001
,
1000
0000
0000
0010
0100
0000
0001
1000
0001
0000
0000
0100
0010
0000
1000
0001
,
1000
0000
0000
0001
0100
0000
0010
1000
0001
0000
0000
0100
0010
0000
1000
0001
,
1000
0010
0100
0001
1000
0100
0010
0001
1000
0010
0100
0001
1000
0100
0010
0001
,
4000
0000
0000
0000
0000
0000
0000
0000
0000
0000
0000
0000
0004
0000
0000
0000
0000
0000
0000
0000
0000
0000
0000
0000
0000
0000
0000
0000
0000
0000
0000
0000
0000
0000
0000
0000
0000
0000
0000
0000
0000
0000
0000
0000
0000
0000
0000
0000
0000
0000
0000
0000
0000
0000
0000
0000
0000
0000
0000
0000
0000
0000
0000
0000
0000
0000
0000
0000
0000
0000
0000
0000
0000
0000
0000
0000
0000
0000
0000
0000
0000
0000
0000
0000
0000
0000
0000
0000
0000
0000
0000
0000
0000
0000
0000
0000
0000
0000
0000
0000
0000
0000
0000
0000
0000
0000
0000
0000
0000
0000
0000
0000
0000
0000
0000
0000
0000
0000
0000
0000
0000
0000
0000
0000
0000
0000
0000
0000
0000
0000
0000
0000
0000
0000
0000
0000
0000
0000
0000
0000
0000
0000
0000
0000
0000
0000
0000
0000
0000
0000
0000
0000
0000
0000
0000
0000
0000
0000
0000
0000
0000
0000
0000
0000
0000
0000
0000
0000
0000
0000
0000
0000
0000
0000
0000
0000
0000
0000
0000
0000
0000
0000
0000
0000
0000
0000
0000
0000
0000
0000
0000
3003
,
0000
0000
0000
0000
,
0000
0000
0000
0000
,
0010
0010
0010
0010
,
0000
0000
0000
0000
00M0
00M0
00M0
00M0
00M0
00M0
00M0
00M0
00M0
0000
0000
0000
,
0001
0001
0001
0001
,
0000
0000
0000
0000
000M
000M
000M
000M
000M
000M
000M
000M
000M
0000
0000
0000
,
1000
1000
1000
1000
,
0000
0000
0000
0000
M000
M000
M000
M000
M000
M000
M000
M000
M000
0000
0000
0000
,
0100
0100
0100
0100
,
0000
0000
0000
0000
0M00
0M00
0M00
0M00
0M00
0M00
0M00
0M00
0M00
0000
0000
0000
,
1000
0000
0000
1000
0000
0000
0001
0000
0000
0001
0000
0000
0010
0000
0000
0010
0000
0000
0100
0000
1000
0000
0001
0000
,
0010
0000
0001
0000
1000
0000
0100
0000
1001
0000
1000
0000
0100
0000
1000
0010
,
1000
0000
0000
0001
0000
0000
0010
0000
0000
0100
0000
0000
1100
0000
0000
1000
0000
0000
0001
0010
0001
1000
0010
0100
,
0001
0000
0000
0000
0000
0000
1000
0000
0000
0100
0000
0000
0010
0000
0000
0000
0000
0000
0001
0000
0000
0000
0000
0000
0011
0000
0000
0000
0000
0000
0010
0000
0000
0000
0000
0000
0100
0000
0000
0000
0000
0000
1000
0000
0001
0000
1000
0000
,
0001
0000
0100
0000
0010
0000
1000
0001
1000
0100
0010
0000
0001
0000
1001
0000
,
1000
0000
0000
0000
0100
0000
0000
0000
0100
0000
0000
0000
0010
0000
0000
0000
0011
0000
0000
0000
0001
0000
0000
0000
1000
0000
0000
0000
0100
00M0
0100
0000
,
0001
0000
1000
0100
0010
0000
0001
0000
1001
1000
0001
0000
1000
0100
0010
0100
,
1000
0000
0001
0000
1001
0000
1000
0010
0100
0000
0001
0000
1001
0000
1000
0000
,
0001
0000
0000
0000
0000
0000
0000
0000
0000
0000
0000
0000
0000
0000
0000
0000
2000
0000
0000
0000
0000
0000
0000
0000
3100
0000
0000
0000
0000
0000
0000
0000
0000
0000
0000
0000
0000
0000
0000
0000
0020
0000
0000
0000
0000
0000
0000
0000
0031
0000
0000
0000
0000
0000
0000
0000
0000
0000
0000
0000
0000
0000
0000
0000
0200
0000
0000
0000
0000
0000
0000
0000
0310
0000
0000
0000
0000
0000
0000
0000
0000
0000
0000
0000
0000
0000
0000
0001
0000
0000
0010
0000
0000
0100
0000
0000
,
1000
0000
0000
0000
0000
0000
0000
0000
0010
0000
0000
0000
1000
0000
0000
0000
0000
0000
0000
0000
0001
0000
0000
0000
1000
0000
0000
0000
0000
0000
0000
0000
0001
0000
0000
0000
0100
0000
0000
0000
0000
0000
0010
0000
0000
1000
0000
0000
,
0001
0000
1000
0100
0000
0010
0001
0000
0100
0010
1000
0001
,
0010
0000
0001
1000
0001
0000
2000
0000
3001
0000
1000
0010
0100
0000
0001
0010
,
0100
0000
0000
2000
0000
0000
3001
0000
0000
0000
1000
0000
0100
0000
0000
0000
0000
0000
0010
0000
0001
1000
0001
0000
,
0020
0000
0000
0031
0100
0010
1000
0001
0010
0100
1000
0010
,
0100
0001
0010
0100
1000
0001
0010
0001
1000
0100
0000
0000
,
0100
0000
0000
0000
0100
0000
0000
0000
0100
0000
0000
0000
1000
0010
0100
0001
,
1000
0100
0010
0001
1000
0010
0100
0001
1000
0100
0010
0100
1000
0000
0000
0000
,
0001
0000
1001
0000
1000
0100
0010
0001
,
0101
0010
1000
0001
0010
0100
1000
0001
,
0010
0000
0001
0000
1000
0100
0010
0001
1000
0000
0001
0010
0100
1000
0010
0100
,
0001
1000
0001
0010
0002
0000
0000
0000
,
2003
0000
3200
0000
,
1300
0010
0100
0001
1000
0100
0010
0001
0100
0010
1000
0100
0010
0001
1000
0001
,
0010
0100
1000
0100
1000
0000
0010
0000
0100
0000
0001
0000
1000
0000
0100
0000
,
0010
0000
0000
0000
0011
0000
0001
0000
1001
0000
1000
0000
0100
0000
0000
0100
,
0001
0000
0000
0000
0000
0000
0010
0000
0000
0001
0000
0000
0010
0000
0000
0000
0000
0000
0100
0000
0000
1000
0000
0000
0001
0000
0000
0100
0000
0000
0010
0000
1000
0000
0001
0000
0100
0000
0000
0000
0000
0000
1000
0000
0000
0000
0000
0000
,
0001
0000
1000
0000
0001
0000
1000
0100
1000
0010
0100
0001
1000
0100
0010
0001
,
1000
0010
0100
0010
1000
0001
0100
0001
1000
0010
1000
0100
0010
0000
0000
0000
,
0001
0000
2002
3000
0013
0000
0001
0000
,
1000
0100
0010
0001
,
0100
0000
0000
0000
0020
0000
0030
0000
1010
0001
1000
0100
1000
0010
0100
0001
,
1000
0100
0010
0001
1000
0001
0100
0001
2000
0100
0100
3100
1100
1000
0001
0010
,
0001
0000
0100
0000
0010
0000
1000
0000
0001
0000
0010
0000
0100
0000
1000
0000
0001
0000
0000
0000
1000
0000
0100
0000
1000
0001
1000
0000
0100
0000
0010
0000
,
0001
0100
0010
1000
0001
0010
0100
1000
0002
0010
1000
0013
0011
0001
1000
0100
,
1000
0000
0000
0000
0000
0000
0010
0000
0000
0000
0000
0000
1000
0000
0000
0000
0000
0000
0001
0000
0000
0000
0000
0000
1000
0000
0000
0000
0000
0000
0010
0000
0000
1000
0000
0000
0001
0000
0000
0000
0000
0000
0100
0000
0000
0000
0000
0000
0010
0000
0000
0000
0000
0000
1000
0000
0000
0000
0000
0000
0001
0000
0000
0000
0000
0000
0100
0000
0000
0000
0000
0000
0101
0000
0000
0000
0000
0000
0000
0000
0001
0000
0000
0000
0000
0000
0000
0000
0100
0000
0000
0000
0000
0000
0000
0000
,
0010
0000
0000
0000
0000
0000
1000
0000
0000
0000
0000
0000
0001
0000
0100
0000
0001
0000
1000
0000
0010
0000
0100
0000
0001
0000
0000
0010
0000
0000
0100
0000
0000
1000
0000
0000
0101
0000
0000
0100
0000
0000
0001
0000
0000
0010
0000
0000
,
0001
1000
0100
0010
0001
1000
0100
1000
0020
0000
0000
0000
1030
0000
0001
0100
,
0001
0000
0000
0010
0000
0000
0100
0000
0000
1000
0000
0000
0001
0000
0000
0100
0000
0000
0010
0000
0000
1000
0000
0000
0001
0000
0100
0000
0000
0010
0100
0000
0001
0000
0000
1000
0001
0000
0000
0010
0000
0000
0100
0000
0000
1000
0000
0000
,
0001
0000
0000
0100
0000
0000
0001
0000
0000
0100
0000
0000
0001
0000
0010
0000
0100
0000
1000
0000
0001
0000
0100
0000
0001
0000
0000
0000
0000
0000
0000
0000
0000
0000
0000
0000
0001
0000
0000
0000
0000
0000
0000
0000
0000
0000
0000
0000
,
0001
0001
0100
0100
,
0100
0100
0020
0030
,
2000
0000
0000
0000
0000
0000
0000
0000
0000
0000
0000
0000
0000
0000
0000
0000
3000
0000
0000
0000
0000
0000
0000
0000
0000
0000
0000
0000
0000
0000
0000
0000
1000
0000
0000
0000
0000
0000
0000
0001
0000
0000
0000
0000
0000
0000
0000
0000
0100
0000
0000
0000
0000
0000
0000
0000
0000
0000
0000
0000
0000
0000
0000
0000
,
0010
0100
0002
0003
,
2000
3000
0002
0000
,
0000
2003
3002
0000
,
0203
0000
0000
0000
0000
0000
0000
0000
0000
0000
0000
0000
0000
0000
0000
0000
0300
0000
0000
0000
0000
0000
0000
0010
0000
0000
0000
0000
0000
0000
0000
0000
1000
0000
0000
0000
0000
0000
0000
0000
0000
0000
0000
0000
0000
0000
0000
0000
0001
0000
0000
0000
0000
0000
0000
0000
0000
0000
0000
0000
0000
0000
0000
0000
,
1000
0000
0010
0000
2000
3000
0001
0000
,
0100
0000
0000
0000
0000
0000
0000
0000
0000
0000
0000
0000
0000
0000
0000
0000
0010
0000
0000
0000
0000
0000
0000
0000
0000
0000
0000
0000
0000
0000
0000
0000
1000
0000
0000
0000
0000
0000
0000
0000
0000
0000
0000
0000
0000
0000
0000
0000
0001
0000
0000
0000
0000
0000
0000
0000
0000
0000
0000
0000
0000
1000
0000
0000
,
0001
0200
0300
2002
,
0000
0000
0000
0000
,
0000
0000
0000
3003
,
1000
0100
0010
0001
1000
0010
0100
0001
0010
0100
1000
0001
0100
0010
1000
0100
,
0010
0100
1000
0001
0010
0001
0100
0010
0100
0001
1000
0100
0010
0100
1000
0001
,
0100
0010
1000
0001
0010
0100
1000
0001
0100
0001
0010
0001
1000
0100
2000
0000
,
0000
3000
0000
0000
0001
0000
0000
0000
1000
0000
0000
0000
0001
0000
0000
0000
,
1000
0000
0001
0010
0100
1000
0001
0100
,
0010
1000
0001
0000
1000
0000
0001
0000
,
1000
0000
0001
0010
0100
1000
0001
0100
,
0010
1000
0001
0000
1000
0000
0001
0000
,
1000
0000
0001
0010
0100
1000
0001
0100
,
0001
0000
1000
0100
1000
0000
0001
0000
0100
0000
0010
0000
1000
0000
0001
0000
,
0010
0000
0100
1000
0100
0000
0010
0000
0001
0000
0100
0000
0010
0000
1000
0000
,
0001
0000
1000
0010
1000
0000
0001
0000
0010
0000
0100
0000
1000
0000
0001
0000
,
0100
0000
0010
1000
0010
0000
0100
0000
0010
0000
1000
0000
0001
0000
0010
0000
,
0100
1000
0001
0100
0010
1000
0001
0010
,
0100
1000
0001
0100
0001
0100
0010
1000
,
0010
1000
0001
0100
0001
0100
0010
1000
,
0010
1000
0001
0010
0100
1000
0001
0100
,
0010
1000
0100
0010
0100
1000
0001
0100
,
0010
1000
0001
0010
0100
1000
0010
0100
,
0001
1000
0100
0000
0000
0000
0000
0000
;
