#TITLE:MaxX ResurrexXion;
#SUBTITLE:;
#ARTIST:DJ Demon;
#TITLETRANSLIT:;
#SUBTITLETRANSLIT:;
#ARTISTTRANSLIT:;
#GENRE:;
#CREDIT:Braeden;
#MUSIC:MaxX ResurrexXion.ogg;
#BANNER:Maxx Resurrexxion.png;
#BACKGROUND:Maxx Resurrexxion-bg.png;
#CDTITLE:;
#SAMPLESTART:51.231;
#SAMPLELENGTH:11.980;
#SELECTABLE:YES;
#OFFSET:-0.040;
#BPMS:0.000=150.000
,16.000=300.000
,176.000=150.000
,208.000=300.000
,468.000=150.000
,486.000=300.000
;
#STOPS:272.000=2.400;
#BGCHANGES:;
#FGCHANGES:;

//--------------- dance-single - ----------------
#NOTES:
     dance-single:
     :
     Beginner:
     6:
     0.275,0.453,0.219,0.057,0:
0000
0000
0000
0000
,
0000
0000
0000
0000
,
1000
0000
0000
0000
,
0000
0000
0000
0000
,
1001
0000
0000
0000
,
1000
0000
0000
0000
,
0010
0000
0000
0000
,
0100
0000
0100
0000
,
0001
0000
0000
0000
,
1000
0000
0000
0000
,
0001
0000
1000
0000
,
0010
0000
0000
0000
,
1001
0000
0000
0000
,
1000
0000
0000
0000
,
0001
0000
0000
0000
,
1000
0000
0010
0000
,
1000
0000
0000
0000
,
0001
0000
0000
0000
,
1000
0000
0000
0000
,
0010
0000
1000
0000
,
1001
0000
0000
0000
,
0010
0000
0000
0000
,
0100
0000
0000
0000
,
0001
0000
1000
0000
,
0010
0000
0000
0000
,
0100
0000
0000
0000
,
0001
0000
0000
0000
,
0010
0000
0100
0000
,
0110
0000
0000
0000
,
0001
0000
0000
0000
,
1000
0000
0000
0000
,
0001
0000
0000
0000
,
1001
0000
0000
0000
,
0010
0000
0000
0000
,
0110
0000
0000
0000
,
1000
0000
0000
0000
,
0001
0000
0001
0000
,
1000
0000
0010
0000
,
0100
0000
0001
0000
,
0010
0000
0100
0000
,
0110
0000
0001
0000
,
1000
0000
0001
0000
,
1001
0000
0010
0000
,
1000
0000
0001
0000
,
2000
0000
0000
3000
,
0002
0000
0000
0003
,
0200
0000
0000
0300
,
0020
0000
0000
0030
,
2000
0000
0000
3000
,
0002
0000
0000
0003
,
1000
0000
1000
0000
,
0001
0001
0001
0001
,
0001
0000
0000
0000
,
0000
0000
0000
0000
,
1000
0000
0000
0001
,
0000
0000
0100
0000
,
0010
0000
0000
0000
,
0000
0000
0000
0000
,
1000
0000
0000
0001
,
0000
0000
1000
0000
,
0010
0000
0010
0000
,
1000
0000
1000
0000
,
0001
0000
0000
1000
,
0000
0000
0010
0000
,
1000
0000
0001
0000
,
1000
0000
0010
0000
,
1000
0000
0000
0000
,
0001
0000
0000
0000
,
1001
0000
0000
0000
,
0110
0000
0001
0000
,
1000
0000
0000
0000
,
0001
0000
1000
0000
,
0010
0000
0010
0000
,
0100
0000
0001
0000
,
0010
0000
0100
0000
,
1000
0000
0001
0000
,
0100
0000
0000
0000
,
0010
0000
1000
0000
,
0100
0000
0000
0000
,
0010
0000
0000
0001
,
0000
0000
1000
0000
,
0010
0000
1000
0000
,
0001
0000
0000
0000
,
1000
0000
0000
0001
,
0000
0000
1000
0000
,
1001
0000
0000
0000
,
0010
0000
0000
0000
,
1001
0000
0000
0001
,
0000
0000
1000
0000
,
1001
0000
0000
0000
,
0000
0000
0000
0000
,
0110
0000
0000
0010
,
0000
0000
0100
0000
,
1001
0000
0001
0000
,
1000
0000
0000
0000
,
1001
0000
0000
0010
,
0000
0000
1000
0000
,
0001
0000
1000
0000
,
0010
0000
0000
0000
,
1000
0000
0000
0000
,
0001
0000
0000
0000
,
1001
0000
1000
0000
,
0001
0001
0001
0000
,
1000
0000
0010
0000
,
0100
0100
0100
0000
,
0001
0000
1000
0000
,
0010
0000
0100
0000
,
0001
0000
0010
0000
,
0100
0100
0100
0000
,
1000
0000
0001
0000
,
1000
0000
0010
0000
,
0100
0000
0001
0000
,
1000
1000
1000
0000
,
0001
0000
1000
0000
,
0010
0000
0100
0000
,
1001
0000
1001
0000
,
0110
0000
0110
0000
,
1001
0000
0000
0000
,
0000
0000
0000
0000
,
1001
0000
0000
0000
;

//--------------- dance-single - ----------------
#NOTES:
     dance-single:
     :
     Easy:
     9:
     0.414,0.514,0.295,0.152,0:
0000
0000
0000
0000
,
0000
0000
0000
0000
,
2000
0000
0000
0000
,
0000
0000
0000
0000
,
3001
0010
0001
0000
,
1000
0001
1000
0000
,
0010
1000
0010
0000
,
1000
0001
1000
0000
,
0001
0000
0001
0000
,
1000
0000
1000
0000
,
0010
1000
0010
0000
,
1000
0001
1000
0001
,
1000
0000
0000
0000
,
1001
0000
0000
0000
,
1010
0000
0000
0000
,
1000
0001
0100
0010
,
1000
0000
0000
0000
,
1001
0000
0000
0000
,
0011
0000
0000
0000
,
0001
0100
0010
1000
,
1001
0000
0000
0000
,
0010
0000
0000
0000
,
1000
0000
0000
0000
,
0001
0100
0010
1000
,
0001
0000
0000
0000
,
1100
0000
0000
0000
,
0011
0000
0000
0000
,
1000
0010
0100
0001
,
1001
0000
0000
1100
0000
0000
0000
0000
,
0001
0000
1000
0000
,
0010
0000
0100
0000
,
0001
0000
0010
0001
,
1001
0000
0000
1010
0000
0000
0000
0000
,
0000
0000
0000
0001
,
1001
0000
0000
1010
0000
0000
0000
0000
,
0000
0000
0000
1000
,
1001
0000
0000
1010
0000
0000
0000
0000
,
0001
1000
0001
0000
,
0100
0010
0100
0000
,
0001
0010
0001
0000
,
1000
0001
1000
0000
,
0010
0100
0010
0000
,
0010
0001
0010
0001
,
1000
0001
1000
0001
,
2000
0000
0000
0000
0000
0000
0000
0000
0000
0000
0000
0000
0000
0000
0000
0000
0000
0000
0000
0000
0000
0000
0000
0000
0000
0000
0000
0000
0000
0000
0000
0000
0000
0000
0000
0000
0000
0000
0000
0000
0000
0000
0000
0000
0000
0000
0000
0000
0000
0000
0000
0000
0000
0000
0000
0000
0000
0000
0000
0000
0000
0000
0000
0000
0000
0000
0000
0000
0000
0000
0000
0000
0000
0000
0000
0000
0000
0000
0000
0000
0000
0000
0000
0000
0000
0000
0000
0000
0000
0000
0000
0000
0000
0000
0000
0000
0000
0000
0000
0000
0000
0000
0000
0000
0000
0000
0000
0000
0000
0000
0000
0000
0000
0000
0000
0000
0000
0000
0000
0000
0000
0000
0000
0000
0000
0000
0000
0000
0000
0000
0000
0000
0000
0000
0000
0000
0000
0000
0000
0000
0000
0000
0000
0000
0000
3000
0000
0000
0000
0000
0000
0000
0000
0000
0000
0000
0000
0000
0000
0000
0000
0000
0000
0000
0000
0000
0000
0000
0000
0000
0000
0000
0000
0000
0000
0000
0000
0000
0000
0000
0000
0000
0000
0000
0000
0000
0000
0000
0000
0000
0000
0000
,
0002
0000
0000
0003
,
2000
0000
0000
3000
,
0020
0000
0000
0030
,
0200
0000
0300
0000
,
0001
0000
0000
1000
,
0002
0000
0000
0003
,
1000
0000
0000
0010
0000
0000
1000
0000
,
1001
0000
0000
1000
,
0000
0000
0000
0000
,
0002
0000
0000
1000
,
0000
0000
0100
0000
,
0103
0000
0000
0000
,
0000
0000
0000
0000
,
0020
0000
0000
1000
,
0000
0000
0100
0000
,
0130
0000
0001
0000
,
0010
0100
0010
0000
,
0001
1000
0001
0000
,
1000
0010
1000
0000
,
0001
1000
0001
0000
,
1000
0010
1000
0000
,
0001
0000
0000
1000
0000
0000
0010
0000
,
0100
0000
0000
0001
0000
0000
0010
0000
,
1001
0000
0000
0000
,
1001
0000
0010
0000
,
1000
0001
0100
0000
,
0010
0000
0000
1000
,
0000
0000
0001
0000
,
1000
0010
0100
0000
,
0001
0010
0001
0000
,
0200
0000
0000
0001
,
0000
0000
0310
0000
,
0001
0100
0010
0000
,
1000
0000
0001
0000
,
0020
0000
0000
0100
,
0000
0000
0001
0000
,
0130
1000
0001
0000
,
0010
0000
0100
0000
,
0002
0000
0000
1000
,
0000
0000
0103
0000
,
0101
0000
0010
0000
,
1000
0000
0001
0000
,
1001
0000
0000
1010
,
0000
0000
0001
1000
,
1001
0000
0010
0000
,
1000
0000
0001
1000
,
1001
0000
0000
0010
,
0000
0000
1000
0001
,
1001
0000
0010
0000
,
0100
0000
0001
0010
,
0011
0000
0000
0001
,
0000
0000
1000
0001
,
1001
0000
0010
0000
,
1000
0000
0001
0000
,
1010
0000
1010
0000
,
0101
0000
0101
0000
,
0001
1000
0001
0000
,
1000
0010
0100
0000
,
0001
0010
0001
0000
,
1000
1000
0001
0001
,
1000
0010
1000
0000
,
0001
1000
0010
0000
,
0100
0001
0100
0000
,
0001
0001
1000
0000
,
0010
1000
0010
0000
,
0100
0001
0100
0000
,
0001
0010
0001
0000
,
1000
0001
1000
0000
,
0001
0100
0001
0100
,
0010
1000
0010
1000
,
0002
0000
0000
0000
,
2003
0000
0000
0000
,
3000
0010
0000
0000
0010
0000
0000
1000
,
0000
0001
0000
0000
1000
0000
0000
0010
,
2002
0000
0000
0000
,
0000
3003
0000
0000
0000
0000
0000
0000
0000
0000
0000
0000
0000
0000
0000
0000
0000
0000
0000
0000
0000
0000
0000
0000
0000
0000
0000
0000
0000
0000
0000
0000
0000
0000
0000
0000
0000
0000
0000
0000
0000
0000
0000
0000
0000
0000
0000
0000
0000
0000
0000
0000
0000
0000
0000
0000
0000
0000
0000
0000
0000
0000
0000
0000
0000
0000
0000
0000
0000
0000
0000
0000
0000
0000
0000
0000
0000
0000
0000
0000
0000
0000
0000
0000
0000
0000
0000
0000
0000
0000
0000
0000
0000
0000
0000
0000
0000
0000
0000
0000
0000
0000
0000
0000
0000
0000
0000
0000
0000
0000
0000
0000
0000
0000
0000
0000
0000
0000
0000
0000
0000
0000
0000
0000
0000
0000
0000
0000
0000
0000
0000
0000
0000
0000
0000
0000
0000
0000
0000
0000
0000
0000
0000
0000
0000
0000
0000
0000
0000
0000
0000
0000
0000
0000
0000
0000
0000
0000
0000
0000
0000
0000
0000
0000
0000
0000
0000
0000
0000
0000
0000
0000
0000
0000
0000
0000
0000
0000
0000
0000
0000
0000
0000
0000
0000
0000
0000
0000
0000
0000
0000
0000
;

//--------------- dance-single - XMOD ----------------
#NOTES:
     dance-single:
     XMOD:
     Medium:
     13:
     0.694,0.808,0.419,0.457,0.019:
0000
0000
0000
0000
,
0000
0000
0000
0000
,
1000
0001
0100
0010
,
1000
0100
0010
0001
,
1000
0000
0001
0000
1000
0001
0000
1000
,
0001
0000
0100
0000
0010
0100
0000
0010
,
0100
0000
0001
0000
0010
0001
0000
0010
,
0001
1000
0001
0000
,
1000
0000
0010
0000
1000
0010
0000
1000
,
0010
0000
0100
0000
0001
0100
0000
0001
,
0100
0010
1000
0001
,
1000
0100
0010
0000
,
1001
0000
0001
0000
0000
1000
0000
0010
,
1000
0000
0010
0000
0000
0100
0000
0001
,
0100
0000
0010
0000
0000
1000
0000
0010
,
0100
0001
1000
0010
,
0100
0000
0100
0000
0000
0001
0000
1000
,
0010
0000
1000
0000
0000
0001
0000
0100
,
0010
0000
1000
0000
0000
0001
0000
0100
,
0010
1000
0100
0001
,
0100
0000
1000
0000
0000
0001
0000
0100
,
0010
0000
0100
0000
0000
0001
0000
0100
,
0010
0000
1000
0000
0000
0100
0000
0010
,
0001
0000
1000
0000
0001
0000
1000
0010
,
1000
0000
0001
0000
0000
1000
0000
0001
,
0100
0000
1000
0000
0000
0100
0000
0001
,
0100
0000
0010
0000
0000
1000
0000
0100
,
0001
0100
1000
0010
,
1001
0000
0000
1010
0000
1000
0000
0001
,
1000
0010
0100
0001
,
0010
0100
1000
0001
,
0100
0010
0100
1001
,
1010
0000
0000
1010
0000
0000
0000
1000
,
0200
0310
0001
1000
,
1001
0000
0000
1010
0000
0000
0000
1000
,
0001
0010
0100
1000
,
0001
0100
0001
0100
,
0010
1000
0010
1000
,
0100
0010
0100
0010
,
0001
0100
0001
1001
,
1010
0000
0000
1001
0000
0000
0001
0000
,
1000
0010
1000
0001
,
1001
0000
0000
0202
0000
0000
0000
0000
,
0000
0000
0303
1000
,
2002
0000
3003
0000
,
2010
0000
0000
3001
0000
0000
0001
1000
,
0020
0000
0000
0030
,
2001
0000
0000
3010
0000
0000
0001
1000
,
0002
0000
1003
0000
,
0020
0000
0000
1000
0000
0000
1030
0001
,
1000
1000
0010
0100
,
0002
0000
0013
0200
1000
0000
0301
1000
,
1001
0000
0000
1100
0000
0000
1001
0000
,
0000
0000
0010
1000
,
2020
0000
0030
0002
,
0000
0003
0200
3300
,
1001
0000
0000
0101
0000
0000
1001
0000
,
0000
0000
1000
0001
,
0202
0000
0300
2000
,
0000
3000
0200
0303
,
0001
0100
0001
0100
,
0010
1000
0010
1000
,
0002
0000
0000
2000
,
0000
3000
0020
0030
,
2000
0000
0000
0000
,
3003
0000
0000
0000
0000
0000
0001
1000
,
0200
0000
0000
1000
0000
0000
1300
0000
,
0002
0000
0000
1000
0000
0000
1003
0000
,
1001
0000
0000
0000
,
0101
0000
0001
0000
1000
0010
0000
0010
,
2000
0001
3001
0000
,
1000
0000
0001
0000
1000
0100
0000
0100
,
1000
0100
0010
0000
,
1000
0000
0001
0000
1000
0010
0000
0010
,
1000
0001
1000
0001
,
1000
0000
0001
0000
1000
0010
0000
0010
,
1000
0000
0001
0100
0000
0100
0001
0000
,
0100
0000
0010
0000
1000
0100
0000
0100
,
0010
0000
0001
0010
0000
0010
0100
0000
,
1000
0000
0001
0000
1000
0010
0000
0010
,
0100
0001
1000
0001
,
0010
0000
0100
0000
1000
0100
0000
0100
,
0010
0000
0010
0001
0000
0001
1000
0000
,
0001
0000
0100
0000
0010
1000
0000
0010
,
1000
0000
0001
0100
0000
0100
0010
0000
,
1001
0000
0000
0202
0000
0000
0000
0000
,
0303
0000
0000
1010
,
1020
0000
0000
2000
,
0030
0000
3000
0101
,
0101
0000
0000
2002
0000
0000
0000
0000
,
0000
0000
3003
1001
,
1010
0000
0000
0202
0000
0000
0000
0000
,
0303
0000
0000
1001
,
1100
0000
0000
1001
0000
0000
0000
0000
,
0001
0010
1001
1002
,
0000
0000
0000
2000
,
0000
3000
0020
0030
,
2000
0000
0000
0000
,
0000
0000
3003
0000
0000
0000
1000
0100
,
0020
0000
0000
0001
0000
0000
0031
0000
,
2000
0000
0000
0010
0000
0000
3010
0000
,
1001
0000
0001
0000
0000
0100
0000
0100
,
0020
0000
1030
0000
0000
0001
0000
0001
,
0200
0000
0310
0000
0000
1000
0000
0001
,
0100
0000
1000
0000
0001
0000
1000
0010
,
0200
0000
0301
0000
0000
1000
0000
0001
,
0200
0000
0310
0000
0000
1000
0000
0001
,
0200
0000
0310
0000
0000
1000
0000
0001
,
1000
0010
0100
0001
,
1000
0100
1000
0000
0001
0000
0100
0000
,
0010
1000
0010
0000
0100
0000
0001
0000
,
1000
0001
1000
0000
0100
0000
0010
0000
,
0001
1000
0001
1000
,
0001
1000
0001
1000
0001
1000
0001
1000
,
0010
0100
0010
0100
0010
0100
0010
0100
,
0001
0000
1000
0000
0000
0010
0000
0100
,
0001
1000
0001
0010
,
1100
0000
0001
0000
0000
0100
0000
0000
0001
0000
0000
1000
0000
0000
0001
0000
,
0000
0000
1000
0000
0000
0010
0000
0000
0100
0000
0000
0100
0000
0000
1000
0000
,
2002
0000
0000
0000
,
0000
0000
0000
0000
,
0000
3003
0000
0000
;

//--------------- dance-single - XMOD ----------------
#NOTES:
     dance-single:
     XMOD:
     Hard:
     16:
     0.913,0.982,0.619,0.39,0.019:
0000
0000
0000
0000
,
0000
0000
0000
0000
,
1000
0100
1000
0100
1000
0100
1000
0100
,
0010
0001
0010
0001
0010
0001
0010
0001
,
1M00
0000
1000
0010
0100
0001
0000
0100
,
0010
0000
1000
0100
0010
0100
0000
1000
,
0100
0000
0010
0001
0100
0010
0000
1000
,
0001
1000
1001
0000
,
1001
0000
0001
0000
1000
0010
0000
0100
,
0001
1000
0010
0100
0001
1000
0000
0001
,
0100
0010
1000
0100
1000
0001
0000
1000
,
0100
0100
0010
0010
,
1001
0000
1000
0000
0000
0001
0000
0001
,
0200
0000
0310
0000
0000
1000
0000
1000
,
0002
0000
0013
0000
0000
0100
0000
0100
,
1000
0000
1010
0000
1001
0000
0001
0100
,
0002
0000
1003
0000
0000
0010
0000
1000
,
0002
0000
0103
0000
0000
0010
0000
1000
,
0200
0000
0310
0000
0000
0001
0000
0100
,
0010
0000
1010
0000
0101
0000
1000
0010
,
1000
0000
0001
0000
0000
1001
0000
1000
,
0020
0000
0130
0000
0000
0101
0000
0001
,
2000
0000
3010
0000
0000
1000
0000
0001
,
1000
0101
1010
1001
,
1000
0100
1000
0100
0000
0010
0000
0001
,
1000
0001
1000
0001
0000
0010
0000
0001
,
1000
0010
0100
0001
0000
0010
0000
1000
,
0100
0100
0010
0010
,
1001
0000
0000
1010
0000
0010
0000
1000
,
0001
0010
0001
0000
1000
0100
1000
0000
,
0001
1000
0001
0000
0100
0001
0100
0000
,
0010
1000
0010
0000
0100
0000
1001
0000
,
1010
0000
0000
1010
0000
1000
0000
0010
,
0200
0301
1000
0001
,
1001
0000
0000
1010
0000
0001
0000
0100
,
0001
0000
1000
0001
0100
0010
1000
0000
,
0001
0100
0001
0100
0010
1000
0010
1000
,
0001
0010
0001
0010
0100
1000
0100
1000
,
0001
0100
0010
1000
0100
0010
0001
0010
,
0100
1000
0001
0100
0010
0000
1001
0000
,
1010
0000
0000
1000
0001
1000
0001
0000
,
1000
0010
1000
0000
0100
0010
0001
0000
,
1001
0000
0000
0202
0000
0000
0000
0000
,
0000
0000
0303
1000
,
2M02
0000
3003
0000
,
2000
0000
0000
3001
0000
0000
0001
1000
,
0020
0000
0000
0030
,
2000
0000
0000
3010
0000
0000
1000
0001
,
2000
0000
3001
0000
,
0020
0000
0000
0001
0000
0000
0031
1000
,
0001
0001
0010
0100
,
2000
0000
3100
0020
0001
0000
0031
1000
,
1M01
0000
0000
0101
0000
0000
1001
0000
,
0000
0000
0010
0001
,
0022
0000
0030
2000
,
0000
3000
0200
0303
,
1001
0000
0000
1100
0000
0000
1001
0000
,
0000
0000
0001
1000
,
2200
0000
0300
0002
,
0000
0003
0200
3300
,
1000
0100
1000
0100
,
0010
0001
0010
0001
,
1000
0010
1000
0010
1000
0010
0100
0001
,
0100
0001
0100
0001
1000
0100
1000
0100
,
0010
0001
0010
0001
1000
0100
1000
0100
,
0010
0001
1000
0100
0010
0001
1000
0010
,
0200
0000
0000
0001
0000
0000
0301
0000
,
2000
0000
0000
0001
0000
0000
3001
0000
,
1M01
0000
0000
0000
,
1100
0000
1000
0000
0001
0010
0000
0010
,
0002
1000
1003
1000
,
0001
0010
0001
0000
1000
0100
0000
0100
,
1000
0000
0001
0100
0010
1000
0010
0100
,
0001
0000
1000
0000
0001
0010
0000
0010
,
0001
0000
1000
0000
0001
0000
1000
0100
,
0010
0001
1000
0000
0001
0010
0000
0010
,
0001
0000
1000
0100
0000
0100
1000
0001
,
1000
0000
0001
0000
1000
0100
0000
0100
,
1000
0000
0001
0010
0000
0010
0001
0000
,
1001
0000
1000
0000
0001
0010
0000
0010
,
0100
0000
1000
0000
0001
0000
1000
0010
,
1000
0000
0001
0000
1000
0100
0000
0100
,
0010
0000
0010
0001
0000
1000
0001
0000
,
1000
0100
1000
0000
0001
0010
0000
0010
,
0001
0000
1000
0100
0000
0100
0010
0000
,
1001
0000
1000
0000
0001
0010
0000
0001
,
0010
0000
0001
1000
0000
0000
1001
0000
,
0011
0000
0001
0000
1000
0100
0000
0100
,
0010
0000
0010
0001
0000
0000
1001
0000
,
1100
0000
1000
0000
0001
0010
0000
0100
,
1000
0000
1000
0010
0000
0000
1010
0000
,
0011
0000
0000
1100
0000
0000
1001
0000
,
1000
0000
0001
0000
0100
0000
0001
0100
,
0001
0000
1000
0100
1000
0100
0000
1000
,
0200
0010
0310
0011
,
0001
0100
0010
0100
0010
0100
0001
1000
,
0001
1000
0001
1000
0010
1000
0010
1000
,
0100
1000
0100
0010
0001
0100
0010
1000
,
0010
0100
0001
1000
0100
0010
0001
0100
,
0020
0000
0000
1000
0000
0000
1030
0000
,
0002
0000
0000
0010
0000
0000
0013
0000
,
1001
0000
1000
0000
0000
0100
0000
0100
,
0020
0000
0031
0000
0000
1000
0000
1000
,
0200
0000
0310
0000
0000
0001
0000
1000
,
0100
0000
0011
0000
1001
0000
0001
0010
,
0200
0000
1300
0000
0000
0001
0000
1000
,
0200
0000
0310
0000
0000
0001
0000
1000
,
0200
0000
0310
0000
0000
0001
0000
1000
,
0001
0000
0011
0000
1100
0000
0001
0010
,
0001
0000
0100
0000
0010
1000
0010
1000
,
0010
0000
1000
0000
0001
0010
0001
0010
,
0100
0000
1000
0000
0001
0010
0100
0010
,
0001
0000
1001
0000
1100
0000
0001
0010
,
0001
0100
0001
0100
0010
1000
0010
1000
,
0001
0010
0001
0010
0100
1000
0100
1000
,
0001
0000
0001
0000
0000
0010
0000
0100
,
1000
0011
1100
1010
,
01M1
0000
1000
0000
0000
0100
0000
0000
0001
0000
0000
0100
0000
0000
1000
0000
,
0000
0000
0001
0000
0000
0010
0000
0000
1000
0000
0000
0010
0000
0000
0001
0000
,
2002
0000
0000
0000
,
0000
0000
0000
0000
,
0000
3003
0000
0000
;

//--------------- dance-single - XMOD STR BU SJ- ----------------
#NOTES:
     dance-single:
     XMOD STR BU SJ-:
     Challenge:
     18:
     0,0,0,0,0:
0000
0000
0000
0000
,
0000
0000
0000
0000
,
0001
0100
0001
0100
0001
0010
0100
1000
0010
0100
0001
0010
0100
1000
0001
0100
,
0010
1000
0100
0010
0001
1000
0001
0100
0001
0010
0100
1000
0010
0100
0001
0010
,
M001
0100
0010
1000
0100
0010
0001
1000
,
0010
0100
0001
0010
0100
1000
0001
0100
,
0010
1000
0100
0010
0001
0100
0010
1000
,
0001
0100
0001
0010
0001
1000
0010
0100
,
0001
0010
0100
1000
0001
0100
0010
1000
,
0100
0010
0001
1000
0010
0100
0001
0010
,
0100
1000
0010
0100
0001
0010
0100
1000
,
0001
0100
0010
1000
0100
0010
0001
1000
,
0001
0100
0010
1000
0001
0010
0001
0100
,
0001
0100
0010
1000
0001
0010
0001
0100
,
0010
1000
0100
0010
0001
0100
0010
0100
,
0001
0010
0100
1000
0010
0100
0001
0010
,
0100
1000
0001
0100
0010
1000
0100
0010
,
0001
0100
0001
0100
0010
1000
0100
0010
,
0001
1000
0001
1000
0100
0010
0001
0100
,
0010
1000
0100
0010
0001
0100
0001
1000
,
0001
0100
0010
0100
0001
0010
0100
1000
,
0001
0100
0010
0100
0001
1000
0100
0010
,
0001
1000
0010
0100
0010
1000
0001
0010
,
0001
0100
0010
1000
0100
0010
0001
1000
,
0001
0010
0100
1000
0010
0100
0001
1000
,
0100
0010
0001
0100
0010
1000
0100
1000
,
0001
0010
0100
1000
0010
0100
0001
1000
,
0010
0100
0001
0010
0001
1000
0100
1000
,
0002
0103
0010
0200
0310
1000
0001
0010
,
0100
1000
0010
0100
0001
1000
0100
0010
,
0001
0100
0010
1000
0001
0010
0100
1000
,
0010
0100
0001
1000
0100
0010
0002
0103
,
0002
0013
0100
0020
0130
1000
0010
0100
,
0001
0010
0100
1000
0010
0100
0002
1003
,
0200
1300
0100
0020
0031
0100
0010
1000
,
0001
0010
0100
1000
0010
0100
0001
0010
,
0001
1000
0001
0010
0100
1000
0010
0100
,
0001
0010
0100
1000
0010
0100
0001
1000
,
0100
0010
0001
0100
0010
1000
0001
0010
,
0100
1000
0010
0100
0001
0100
0010
1000
,
0010
1000
0100
1000
0001
0100
0010
0100
,
0001
0010
0100
1000
0010
0100
0001
0010
,
0100
1000
0010
0100
0001
0010
0100
1000
0100
0010
0001
1000
,
0010
0100
0010
1000
0001
0010
0100
1000
0100
0010
0001
1000
,
0M02
0000
0000
0000
,
0203
0000
0000
0320
0000
0000
1030
0001
,
2001
0000
0000
0000
,
3002
0000
0000
0203
0000
0000
0310
1000
,
0010
0100
0001
0010
0100
1000
0010
0100
0001
1000
0100
0010
0001
0100
0010
1000
,
0002
0000
0000
2003
0000
0000
3010
1000
,
1010
0010
0100
0001
,
2000
0000
0000
3002
0000
0000
1003
0000
,
1000
0100
1000
0001
0100
0001
1000
0100
,
0010
0001
0100
0010
1000
0001
0010
0100
,
1000
0010
0100
0001
1000
0010
1000
0100
,
0010
0001
0100
0010
1000
0100
0010
0001
,
1000
0100
1000
0001
0010
0100
1000
0010
,
1000
0100
0010
0001
0100
0010
1000
0001
,
1000
0100
0010
0001
0100
0010
1000
0100
,
0010
0001
0100
0010
1000
0001
0010
0100
,
1000
0010
0100
0001
0100
0010
1000
0001
,
1000
0100
1000
0100
0010
0001
0010
0001
,
1000
0100
0010
0001
0100
0010
1000
0100
,
0010
0001
0100
0010
1000
0100
0010
0001
,
1000
0100
1000
0001
0100
0010
1000
0001
,
0010
0100
1000
0010
0100
0001
1000
0001
,
0100
0010
1000
0001
0010
0100
1000
0010
0100
0001
1000
0100
,
0010
0001
0100
0010
1000
0001
0010
0100
1000
0010
0100
0001
,
1000
0000
0000
0000
,
2001
0000
3001
0100
0010
1000
0000
1000
,
0010
0000
0110
0000
1001
0000
0001
0100
,
0002
0000
0000
2000
,
0000
0000
3000
0000
0013
0000
0100
1000
,
0010
0000
0100
0001
1000
0001
0000
0001
,
1000
0010
0100
0001
1000
0100
0010
0001
,
1000
0100
0010
0001
0100
0000
0010
1000
,
0010
0000
0100
0001
0100
0001
1000
0100
,
1000
0010
0100
0001
0100
0010
0000
1000
,
0010
0000
1010
0000
1001
0000
0001
0100
,
0010
1000
0100
1000
0001
0100
0000
0010
,
1000
0000
1010
0000
1001
0000
0010
0100
,
0010
0000
1000
0010
0100
0001
0000
0100
,
0010
1000
0010
0100
0000
0001
1000
0000
,
1000
0000
0001
0000
0100
0010
0000
1000
,
0010
0000
0100
0001
0100
0000
0010
0000
,
1010
0000
0000
1001
0000
0001
0000
0100
,
0010
0000
1000
0001
1000
0000
1001
0000
,
0101
0000
0000
0010
0100
0010
1000
0001
,
1000
0000
0001
0100
0010
0000
1000
0100
,
1100
0000
0000
0001
0100
0010
1000
0001
,
1000
0100
0010
0001
0100
0000
0110
0000
,
1001
0000
0000
1010
0000
0000
1000
0001
,
0100
0000
0010
0000
1000
0000
0001
1000
,
1001
0000
0001
0010
0000
0100
0000
1000
,
0001
0100
0010
1000
0100
0010
0001
0100
,
0001
0010
0100
1000
0010
0100
0010
1000
,
0001
0100
0010
1000
0100
0010
0001
0100
,
0001
0010
0100
0010
0001
0100
0010
1000
,
0100
0010
0001
1000
0010
0100
0001
0010
,
0100
1000
0001
0100
0001
1000
0100
0010
0001
1000
0010
0100
,
0001
0010
0100
1000
0001
0100
0010
0100
0001
1000
0100
0010
,
0001
0000
1000
0000
0001
0010
0000
0100
,
2000
0000
3001
0000
0010
0100
0000
0100
,
2000
0000
3001
0000
0010
0001
0000
1000
,
0100
0000
0110
0000
0011
0000
1000
0100
,
1000
0000
0010
0000
0100
0001
0000
0010
,
0100
0000
1000
0001
0000
0010
0000
0100
,
1000
0001
0100
0001
0000
0010
0000
0100
,
1000
1001
0011
1001
,
0001
0100
0001
1000
0100
0010
0001
0100
,
0010
1000
0100
0010
0001
1000
0010
0100
,
0001
0010
0100
1000
0001
0100
0001
1000
,
0100
0010
0001
0100
0010
0100
0001
1000
,
0001
0010
0100
1000
0001
0100
0010
1000
,
0001
0100
0010
0100
0001
0010
0100
1000
,
0001
0100
0001
1000
0100
0010
0001
0100
0001
1000
0010
0100
,
0010
1000
0001
0010
0100
1000
0001
0010
0100
0010
0001
1000
,
0M01
0000
1000
0000
0000
0100
0000
0000
0010
0000
0000
0001
0000
0000
1000
0000
,
0000
0000
0001
0000
0000
0100
0000
0000
0010
0000
0000
1000
0000
0000
0100
0000
,
0020
0000
0000
0000
,
0000
0000
0000
0030
;

//--------------- dance-single - ----------------
#NOTES:
     dance-single:
     :
     Edit:
     18:
     1,1,0.619,0.362,0.438:
0000
0000
0000
0000
,
0000
0000
0000
0000
,
0001
0010
0100
0010
0100
1000
0010
1000
0001
0010
0100
1000
0100
0010
0001
0100
,
0010
1000
0100
0010
0100
1000
0001
0010
0100
0010
0001
0010
0100
1000
0001
1000
,
0001
0000
1000
0010
0100
0001
0000
0100
,
0010
0000
1000
0100
0010
0100
0000
1000
,
0100
0000
0010
0001
0100
0010
0000
1000
,
1001
0101
2020
3030
,
1001
0000
0001
0000
1000
0010
0000
0100
,
0001
0010
0001
1000
0100
1000
0001
0100
,
0010
1000
0100
1000
0001
0010
0100
1000
,
0100
0010
0001
0100
0010
1000
0001
1000
,
1001
0000
1000
0000
0000
0001
0000
0001
,
0200
0000
0310
0000
0000
1000
0000
1000
,
0002
0000
0103
0000
0000
0010
0000
0010
,
1000
0000
1010
0000
1001
0000
0001
0100
,
0002
0000
1003
0000
0000
0010
0000
1000
,
0002
0000
0103
0000
0000
0010
0000
1000
,
0200
0000
0310
0000
0000
0001
0000
0100
,
0010
0000
1010
0000
0101
0000
1000
0010
,
1000
0100
1000
0100
1000
0100
1000
0100
,
0010
0001
0010
0001
0010
0001
0010
0001
,
1000
0010
1000
0010
1000
0010
1000
0001
,
1001
0101
1010
1001
,
1000
0100
0010
0001
0000
0010
0000
0100
,
1000
0100
0010
0001
0000
0010
0000
0001
,
1000
0010
0100
0001
0000
0010
0000
1000
,
0100
0100
0010
0010
,
1001
0000
0000
1010
0000
0000
1000
0100
,
0010
0001
0100
0010
1000
0100
0010
0100
,
1000
0001
0010
0100
0010
0001
1000
0100
,
1000
0001
0010
0001
1000
0000
1001
0000
,
1010
0000
0000
1010
0000
1000
0000
1000
,
0020
0000
0130
0000
0001
0010
0001
0000
,
1001
0000
0000
1010
0000
0001
0000
0100
,
0001
0000
1000
0001
0100
0010
1000
0000
,
1000
0100
1000
0100
0010
0001
0010
0001
,
1000
0010
1000
0010
0100
0001
0100
0001
,
1000
0100
0010
0001
0010
0100
1000
0001
,
0100
0010
1000
0100
1000
0001
1001
0000
,
1010
0000
0000
0101
0001
0100
0001
0100
,
0010
1000
0010
0100
0001
1000
0100
0010
,
0001
0010
0100
1000
0100
0010
0001
0100
0010
1000
0001
0010
,
0100
1000
0001
1000
0001
0100
0001
0100
0010
1000
0010
1000
,
0002
0000
0000
0000
,
2003
0000
0000
3002
0000
0000
0100
0103
,
0202
0000
0000
0303
,
1002
0000
0000
0010
0000
0000
1000
1003
,
1002
0000
2000
3000
,
2003
0000
0000
3100
0010
0000
0001
1000
,
1001
1000
0010
0100
,
0002
0000
0013
0200
1000
0000
1300
0001
,
1001
0000
0000
1010
0000
0000
1001
0000
,
1000
0001
1000
0000
0001
0100
0001
0000
,
1001
0000
0000
0010
0000
0000
1010
0000
,
0000
0100
0000
0000
0202
0000
0303
0000
,
1001
0000
0000
1010
0000
0000
0101
0000
,
0001
1000
0010
0000
1000
0001
0100
0000
,
1001
0000
0000
0010
0000
0000
1100
0000
,
0000
0001
0000
0000
2002
0000
3003
0000
,
1000
0100
1000
0100
0010
0001
0010
0001
,
1000
0010
0100
0001
1000
0100
1000
0001
,
0100
0010
1000
0100
1000
0001
0100
0010
,
1000
0100
0010
0100
1000
0001
0100
0010
,
1000
0100
1000
0001
0100
0010
1000
0100
,
0010
0001
1000
0010
0100
0001
1000
0001
,
1000
0100
1000
0100
1000
0100
0010
0001
0010
0001
0010
0001
,
1000
0010
1000
0010
1000
0010
0100
0001
0100
0001
0100
0001
,
1000
0000
0000
0000
,
1001
0000
0001
0000
0100
0010
0000
1000
,
0020
0100
0130
0000
,
0001
0100
0010
1000
0100
0010
0000
0001
,
0100
0000
0101
0000
1010
0000
1000
0100
,
1000
0001
0100
0010
1000
0100
0000
0010
,
0002
0000
0100
0000
0103
0000
0010
1000
,
0100
0010
0001
0100
0010
1000
0000
0001
,
0100
0000
0101
0000
1001
0000
1000
0100
,
1000
0000
0001
0100
0010
1000
0000
0001
,
0200
0010
0310
0001
,
1000
0000
0001
0100
0001
1000
0000
1000
,
0020
0000
0130
0000
0101
0000
0001
0100
,
0001
0000
1000
0010
0100
0001
0000
1000
,
0100
0000
0010
0100
0000
0010
0001
0000
,
1001
0000
1000
0000
0010
0100
0000
0100
,
0001
1000
0010
0000
,
1001
0000
0001
0100
0010
1000
0000
0001
,
0100
0010
1000
1100
,
1100
0000
1000
0001
0100
0010
0000
1000
,
0002
0000
0100
0000
0103
0000
0010
1000
,
1001
0000
0000
1010
0000
1000
0000
0001
,
0100
0000
0100
0010
0000
0010
1010
0000
,
1001
0000
0000
0101
0000
0000
1002
0000
,
0100
0100
0103
1010
,
1001
0000
1000
0010
0100
0001
0000
0001
,
0200
0010
0310
1010
,
1000
0100
1000
0100
1000
0100
1000
0010
,
1000
0010
1000
0010
1000
0001
1000
0001
,
0100
0001
0100
0010
1000
0100
0010
0001
,
0010
0100
1000
0001
0100
0010
1000
0100
,
0010
0001
0010
0100
1000
0100
0010
0001
0010
0100
0010
0100
,
1000
0100
0010
0100
0010
0001
0010
0100
0010
0100
0010
0100
,
2000
0000
3001
0000
0000
0100
0000
0100
,
0020
0000
1030
0000
0000
0001
0000
0001
,
0200
0000
0310
0000
0000
1000
0000
0001
,
0101
0000
1010
0000
1001
0000
1000
0010
,
0200
0000
0301
0000
0000
1000
0000
0001
,
0200
0000
0310
0000
0000
1000
0000
0001
,
0200
0000
0310
0000
0000
1000
0000
0001
,
1001
0000
1010
0000
0101
0000
1000
0010
,
0100
0001
0010
0100
1000
0100
0010
0001
,
1000
0100
1000
0001
0100
0010
1000
0100
,
0010
0100
1000
0001
0100
0010
1000
0100
,
0010
0001
0100
0010
1000
0100
0010
0001
,
0010
0100
1000
0010
0100
0001
1000
0100
,
1000
0001
0100
0010
1000
0100
0010
0001
,
1000
0010
0100
0010
1000
0010
0100
0010
1000
0010
0100
0010
,
1000
0001
0100
0010
0100
0001
0100
0010
0100
0001
0100
0010
,
1000
0000
0001
0000
0000
0100
0000
0000
1000
0000
0000
0100
0000
0000
0001
0000
,
0000
0000
1000
0000
0000
0010
0000
0000
0001
0000
0000
0010
0000
0000
1000
0000
,
2002
0000
0000
0000
,
0000
0000
0000
0000
,
0000
3003
0000
0000
;

//--------------- dance-double - ----------------
#NOTES:
     dance-double:
     :
     Hard:
     16:
     0.797,1,0.581,0.552,0.095:
00000000
00000000
00000000
00000000
,
00000000
00000000
00000000
00000000
,
00010000
00001000
00020000
00000000
00000000
00000000
00000000
00000000
,
00000000
00000000
00000000
00030000
,
00011000
00000000
00001000
01000000
00010000
01000000
00000000
00010000
,
01000000
00000000
00100000
10000000
00100000
01000000
00000000
00001000
,
00010000
00000000
00001000
01000000
00100000
01000000
00000000
00010000
,
01000000
00010000
10010000
00000000
,
10000000
01000000
00010000
00001000
,
00000100
00000001
00000100
00001000
,
00010000
01000000
10000000
01000000
,
00100000
00010000
00100000
00000000
00001000
00100000
00001000
00000000
,
00101000
00000000
00100000
00000000
00000000
00000100
00000000
00010000
,
00002000
00000000
00013000
00000000
00000000
00000010
00000000
00001000
,
00000002
00000000
00001003
00000000
00000000
00000010
00000000
00001000
,
00000001
00000001
00000100
00000100
,
00010000
00000000
00000100
00000000
00000000
00000001
00000000
00001000
,
00000010
00000000
00010000
00000000
00000000
00000010
00000000
00010000
,
00001000
00000000
00010000
00000000
00000000
00001000
00000000
01000000
,
00010000
10000000
00010000
10000000
,
00010000
00100000
00010000
00000000
00100000
00000000
00100000
00000000
,
00001000
00010000
00001000
00000000
00010000
00000000
00010000
00000000
,
00000100
00010000
00000100
00000000
00010000
00000000
00010000
00000000
,
00010100
00010100
00101000
00101000
,
00001000
00000000
00100000
00000000
00000000
00001000
00000000
00010000
,
00000010
00000000
00000100
00000000
00000000
00000001
00000000
00001000
,
00000010
00000000
00010000
00000000
00000000
00001000
00000000
00010000
,
00000010
00000010
00010000
00001000
,
00011000
00000000
00000000
00010100
00000000
00000000
00010000
00000000
,
00000010
00000100
00000001
00000100
,
00000010
00010000
00001000
01000000
,
00100000
10000000
00010000
10100000
,
10100000
00000000
00000000
01001000
00000000
01000000
00000000
00001000
,
01000000
00001000
00010000
00001000
,
00011000
00000000
00000000
00101000
00000000
00010000
00000000
01000000
,
00010000
10000000
00100000
10000000
,
00010000
01000000
00010000
01000000
00001000
01000000
00001000
01000000
,
00001000
00010000
00001000
00010000
00000100
00010000
00000100
00010000
,
00000010
00010000
00000010
00010000
00000001
00001000
00000001
00001000
,
00000010
00001000
00000010
00001000
00000001
00000100
00000001
00000100
,
00000001
00001000
00000001
00001000
00000100
00010000
00000100
00010000
,
00001000
00100000
00001000
00100000
00010000
10000000
00010000
10000000
,
00010000
10000000
00010000
10000000
00010000
10000000
00010000
10000000
,
00010000
10000000
00010000
10000000
00010000
10000000
00010000
00000000
,
20020000
00000000
30030000
00000000
,
00001001
00000000
00000000
00000001
00000000
00000000
00000100
00000010
,
00020000
00000000
00030000
00000000
,
01010000
00000000
00000000
00010000
00000000
00000000
10000000
01000000
,
00010000
00000000
00001010
00000000
,
00000001
00000000
00000000
00000100
00000000
00000000
00001000
00000100
,
00000001
00001000
00010000
10000000
,
00010000
00100000
00001000
00010000
,
00011000
00000000
00000000
00101000
00000000
00000000
01001000
00000000
,
00000000
00000000
00100000
10000000
,
20200000
00000000
00300000
00020000
,
00000000
00030000
02000000
33000000
,
10010000
00000000
00000000
01010000
00000000
00000000
01001000
00000000
,
00000000
00000000
00010000
00000100
,
00020200
00000000
00000300
00000020
,
00000000
00000030
00002000
00033000
,
00011000
00001000
01000000
00010000
,
10000000
10000000
00100000
10000000
,
02002000
00000000
00003000
00020000
,
00000000
00030000
00200000
03300000
,
00100000
10000000
00100000
00000000
01000000
00010000
01000000
00000000
,
00001000
00010000
00001000
00000000
00010000
00000100
00010000
00001000
,
02000000
00000000
00000000
00100000
00000000
00000000
03100000
00000000
,
20000000
00000000
00000000
00010000
00000000
00000000
30010000
00000000
,
00110000
00000000
00000000
00000000
,
00000010
00000000
00001000
00000000
00000001
00000100
00000000
00000001
,
00000100
00000010
00001000
00000000
,
01000000
00000000
00010000
01000000
00010000
01000000
00000000
00100000
,
10000000
00010000
10000000
00000000
,
00010000
00000000
01000000
00000000
00001000
00010000
00000000
00010000
,
00000100
00000000
00000100
00010000
00000000
00010000
00000100
00000000
,
00020200
00000000
00000300
00000020
,
00000000
00000030
00002000
00033000
,
00011000
00000000
00001000
00000000
01000000
00010000
00000000
00010000
,
01000000
01000000
00100000
10000000
,
02020000
00000000
03000000
00200000
,
00000000
00300000
20000000
30030000
,
10010000
00000000
10000000
00000000
00010000
01000000
00000000
01000000
,
00010000
00000000
00010000
00100000
00000000
00100000
00001000
00000000
,
00022000
00000000
00003000
00000020
,
00000000
00000030
00002000
00033000
,
00012000
00000000
00000000
00200000
00000000
00000000
00000000
00000000
,
00303000
00000000
00000000
10010000
,
02020000
00000000
03000000
20000000
,
00000000
30000000
01030000
01010000
,
00201000
00000000
00000000
00002000
00000000
00000000
00000000
00000000
,
00303000
00000000
00000000
00001001
,
00001020
00000000
00000000
00010030
00000000
00000000
00022000
00000000
,
00000000
00030000
00103000
00101000
,
02001000
00000000
00000000
00002000
00000000
00000000
00000000
00000000
,
03003000
00000000
00000000
00001001
,
00020020
00000000
00000030
00000200
,
00000000
00030300
00010000
00010100
,
00101000
00000000
00001000
00000000
01000000
00010000
00000000
00010000
,
10000000
00000000
10000000
00010000
00000000
00010000
01000000
00010000
,
02020000
03030000
00202000
00303000
,
00020200
00030300
00002020
00003030
,
00001001
00000000
00000001
00000000
00000000
00001000
00000000
00001000
,
00000010
00000000
00001000
00000000
00000000
00000100
00000000
00010000
,
00001000
00000000
00100000
00000000
00000000
00010000
00000000
10000000
,
10010000
00000000
01010000
00000000
10100000
00000000
10000000
00010000
,
02000000
00000000
03100000
00000000
00000000
10000000
00000000
00010000
,
00100000
00000000
00001000
00000000
00000000
00010000
00000000
00000100
,
00001000
00000000
00000010
00000000
00000000
00001000
00000000
00000001
,
00001001
00001010
00010100
00010010
,
00000010
00010000
00001000
01000000
,
00100000
10000000
01000000
00010000
,
01000000
00100000
00001000
00010000
,
00000100
00000001
00000100
00001000
,
00000001
00000010
00000001
00000010
00000100
00001000
00000100
00001000
,
00000010
00010000
00000010
00010000
00001000
00100000
00001000
00100000
,
00001000
00010000
00001000
00010000
00001000
00010000
00001000
00010000
00001000
00010000
00001000
00010000
,
00001000
00010000
00001000
00010000
00001000
00010000
00001000
00010000
00001000
00010000
00001000
00010000
,
00001000
00000000
00100000
00000000
00000000
00010000
00000000
00000000
10000000
00000000
00000000
00010000
00000000
00000000
00100000
00000000
,
00000000
00000000
00001000
00000000
00000000
00010000
00000000
00000000
00000010
00000000
00000000
00000100
00000000
00000000
00000001
00000000
,
00002002
00000000
00000000
00000000
,
00000000
00000000
00000000
00000000
,
00000000
00000000
00000000
00003003
00000000
00000000
00000000
00000000
;
