#TITLE:Matt Silver;
#SUBTITLE:;
#ARTIST:Remo-con;
#TITLETRANSLIT:;
#SUBTITLETRANSLIT:;
#ARTISTTRANSLIT:;
#GENRE:;
#CREDIT:;
#MUSIC:Matt Silver.ogg;
#BANNER:;
#BACKGROUND:;
#CDTITLE:;
#SAMPLESTART:60.838;
#SAMPLELENGTH:13.151;
#SELECTABLE:YES;
#OFFSET:-0.016;
#BPMS:0.000=146.000;
#STOPS:159.750=1.233;
#ORIGIN:;
#PREVIEWVID:;
#JACKET:;
#CDIMAGE:;
#DISCIMAGE:;
#BGCHANGES:;
#FGCHANGES:;

//--------------- dance-single - ----------------
#NOTES:
     dance-single:
     :
     Beginner:
     3:
     0,0,0,0,0:
0000
0000
0000
0000
,
0000
0000
0000
0000
,
0000
0000
0000
0000
0000
0000
0000
0000
0000
0000
0000
0000
0000
1001
0000
0000
,
0000
0000
0000
0000
,
0000
0000
0000
0000
,
1000
0000
0001
0000
,
0100
0000
0010
0000
,
1000
0000
0100
0000
,
0010
0000
0001
0000
,
1001
0000
1000
0000
,
0001
0000
0100
0000
,
0000
0000
0010
0000
,
1000
0000
0001
0000
,
1001
0000
1000
0000
,
0010
0000
0100
0000
,
0001
0000
0010
0000
,
0100
0000
1000
0000
,
1001
0000
0000
0000
,
0001
0000
0100
0000
,
0001
0000
1000
0000
,
0010
0000
0000
0000
,
0100
0000
0001
0000
,
0010
0000
0100
0000
,
1000
0000
0001
0000
,
1000
0000
0000
0000
,
1001
0000
0001
0000
,
0100
0000
0010
0000
,
1000
0000
0100
0000
,
0010
0000
0001
0000
,
0100
0000
0001
0000
,
0010
0000
0100
0000
,
1000
0000
0001
0000
,
0010
0000
0001
0000
,
1001
0000
0000
0000
,
1000
0000
0000
0000
,
0001
0000
0000
0000
,
0100
0000
0000
0000
,
0020
0000
0030
0000
,
2000
0000
3000
0000
,
0002
0000
0000
0000
0000
0000
0000
0000
0000
0000
0000
0000
0000
0000
0000
0003
,
0000
2000
0000
3000
,
0000
0002
0000
0003
,
0000
0200
0000
0300
,
0000
0020
0000
0030
,
0000
1000
0000
1000
,
0000
0001
0000
0001
,
0000
0100
0000
0010
,
0000
1000
0000
0001
,
0000
0100
0100
0100
,
0100
0100
0100
0100
,
0100
0100
0100
0100
,
0100
0100
0100
0100
,
0100
0100
0000
0001
,
0000
1000
0000
0010
,
0000
0100
0000
0000
,
0000
0001
0000
0000
,
0000
1001
0000
1000
,
0000
0010
0000
0100
,
0000
0001
0000
0010
,
0000
0100
0000
1000
,
0000
0001
0000
1001
,
0000
1000
0000
1001
,
0000
0001
0000
1001
,
0000
0100
0000
0000
,
0000
1001
0000
1000
,
0000
0002
0000
0000
,
0003
0100
0000
0010
,
0000
1000
0000
0000
,
0000
1001
0000
0001
,
0000
0002
0000
0000
,
0003
1000
0000
0010
,
0000
0100
0000
0000
,
0000
1001
0000
0000
;

//--------------- dance-single - ----------------
#NOTES:
     dance-single:
     :
     Easy:
     8:
     0,0,0,0,0:
0000
0000
0000
0000
,
0000
0000
0000
0000
,
0000
0000
0000
0000
0000
0000
0000
0000
0000
0000
0000
0000
0000
1001
0000
0000
,
0000
0000
0000
0000
,
0000
0000
0000
0000
,
1001
1000
0010
0100
,
0001
0010
0100
1000
,
0001
0010
0001
0100
,
0010
1000
0100
0010
,
0011
0001
0100
0001
,
0010
0001
0100
0010
,
1000
0100
1000
0001
,
0010
0000
0000
0000
0100
0000
0000
0000
1000
0000
0000
0001
0000
0000
0000
0000
,
1001
1000
0010
0100
,
0001
0010
0100
1000
,
0001
0100
0001
0010
,
0001
0100
0010
1000
,
1001
0001
0010
0001
,
0100
0100
0010
0010
,
1000
0100
0001
0100
,
1000
0000
0000
0010
0000
0000
0000
0000
0100
0000
0000
0000
0001
0000
0000
0000
,
1001
1000
0010
0100
,
0001
0001
1000
1000
,
0001
0010
1000
0010
,
0100
0000
1000
0000
,
1001
0001
0101
0100
,
0110
0010
1010
1000
,
1001
0001
0101
0100
,
0110
0000
0000
0000
0010
0000
0000
0000
1010
0000
0000
0000
0000
0001
0000
0000
,
1000
0100
1001
0010
,
1001
0100
1001
0010
,
1001
1000
0110
0001
,
0110
1000
1001
0001
,
1000
0000
0000
0010
0000
0000
0000
0010
0000
0000
0000
0100
0000
0000
0000
0000
,
0101
0001
0010
0001
,
1000
0000
0000
0100
0000
0000
0000
1000
0000
0000
0000
0010
0000
0000
0000
0000
,
0100
0000
0001
1000
,
0001
1000
0010
0100
,
0001
0010
0100
1000
,
0001
0000
0000
0000
1000
0000
0000
0000
0010
0000
0000
0000
2000
0000
0000
3000
,
0000
0002
0000
0103
,
0000
0010
0000
0010
0000
0000
2000
0000
0000
0000
0000
0000
0001
0000
0000
0000
,
0000
3100
0000
0000
0000
0000
0020
0000
0000
0000
0000
0000
0001
0000
0000
0000
,
0000
0130
0000
0100
0000
0000
2000
0000
0000
0000
0000
0000
3001
0000
0000
0000
,
0000
1001
0000
0000
0010
0000
0000
0000
0010
0000
0000
0000
0100
0000
0000
0000
,
0100
0001
0001
1000
,
1000
0001
0001
0100
,
0100
0010
0000
1000
,
0001
0100
0100
0100
,
0100
0100
0100
0100
,
0100
0100
0100
0100
,
0100
0100
0100
0100
,
0100
0020
2030
3200
,
0320
0032
0203
0320
,
2030
3002
0003
0000
,
0000
0000
0000
0000
,
0000
1001
0101
0011
,
0101
0110
1010
1001
,
0011
1100
1001
1001
,
1000
1001
0101
0011
,
0001
0100
0101
0011
,
0101
0110
1010
1100
,
1001
0011
0101
0100
,
0110
0000
0000
0000
0010
0000
0000
0000
1000
0000
0000
0001
0000
0001
0000
0000
,
1000
1001
0001
0100
,
0010
0200
0000
0000
,
0300
0001
1000
0100
,
0001
0000
0000
0000
0100
0000
0000
0000
0000
1000
0000
0001
0000
1000
0000
0001
,
0000
1000
0000
0000
0010
0000
0000
0000
0100
0000
0000
0000
0001
0000
0000
0000
,
0010
0002
0000
0000
,
0003
1000
0001
0010
,
0001
0000
0000
0000
0100
0000
0000
0000
0010
0000
0000
0000
0000
1000
0000
0001
,
0000
1000
0000
0001
0000
0000
0000
0000
0000
0000
0000
0000
0000
0000
0000
0000
;

//--------------- dance-single - XO- ----------------
#NOTES:
     dance-single:
     XO-:
     Medium:
     11:
     1.314762,1.272649,1.207938,0.558774,2.407659,1120,973,147,68,143,5,2,0,0,1.314762,1.272649,1.207938,0.558774,2.407659,1120,973,147,68,143,5,2,0,0:
0000
0000
0000
0000
,
0000
0000
0000
0000
,
0000
0000
0000
0000
0000
0000
0000
0000
0000
0000
0000
0000
0000
1001
0000
0000
,
0000
1000
0001
0100
,
0010
0000
0000
0000
1000
0000
0000
0000
0100
0000
0010
0000
0000
0001
0000
0000
,
1000
0000
0001
0100
1000
0000
0100
0001
,
0100
0000
0001
0010
1000
0000
0010
0001
,
0100
0000
0010
1000
0100
0000
0010
0001
,
0100
0000
0000
0000
0010
0000
1000
0001
0000
0000
1000
0001
0000
0000
1000
0000
,
1001
0001
0101
0100
,
0110
0000
0010
0000
1010
0000
1000
0001
,
1000
0010
0110
0100
,
0101
0000
0000
0000
0001
0000
0000
0000
1000
0000
0000
0001
0000
0100
0000
0000
,
0110
0010
1000
0001
,
0100
0000
0001
0000
0010
0000
0100
1000
,
0001
0000
0000
0000
0100
0010
0000
0000
0100
0000
0000
0000
0001
1000
0000
0000
,
0010
0000
0000
1000
0010
0000
0000
0100
0000
0000
0001
0000
0000
0000
0001
0000
,
1000
0000
0001
1000
0001
0000
0100
0010
,
0100
0000
0001
0010
0100
0000
1000
0100
,
0010
0000
0001
0100
1000
0000
0100
0010
,
0100
0000
0000
0001
0000
0000
0000
1000
0000
0001
0000
0000
1000
0100
0000
0000
,
0010
0001
0010
0000
0001
0100
0001
0000
,
1000
0010
1000
0000
0001
0010
0100
0000
,
1000
0100
0010
0000
0100
0001
0100
0000
,
1000
0100
0001
0000
0010
0001
1000
0000
,
0001
1000
0001
0000
0011
0000
1100
0000
,
1000
0010
1000
0000
1010
0000
0101
0000
,
0001
0010
0100
0000
0110
0000
1001
0000
,
1000
0010
0100
0000
0101
0000
0001
1000
,
0200
0000
1300
0010
1000
0000
1000
0001
,
1000
0000
0001
1000
0100
0000
0100
0010
,
0001
0000
1000
0010
0100
0000
0100
0010
,
1000
0000
0001
0010
0100
1000
0010
0100
,
0001
0000
1000
0000
0000
0100
0000
0010
0000
0100
0000
0010
0000
0000
0001
0000
,
1000
0000
0000
0010
0000
0000
1000
0000
0000
0100
0000
0000
0010
0000
0001
0000
,
1000
0000
0010
0000
0000
0001
0000
0010
0000
0100
0000
0010
0000
0000
1000
0000
,
0001
0000
1000
0000
0000
0100
0000
0100
0000
0000
0010
0000
0000
0001
0000
0000
,
1000
1000
0100
0100
,
0010
0010
0001
0100
,
0010
0000
0000
0000
1000
0000
0000
0000
0100
0000
0000
0000
0020
0000
0000
0M30
,
0000
0000
0000
0000
1000
0000
0002
0000
0000
0010
0000
0000
1003
0000
0200
0000
,
0000
0010
0000
0310
0000
0000
0002
0000
0000
1000
0000
0000
0103
0000
0001
0000
,
0000
1000
0000
0000
0000
0000
0002
0000
0000
1000
0000
0000
0103
0000
0020
0000
,
0000
0100
0000
0130
0000
0000
0020
0000
0000
1000
0000
0000
0130
0000
0001
0000
,
0000
1001
0000
0000
1000
0000
0100
0000
1000
0000
0000
0000
0010
0000
1000
0000
,
0010
0000
0100
0001
0100
0000
0001
1000
,
0001
0000
1000
0100
0010
0001
1000
0010
,
0100
0001
1000
0000
0000
0000
0001
0000
,
0020
0000
0031
1000
0001
1000
0001
1000
,
0001
1000
0100
0010
0100
0010
0100
0010
,
0100
0010
0001
0100
0010
1000
0001
0010
,
0100
1000
0001
0100
0010
0100
0001
0100
,
0010
1000
0200
0000
0320
0000
0032
0000
,
2003
3020
0230
0302
,
2003
3001
0010
0100
,
1000
0000
0000
0000
0001
0000
0000
1000
0000
0100
0000
1000
0000
0000
0000
0000
,
0001
0000
1001
0000
1000
0100
0010
0000
,
0100
0000
1100
0000
1000
0010
0100
0000
,
0001
0000
1001
0000
1000
0010
0100
0001
,
0010
0000
0001
0100
0010
0000
1010
0000
,
1000
0001
0000
0000
1000
0000
0100
0000
0010
0000
0000
0000
0001
0000
1000
0000
,
0001
0000
1000
0100
1000
0000
0001
0100
,
0010
0000
1000
0010
0100
0000
0001
0100
,
0010
0000
0000
0000
1000
0000
0000
0000
0001
0000
0000
0010
0000
0100
0000
0000
,
1000
0000
0000
0000
1001
0000
0000
0001
0000
1000
0000
0001
0000
0010
0000
0000
,
0100
0000
0000
1000
0001
1000
0001
1000
0001
1000
0001
1000
,
0010
0000
0000
0000
1000
0000
0000
0100
0000
0010
0000
0100
0000
1000
0000
0001
,
0000
0000
0000
0000
1000
0000
0001
0000
0000
0010
0000
0010
0000
0010
0000
0010
,
0000
0010
0000
0000
0001
0000
0000
1000
0000
0010
0000
0100
0000
0001
0000
1000
,
0000
0000
0000
0001
0010
0001
0010
0001
0010
0001
0010
0100
,
1000
0000
0000
0000
0001
0000
0000
1000
0000
0100
0000
0010
0000
0100
0000
1000
,
0000
0000
0000
0000
0001
0000
0000
0100
0000
0010
0000
1000
0000
0100
0000
0100
,
0000
0100
0000
2002
0000
0000
0000
0000
3003
0000
0000
0000
0000
0000
0000
0000
;

//--------------- dance-single - SJ+ DS XO ----------------
#NOTES:
     dance-single:
     SJ+ DS XO:
     Hard:
     15:
     1.065897,1.121143,1.257241,0.36156,1.783146,908,755,153,44,101,5,2,0,0,1.065897,1.121143,1.257241,0.36156,1.783146,908,755,153,44,101,5,2,0,0:
0000
0000
0000
0000
,
0000
0000
0000
0000
,
0000
0000
0000
0000
0000
0000
0000
0000
0000
0000
0000
0000
0000
1001
0000
0000
,
0000
0000
0000
1000
0100
0000
0000
0010
0001
0000
0000
0100
0010
0000
0000
1000
,
0001
0000
0000
1000
0100
0000
0000
0010
0001
0000
0100
0010
0000
1000
0000
0000
,
0001
0100
0001
0000
0010
0000
0010
0000
0100
1000
0100
0000
0010
0000
0010
0000
,
0001
1000
0001
0000
0100
0000
0100
0000
0010
1000
0010
0000
1000
0000
1000
0000
,
0001
0010
0100
0000
1000
0000
0001
0000
1000
0100
0010
0000
0001
0000
1000
0000
,
0001
0100
0010
0000
1000
0100
0010
0001
1000
0010
0100
0001
1000
0100
0010
0001
,
1000
0000
0000
1000
0100
0000
0000
0100
0010
0000
0000
0010
0001
0000
0000
0001
,
0100
0000
0000
0100
0010
0000
0000
0010
1000
0000
0000
1000
0001
0000
0100
0010
,
0100
0000
0000
0001
0100
0000
0000
0100
0010
0000
0000
0010
1000
0000
0000
1000
,
0100
0000
0000
0100
0010
0000
0000
0010
0001
0000
0000
0101
0000
0100
0010
1000
,
0001
0000
0000
0010
0001
0000
0000
0100
0001
0000
0000
0010
0001
0000
0000
1000
,
0100
0000
0000
1000
0010
0000
0000
1000
0100
0000
0010
0000
0001
0000
1000
0010
,
0100
0000
0000
0001
0010
0000
0000
0100
1000
0000
0000
0001
0010
0000
0000
0100
,
0010
0000
0000
0001
1000
0000
0001
0100
0000
0000
0010
0000
1000
0001
1000
0001
,
1000
0000
0100
0010
0000
0100
0000
0001
0000
0100
0000
1000
0001
0000
0100
0010
,
1000
0000
0001
0010
0001
0000
1000
0100
0010
0000
0001
0010
0100
0000
1000
0001
,
1000
0000
0010
0001
0000
0010
0000
0100
0000
0010
0000
1000
0001
0000
0010
0100
,
1000
0000
0001
0100
0010
0000
1000
0001
0000
1001
0000
0000
1000
0100
0000
0000
,
0011
0000
0001
0100
0000
0010
0000
0001
0000
0010
0000
1000
0001
0000
0100
0010
,
0100
0000
0001
1000
0001
0000
1000
0100
1000
0000
0001
0100
0010
1000
0010
1000
,
0001
0000
1000
0010
0000
0100
0000
1000
0000
0100
0000
0001
1000
0000
0001
0100
,
0010
0000
1000
0000
0001
0000
0100
0010
0100
0001
0000
0001
1000
0000
0001
0000
,
1001
1000
0010
0100
0110
0010
1000
0100
,
1100
1000
0100
0010
0011
0001
0100
0010
,
1010
1000
0001
0010
0011
0001
0100
0010
,
1010
0000
1000
0000
0001
0000
0100
0000
0110
0000
0010
0000
1000
0001
0100
0000
,
0020
0030
1010
1000
0100
0001
0101
0100
,
1000
0001
0101
0100
1000
0100
1100
0100
,
0010
1000
1001
0001
0100
0010
0110
0100
,
0001
0000
0001
0000
1000
0010
0100
0000
0001
0010
0001
0000
1000
0100
1000
0000
,
0001
0000
1000
0010
0000
0110
0000
0100
0001
0000
0000
0011
0000
0000
0010
0000
,
0100
1000
0000
0100
0000
0010
0001
0010
0000
0001
0000
0000
0100
0010
1000
0001
,
1000
0000
0100
0010
0000
0000
0011
0000
0000
0001
0000
1000
0000
0001
0010
0100
,
1000
0000
0001
0000
0100
0010
0000
1000
0010
0000
0100
0001
0000
0010
0000
0001
,
1000
0000
0001
0100
0001
0000
0100
0010
0100
0000
0010
1000
0010
0000
1000
0100
,
0010
0000
0001
0010
0100
0000
1000
0000
0001
0100
0001
0000
1000
0000
0001
0010
,
0001
0000
1000
0010
0000
0001
0010
0000
0100
0010
0000
1000
0010
0100
0010
M100
,
0000
0000
0000
0000
0002
0000
1003
0000
0010
0100
0000
0001
1000
0010
2000
0000
,
0000
0100
0000
3001
0000
1000
0010
0000
0000
0100
0000
0001
0010
0100
2000
0000
,
0000
3001
0000
0000
0000
1000
0020
0000
0000
0130
0000
0001
0100
0010
0200
0000
,
0000
0001
0000
0310
0000
0000
2000
0000
0000
3001
0000
0100
0010
1000
0010
0000
,
0000
0010
1000
0000
0001
0100
0001
0000
0100
0010
0000
1000
0100
0010
0002
0000
,
0000
1000
0000
0013
0000
0000
0001
0000
0000
0100
0000
0000
0010
1000
0010
0000
,
0000
0100
0000
0000
0101
0000
0001
0000
0100
0000
0100
0000
0010
0000
0010
0000
,
1000
0000
1000
0000
0001
0000
1000
0010
0000
0100
0001
0000
1000
0100
0020
0000
,
0000
0001
0000
0000
0031
1000
0001
1000
0001
1000
0001
1000
0001
1000
0001
1000
,
0001
1000
0001
1000
0010
0100
0010
0100
0010
0100
0010
0100
0010
0100
0010
0100
,
0010
0100
0010
0100
0001
1000
0001
0000
0100
0000
0010
0000
1000
0100
1000
0000
,
0001
0000
0010
0000
0100
1000
0100
0000
0010
0000
0001
0000
1000
0010
1000
0000
,
0001
0200
0000
0000
0310
1000
0010
0000
1000
0100
1000
0000
0001
0010
0001
0000
,
1000
0001
1000
0000
0001
0010
0100
0000
1000
0100
0010
0000
0001
0100
0010
0000
,
1000
0010
0100
0000
0001
0000
1000
0100
0000
0001
0000
0100
0000
0010
0000
0100
,
0000
1000
0010
0000
1000
0000
0001
0100
0000
0001
0000
0010
0001
0000
0100
0000
,
0010
1000
1001
0001
0010
0100
1100
1000
,
0001
0100
0110
0010
1000
0100
1100
1000
,
0001
0010
0110
0100
1000
0001
0101
0100
,
0001
0010
0011
0001
0010
0100
1100
1000
,
0001
0100
0000
0000
0001
0000
1000
0000
0100
0000
0001
0000
0101
0000
0100
0000
,
1000
0001
1001
1000
0010
0001
0011
0010
,
0100
0000
0010
0000
1010
0000
1000
0000
0001
0000
0100
0000
0001
0010
0001
0000
,
1000
0000
0001
0000
0100
0010
0100
0010
1000
0000
0001
0100
0000
0010
0000
0000
,
0200
0000
0000
0000
0301
0000
0100
1000
0000
0100
0000
0010
0000
0100
0000
0001
,
1000
0000
0000
0100
0000
0000
0010
0000
0001
0000
0010
0000
0100
0000
1000
0000
0001
0000
1000
0000
0010
0000
0100
0000
,
0001
0000
1000
0000
0001
0000
1000
0001
0000
0100
0000
1000
0000
0100
0000
0010
,
0100
0000
0001
0000
0010
0000
0001
0000
1000
0001
0000
1100
0000
0011
0000
1001
,
0000
1001
0000
0001
0100
0000
0010
0001
0000
0010
0000
0100
0000
0001
0000
1000
,
0010
0000
0000
0100
0000
0000
0001
0000
0010
0000
0100
0000
1000
0000
0100
0000
0010
0000
0001
0000
0100
0000
0001
0000
,
1000
0000
0010
0000
1000
0000
0001
0100
0000
0010
0000
0001
0000
0010
0000
0100
,
0010
0000
1000
0000
0001
0000
0100
0010
0000
0100
0000
0010
0000
1010
0000
1100
,
0000
0011
0000
2002
0000
0000
0000
0000
3003
0000
0000
0000
0000
0000
0000
0000
;

//--------------- dance-single - FS+ BR+ DS XO ----------------
#NOTES:
     dance-single:
     FS+ BR+ DS XO:
     Challenge:
     15:
     0,0,0,0,0:
0000
0000
0000
0000
,
0000
0000
0000
0000
,
0000
0000
0000
0000
0000
0000
0000
0000
0000
0000
0000
0000
0000
1001
0000
0000
,
0000
0000
0000
1000
0100
0000
0000
0010
0001
0000
0000
0100
0010
0000
0000
1000
,
0001
0000
0000
1000
0100
0000
0000
0010
0001
0000
0100
0010
0000
1000
0000
0000
,
0001
0100
0001
0000
0100
00M0
0100
0000
1000
0001
1000
0000
0010
0M00
0010
0000
,
0001
1000
0001
0000
0100
00M0
0100
0000
1000
0001
1000
0000
0100
00M0
0100
0000
,
0001
0010
0100
0000
1000
0000
0001
0000
1000
0100
0010
0000
0001
0000
1000
0000
,
0001
0100
0010
0000
1000
0100
0010
0001
1000
0010
0100
0001
1000
0100
0010
0001
,
1000
0000
0000
1000
0100
0000
0000
0100
0010
0000
0000
0010
0001
0000
0000
0001
,
0100
0000
0000
0100
0010
0000
0000
0010
1000
0000
0000
1000
0001
0000
0100
0010
,
0100
0000
0000
0001
0100
0000
0000
0100
0010
0000
0000
0010
1000
0000
0000
1000
,
0100
0000
0000
0100
0010
0000
0000
0010
0001
0000
0000
0101
0000
1000
0001
0000
,
1010
0000
0000
0001
0100
0000
0000
0010
1000
0000
0000
0010
1000
0000
0000
1000
,
0100
0000
0000
1000
0010
0000
0000
1000
0100
0000
0010
0000
0001
0000
1000
0010
,
0100
0000
0000
0001
0010
0000
0000
0100
1000
0000
0000
0001
0010
0000
0000
0100
,
0010
0000
0000
0001
1000
0000
0001
0100
0000
0000
0010
0000
1000
0001
1000
0001
,
1000
0000
0100
0010
0000
0100
0000
0001
0000
0100
0000
1000
0001
0000
0100
0010
,
1000
0000
0001
0010
0001
0000
1000
0100
0010
0000
0001
0010
0100
0000
1000
0001
,
1000
0000
0010
0001
0000
0010
0000
0100
0000
0010
0000
1000
0001
0000
0010
0100
,
1000
0000
0001
0100
0010
0000
1000
0001
0000
1001
0000
0000
1000
0001
0000
0000
,
1000
0000
0001
0100
0000
0010
0000
0001
0000
0010
0000
1000
0001
0000
0100
0010
,
0100
0000
0001
1000
0001
0000
1000
0100
1000
0000
0001
0100
0010
1000
0010
1000
,
0001
0000
1000
0010
0000
0100
0000
1000
0000
0100
0000
0001
1000
0000
0001
0100
,
0010
0000
1000
0000
0001
0000
0100
0010
0100
0001
0000
0001
1000
0000
0001
0000
,
1100
0001
1000
0001
1010
0001
1000
0010
,
1100
0001
0010
0100
1010
0100
0010
0001
,
1100
0001
1000
0001
1010
0100
0010
0001
,
1100
0000
0001
0000
0100
0000
0010
0000
1100
0000
0001
0000
1000
0001
0100
0000
,
0100
0000
0011
1000
0100
0100
0011
1000
,
0001
0001
1010
0001
1000
1000
0011
1000
,
0001
0001
1010
0001
0100
0100
0011
1000
,
0001
0000
1000
0000
0001
0010
0100
0000
1000
0010
1000
0000
0001
0100
0001
0000
,
1000
0000
0001
0100
00M0
0100
0000
1000
0001
0000
0000
1100
0000
0000
0010
0000
,
1000
0001
0000
0100
0000
0010
1000
0010
0000
1000
0000
0000
0100
0010
0001
1000
,
0001
0000
0100
0010
0000
0000
1100
0000
0000
0001
0000
0001
0000
1000
0010
0100
,
0001
0000
1000
0000
0100
0010
0000
0001
0010
0000
0100
1000
0000
0010
0000
1000
,
0001
0000
1000
0100
1000
0000
0100
0010
0100
0000
0010
0001
0010
0000
0001
0100
,
0010
0000
1000
0010
0100
0000
0001
0000
1000
0100
1000
0000
0001
0000
1000
0010
,
1000
0000
0001
0010
0000
1000
0010
0000
0100
0010
0000
0001
0010
0100
0010
010M
,
0000
0000
0000
0000
2000
0000
3001
0000
0010
0100
0000
1000
0001
0010
0002
0000
,
0000
0100
0000
1003
0000
0001
0010
0000
0000
0100
0000
1000
0010
0100
0002
0000
,
0000
1003
0000
0000
0000
0001
0020
0000
0000
0130
0000
1000
0100
0010
0200
0000
,
0000
1000
0000
0310
0000
0000
0002
0000
0000
1003
0000
0100
0010
0001
0010
0000
,
0000
0010
0001
0000
1000
0100
1000
0000
0100
0010
0000
0001
0100
0010
2000
0000
,
0000
0001
0000
3010
0000
0000
1000
0000
0000
0100
0000
0000
0010
0001
0010
0000
,
0000
0100
0000
0000
1100
0000
1000
0000
0100
0000
0100
0000
0010
0000
0010
0000
,
0001
0000
0001
0000
1000
0000
0001
0010
0000
0100
1000
0000
0001
0100
0020
0000
,
0000
1000
0000
0000
0130
0000
010M
0000
0100
0000
0100
0000
0100
0000
0100
0000
,
0100
010M
0100
0100
0100
0100
0100
0100
,
0100
010M
0100
0100
0100
0100
0100
0100
,
0100
010M
0100
0100
0100
0100
0100
0100
,
0100
1000
0001
0000
0010
0001
0010
0000
0001
0100
0001
0000
1000
0010
1000
0000
,
0001
1000
0001
0000
1000
0010
0100
0000
0001
0100
0010
0000
1000
0100
0010
0000
,
0001
0010
0100
0000
1000
0000
0001
0100
0000
1000
0000
0100
0000
0010
0000
0100
,
0000
0001
0010
0000
0001
0000
1000
0100
0000
1000
0000
0010
1000
0000
0001
0000
,
1000
0000
0011
0100
0010
0100
0011
1000
,
0100
0010
0101
0010
0001
1000
0011
0100
,
0001
1000
0101
0010
0100
1000
0011
1000
,
0001
0100
0011
1000
0001
1000
0101
1000
,
0001
1000
0000
0000
0001
0000
1000
0000
0101
0000
1000
0000
0001
0000
0001
0000
,
1010
0001
1000
1000
0011
1000
0100
0100
,
1010
0000
0001
0000
0100
0000
0100
0000
0011
0000
0100
0000
0001
0010
0001
0000
,
1000
0000
0001
0000
0100
0010
0100
0010
1000
0000
0001
0100
0000
0010
0000
0000
,
0200
0000
0000
0000
0301
0000
0100
1000
0000
0100
0000
0010
0000
0100
0000
0001
,
1000
0000
0000
0100
0000
0000
1000
0000
0100
0000
0001
0000
0100
0000
1000
0000
0001
0000
1000
0000
0010
0000
0100
0000
,
0001
0000
1000
0000
0001
0000
1000
0001
0000
0100
0000
1000
0000
0100
0000
0010
,
0100
0000
0001
0000
0010
0000
0001
0000
0000
1100
0000
0011
0000
1100
0000
0011
,
0000
1100
0000
0001
0100
0000
0010
0001
0000
0010
0000
0100
0000
0001
0000
1000
,
0010
0000
0000
0100
0000
0000
0001
0000
1000
0000
0100
0000
0010
0000
1000
0000
0010
0000
0001
0000
0100
0000
0001
0000
,
1000
0000
0010
0000
1000
0000
0001
0100
0000
0010
0000
0001
0000
0010
0000
0100
,
0010
0000
1000
0000
0001
0000
0100
0010
0000
0100
0000
0001
0000
1010
0000
0101
,
0000
1010
0000
0102
0000
0000
0000
0000
0003
0000
0000
0000
0000
0000
0000
0000
;
