#TITLE:Maria's Song;
#SUBTITLE:;
#ARTIST:Shroomer Starboy;
#TITLETRANSLIT:;
#SUBTITLETRANSLIT:;
#ARTISTTRANSLIT:;
#GENRE:;
#CREDIT:Braeden47;
#MUSIC:Maria's Song.ogg;
#BANNER:;
#BACKGROUND:;
#CDTITLE:;
#SAMPLESTART:49.880;
#SAMPLELENGTH:12.000;
#SELECTABLE:YES;
#OFFSET:-0.020;
#BPMS:0.000=77.000;
#STOPS:;
#BGCHANGES:;
#FGCHANGES:;

//--------------- dance-single - ----------------
#NOTES:
     dance-single:
     :
     Beginner:
     1:
     0,0,0,0,0:
0000
0000
0000
0000
,
1000
0000
0001
0000
,
1000
0000
0010
0000
,
0100
0000
0001
0000
,
0020
0000
0030
0000
,
0100
0000
0100
0000
,
2000
0000
3000
0000
,
0001
0000
0010
0000
,
0002
0000
0003
0000
,
2000
0000
3000
0000
,
0020
0000
0030
0000
,
0100
0000
0001
0000
,
1000
0000
0010
0000
,
1000
0000
0001
0000
,
0100
0000
0010
0000
,
1000
0000
0001
0000
,
1001
0000
0000
0000
,
0010
0000
0000
0000
,
0100
0000
0000
0000
,
0010
0000
0000
0000
,
1000
0000
0001
0000
,
0100
0000
0001
0000
,
1000
0000
0000
0000
,
0010
0000
0000
0000
,
1001
0000
0000
0000
,
0001
0000
0000
0000
,
0100
0000
0001
0000
,
0100
0000
0010
0000
,
1000
0000
0000
0000
,
0010
0000
0000
0000
,
0100
0000
0000
0000
,
0001
0000
1000
0000
,
1001
0000
0000
0000
,
0100
0000
0000
0000
,
0001
0000
0000
0000
,
0001
0000
0000
0000
,
1000
0000
0100
0000
,
0010
0000
0001
0000
,
0100
0000
0010
0000
,
1000
0000
0000
0000
,
1001
0000
0000
0000
;

//--------------- dance-single - ----------------
#NOTES:
     dance-single:
     :
     Easy:
     3:
     0.122,0.142,0.008,0.078,0:
0000
0000
0000
0000
,
1000
0000
0010
0000
,
0100
0000
0001
0000
,
0100
0000
0010
0000
,
2000
0000
3002
0000
,
0023
0000
0230
0000
,
2300
0000
3020
0000
,
0230
0000
0302
0000
,
0103
0010
1000
0000
,
1000
0010
0100
0000
,
0001
0000
0010
0000
,
0100
1000
0100
1000
,
0010
0000
0100
0000
,
0001
0000
0100
0000
,
0010
0000
1000
0000
,
0001
0010
0100
1000
,
0001
0010
0100
0000
,
1000
0010
0100
0000
,
0001
0010
0000
0000
,
0100
1000
0000
0000
,
0001
0000
0010
0000
,
0010
0100
0010
0001
,
0010
0100
1000
0000
,
0001
0000
0010
0000
,
0100
0000
1000
0000
,
0001
0000
0100
0000
,
0001
0000
1000
0001
,
0100
0010
1000
0000
,
0010
0000
0100
0000
,
0001
0000
0100
0000
,
0010
0000
1000
0100
,
0010
0001
1000
0000
,
0001
0010
0100
0000
,
1000
0010
0100
0000
,
0001
0010
0000
0000
,
0100
1000
0000
0000
,
0001
0000
0010
0000
,
0010
0100
1000
0000
,
0001
0010
0100
0000
,
0001
0000
1000
0000
,
2002
3003
0000
0000
;

//--------------- dance-single - ----------------
#NOTES:
     dance-single:
     :
     Medium:
     5:
     0.215,0.22,0.055,0.321,0:
0000
0000
0000
0000
,
1000
0100
0010
0001
,
0100
0010
1000
0010
,
0100
0001
0100
0010
,
2000
0000
3200
0000
,
0320
0000
0000
0100
0230
0000
0000
0000
,
0320
0000
0032
0000
,
0203
0000
0000
0010
0320
0000
0000
0000
,
1030
0000
0001
0100
0020
0000
0000
0000
,
1030
0000
0010
0100
0002
0000
0000
0000
,
0023
0000
0230
0000
,
1300
1100
0110
0011
,
0001
0000
0010
0100
2000
0000
0000
0000
,
3010
0000
0100
0001
0100
0000
0010
0000
,
0001
0010
0100
1000
,
0001
1001
0011
0110
,
0020
0230
2300
0000
,
3020
0230
0302
0000
,
0103
0000
1000
0100
0000
0010
0000
0000
,
0002
0203
0000
0000
,
0302
0023
0230
2300
,
3001
0001
0010
0010
,
0100
0100
1000
1000
,
0010
1000
0001
0000
,
0100
0000
0001
1000
0001
0000
0010
0000
,
0001
0000
0010
0100
0010
0000
0100
0000
,
1000
0001
0001
0100
,
0100
0010
0020
0000
,
1030
0000
0001
0010
0001
0000
0010
0000
,
0100
0000
0010
0100
2000
0000
3020
0000
,
0130
0001
0001
1000
,
1000
0010
1000
0001
,
0002
1000
0103
0000
,
2000
0001
3010
0000
,
0002
0000
0103
0000
0000
0010
0000
0000
,
2000
3010
0200
0000
,
0302
0023
0230
2300
,
3002
0100
0010
1000
,
2003
0010
0100
0001
,
3010
0000
0100
0001
0010
0000
0000
0000
,
2002
3003
0000
0000
;

//--------------- dance-single - JA+ XO ----------------
#NOTES:
     dance-single:
     JA+ XO:
     Hard:
     7:
     0.322,0.285,0.07,0.43,0.031:
0000
0000
0000
0000
,
1000
0010
0020
0000
0130
0001
0002
0000
,
1003
0010
0020
0000
0130
0001
0002
0000
,
0103
0010
0020
0000
1030
0100
0200
0000
,
0310
0001
0002
0000
1003
0010
0020
0000
,
0130
0001
0001
0100
0010
1000
2000
0000
,
3001
0100
0200
0000
0301
0010
0020
0000
,
0031
0010
0010
0001
1000
0100
0200
0000
,
0320
0000
0001
0001
0031
0100
0100
0000
,
0020
0000
1000
1000
1030
0100
0100
0000
,
0200
0010
0310
0000
0020
0001
0031
0000
,
0001
0000
0010
0100
0000
0000
0100
1000
0000
0000
1000
0010
0000
0000
0010
0100
,
0001
0100
1000
0000
1000
0100
0001
0000
,
0001
0010
1000
0000
1000
0010
0001
0000
,
0001
0100
0010
1000
0001
0010
0100
1000
,
0010
0000
1000
0100
0000
0000
0010
0001
0000
0000
1000
0010
0000
0000
0100
0001
,
1000
0100
0010
0001
0020
0000
0000
0000
,
0130
1000
0100
0010
0200
0000
0000
0000
,
0310
0001
0100
0020
0000
0230
0000
0000
,
0301
0010
0100
2000
0000
0000
3000
0000
,
0011
1001
1010
0101
,
0001
0010
0100
1000
0001
0100
0010
1000
,
0001
0100
0010
1000
0002
0000
2003
0000
,
3020
0000
1030
0100
0020
0000
0000
0000
,
0032
0000
0103
0010
2000
0000
3020
0000
,
0230
0000
0301
0010
0200
0000
2300
0000
,
3020
0000
0130
0001
0100
0010
1000
0010
,
0200
0302
2003
0000
,
3200
0000
1300
0010
0200
0000
0302
0000
,
0023
0000
0130
1000
0002
0000
0203
0000
,
0302
0000
0013
0100
1000
0010
0100
0001
,
0010
0002
2003
0000
,
3001
0100
0010
1000
0200
0000
0000
0000
,
0310
0001
0010
0001
2000
0000
0000
0000
,
3010
0100
0001
0020
0000
0032
0000
0000
,
0013
0100
1000
0100
0020
0000
0000
0030
,
0110
0101
1010
0101
,
0001
0010
0100
1000
0010
0100
0001
0010
,
0100
1000
0100
0010
0002
0000
0203
0000
,
0320
0000
1030
0001
2000
0000
3000
0000
,
0220
0330
0000
0000
;

//--------------- dance-single - SJ DS+ BT XO FS ----------------
#NOTES:
     dance-single:
     SJ DS+ BT XO FS:
     Challenge:
     10:
     0.354,0.348,0.102,0.547,0.031:
0000
0000
0000
0000
,
1010
0010
0010
0000
0101
0001
0001
0000
,
1010
0010
0010
0000
0101
0001
0001
0000
,
0110
0010
0010
0000
1010
1000
1000
0000
,
0002
0100
0100
0000
1000
1000
1000
0000
,
0203
0001
0001
0010
0010
0310
2000
0000
,
3001
0100
0200
0000
0310
1000
0200
0000
,
0310
0001
0001
0100
0010
1000
0200
0000
,
0320
0001
0130
1000
0002
1000
0023
0000
,
2030
0100
3001
0100
0002
1000
0013
0000
,
0011
0001
0010
0000
1100
0100
1000
0000
,
1010
0000
1000
0010
0100
0000
0001
0100
0010
0000
1000
0100
0010
0000
0001
0010
,
0002
1000
0013
0001
2000
0001
3200
0000
,
2300
0001
3010
0100
0002
0100
2003
0000
,
3001
0001
0001
0100
1000
0100
0001
1000
,
0001
0000
0010
0100
1000
0000
0100
0010
0001
0000
0001
0100
0010
0000
1000
0001
,
2000
0200
0010
0002
0020
0000
3333
0000
,
0002
0200
0010
2000
0020
0000
3333
0000
,
0100
0010
0200
0020
0000
2000
3330
0000
,
2000
0200
0020
0002
3333
0000
0000
0000
,
2000
0200
0020
3331
,
1000
0000
0100
00M0
0100
0000
0001
0000
1000
0000
0010
0M00
0010
0000
0001
0000
,
1000
0000
0100
000M
0100
0000
0010
0000
2000
0000
0000
0000
3200
0000
0000
0000
,
2300
0000
0001
0010
3001
0000
0000
0000
,
1002
0000
0010
1000
0013
0000
0002
0000
,
2003
0000
3010
0100
0002
0000
0203
0000
,
0320
0000
0130
0001
1000
0100
0010
0001
,
0002
0200
0020
0333
,
0002
0000
1000
0010
0203
0000
0320
0000
,
2030
0000
0001
0100
3020
0000
2030
0000
,
3010
0000
1000
0100
0001
0100
1000
0001
,
0200
0020
2000
3330
,
2000
0200
0010
0002
0020
0000
3333
0000
,
0002
0200
0010
2000
0020
0000
3333
0000
,
0100
0010
2000
0001
0000
3200
0000
0000
,
1300
0100
0010
0001
2000
0000
0000
0000
,
3002
0200
0020
1333
,
0001
0000
0010
0M00
0010
0000
1000
0000
0001
0000
0100
00M0
0100
0000
1000
0000
,
0001
1000
0010
0100
0002
0000
0203
0000
,
0320
0000
1030
0001
2000
0000
3000
0000
,
2002
3003
0000
0000
;

//--------------- dance-double - ----------------
#NOTES:
     dance-double:
     :
     Challenge:
     10:
     0,0,0,0,0:
00000000
00000000
00000000
00000000
,
00020000
00000100
00031000
00000000
00020000
00000010
00031000
00000000
,
00000002
00000010
00001003
00000000
00002000
00000100
00003001
00000000
,
00020000
00000100
00031000
00000000
02000000
00010000
03100000
00000000
,
20000000
00010000
01000000
00000000
30002000
00010000
00100000
00000000
,
02003000
00000100
03001000
00010000
00000100
00010000
00001000
00000000
,
00020000
00000010
00031000
00000000
00000100
00010000
00001000
00000000
,
00020000
00000010
00030100
00001000
00000002
00001000
00000203
00000000
,
00000301
00000100
00001000
00010000
00001000
01000000
00200000
00000000
,
10300000
00100000
00010000
00001000
00010000
00001000
00020000
00000000
,
00030100
00010000
00000010
00000000
00001000
00000001
00000010
00000000
,
00000001
00000000
00001000
00000010
00000100
00000000
00000010
00001000
00000010
00000000
00010000
00001000
00100000
00000000
00010000
10000000
,
00020000
01000000
10030000
00100000
02000000
00001000
03010000
00000000
,
02000000
00001000
03001000
00010000
00000010
00000100
00000001
00000000
,
00000001
00000010
00000100
00001000
00000001
00000100
00001000
00010000
,
00001000
00000000
01000000
00100000
10000000
00000000
00010000
00100000
01000000
00000000
10000000
00010000
01000000
00000000
00010000
00100000
,
00010000
01000000
10000000
01000000
00020000
00000000
00000000
00000000
,
00031000
00000100
00000001
00000100
00002000
00000000
00000000
00000000
,
00013000
01000000
00100000
10000000
00000000
00020000
00000000
00000000
,
01030000
00000100
01000000
00000200
00000000
00000000
00000300
00000000
,
00010000
00000001
00010000
00000010
,
00100000
00001000
00100000
00010000
00001000
00010000
00100000
00001000
,
10000000
01000000
00100000
01000000
10000000
00000000
00001000
00000000
,
00020000
00000000
00030001
00001000
00000002
00000000
00000003
00000000
,
00001001
00000000
00000001
00000100
00002000
00000000
00023000
00000000
,
00032000
00000000
01003000
00100000
00010000
00000000
00100000
00000000
,
02000000
00000000
03010000
00100000
10000000
00100000
00010000
01000000
,
00020000
00230000
00300020
00000030
,
00001000
00000000
00000001
00010000
00000001
00000000
00020000
00000000
,
00031000
00000000
10000000
00001000
20000000
00000000
30100000
00000000
,
01000000
00000000
00010000
01000000
10000000
01000000
00100000
01000000
,
00002000
00023000
00030020
00000030
,
00001001
00000001
00000100
00001000
00000200
00000000
00000300
00000000
,
00000010
00010000
00001000
01000000
00200000
00000000
00300000
00000000
,
10000000
00010000
01000000
00001000
00000000
00020000
00000000
00000000
,
00030010
00001000
00000100
00000001
00000200
00000000
00000000
00000000
,
00001300
00000001
00010000
00001000
,
10000000
01000000
00010000
00001000
00000010
00000001
00000100
00001000
,
00010000
01000000
10000000
00010000
02000000
00000000
03000200
00000000
,
00020300
00000000
00030001
00001000
00000002
00000000
00000000
00000000
,
00010003
00000000
00000000
00000000
;
