#TITLE:MAX SBY -428-;
#SUBTITLE:;
#ARTIST:Ωr;
#TITLETRANSLIT:;
#SUBTITLETRANSLIT:;
#ARTISTTRANSLIT:;
#GENRE:;
#CREDIT:;
#MUSIC:MAX SBY -428.ogg;
#BANNER:;
#BACKGROUND:;
#CDTITLE:;
#SAMPLESTART:36.366;
#SAMPLELENGTH:12.000;
#SELECTABLE:YES;
#OFFSET:-0.088;
#BPMS:0.000=110.000
,18.000=220.000
,50.000=330.000
,51.500=110.000
,67.000=220.000
,131.000=218.000
,134.000=110.000
,150.500=118.000
,152.000=116.000
,153.000=115.000
,174.000=229.940
,175.000=240.000
,232.000=360.000
,234.000=240.000
,271.000=300.000
,303.000=428.000
,319.000=105.000
,324.000=104.000
;
#STOPS:232.000=0.042
,232.500=0.042
,233.000=0.042
,233.500=0.042
;
#BGCHANGES:;
#FGCHANGES:;

//--------------- dance-single - XMOD ----------------
#NOTES:
     dance-single:
     XMOD:
     Beginner:
     6:
     0,0,0,0,0:
0000
0000
0000
0000
,
1000
0000
0001
0000
,
0100
0000
0010
0000
,
1000
0000
0001
0000
,
1000
0000
1001
0000
,
0001
0000
0000
1000
0000
0000
0000
0000
,
0010
0000
0100
0000
,
0001
0000
0000
1000
0000
0000
0000
0000
,
0001
0000
1000
0000
,
0001
0000
0000
0100
0000
0000
0000
0000
,
0010
0000
1000
0000
,
0001
0000
0000
1000
0000
0000
0000
0000
,
0001
0000
0001
0000
,
1000
0001
0100
0001
,
0010
0001
0010
0001
,
0000
0100
0010
1000
,
0001
1000
0001
1000
,
0000
0001
0000
0100
,
0000
0010
0000
1000
,
0000
0100
0000
0010
,
0000
0001
0001
0001
,
0000
1000
0000
0001
,
0000
1000
0000
0010
,
0000
0100
0000
0001
,
0000
1000
0000
1001
,
0000
0001
0000
0100
,
0000
0010
0000
1000
,
0000
0100
0000
0010
,
0000
0110
0000
0100
,
0000
0001
0000
1000
,
0000
0001
0000
1000
,
0000
0001
0000
1000
,
0000
0001
0000
1000
,
0000
0000
0002
0000
,
0003
0000
1000
0000
0001
0000
0000
0100
,
0000
0000
0010
0000
0010
0000
0000
1000
,
0000
0000
0001
0000
0001
0000
0000
1000
,
0000
0100
1000
0000
,
0001
0000
1000
0010
,
0000
0100
0000
0000
0000
0001
0000
0000
,
1000
0000
0001
0000
0000
0100
0000
0000
,
0010
0000
0000
1000
0000
0000
0001
0000
,
0000
0100
0000
0000
0010
0000
0000
1000
,
0000
0001
0000
1000
,
0000
1000
0000
0001
,
0000
0100
0000
0010
,
0000
0010
0000
0100
,
0000
0001
1000
0001
,
0000
0100
0000
0010
,
0000
1000
0000
0001
,
0000
0010
0000
0100
,
0000
1000
0000
0001
,
0000
1000
0000
0001
,
0000
0100
0000
0001
,
0000
0010
0000
0001
,
0000
1001
0000
1000
,
0000
0001
0000
0100
,
0000
0001
0000
1000
,
0001
0000
0000
0000
,
1000
0000
0000
0000
,
0001
0000
0000
0000
,
1000
0000
0000
0000
,
0001
0000
0001
0000
,
0001
0000
0100
0100
,
0100
0100
0010
0010
,
0010
0010
1000
0001
,
1000
0001
2000
3000
,
0000
0000
0000
1000
,
0000
0001
0000
1000
,
0000
0010
0000
0100
,
0000
0001
0000
0010
,
0000
0001
0000
1000
,
0000
0001
0000
0100
,
0000
0001
0000
0010
,
0000
0001
0000
1000
,
0000
0010
0000
1000
,
0000
0001
0000
1000
,
0000
0010
0000
1000
,
0000
0001
0000
1000
,
0000
0001
0000
1001
,
0000
0000
0000
0000
,
0000
2002
0000
0000
,
0000
0000
0000
3003
;

//--------------- dance-single - XMOD ----------------
#NOTES:
     dance-single:
     XMOD:
     Easy:
     11:
     0,0,0,0,0:
0000
0000
0000
0000
,
2000
3000
0002
0003
,
2000
3000
0010
1000
,
0002
0103
0002
1003
,
0010
1000
0001
1000
,
0001
0000
0000
1000
0000
0000
0001
0000
,
0100
0010
1000
0010
,
1000
0000
0000
0001
0000
0000
0100
0000
,
0001
0010
0001
0100
,
0001
0000
0000
1000
0000
0000
0100
0000
,
0010
0000
0000
0001
0000
0000
0100
0000
,
0010
0000
0000
0100
0000
0000
0001
0000
,
1000
0001
2000
0000
,
3001
0100
0001
0010
0100
1000
0010
1000
,
0001
0001
0100
0010
0000
1000
1000
0010
,
0000
1000
0001
1000
0010
0010
0100
0001
,
1000
0010
1000
0001
1000
0010
1000
0000
,
0001
0000
0000
0000
1000
0000
0000
0010
0000
0000
1000
0000
0000
0000
0000
0000
,
0001
0000
0000
0000
0100
0000
0000
0010
0000
0000
1000
0000
0000
0000
0000
0000
,
0001
0000
0000
0000
1000
0000
0000
0100
0000
0000
0010
0000
0000
0000
0000
0000
,
0001
0100
0101
0001
,
1000
0000
0000
0000
0001
0000
0000
0100
0000
0000
0001
0000
0100
0000
0000
0000
,
0010
0000
0000
0000
1000
0000
0000
0100
0000
0000
1000
0000
0010
0000
0000
0000
,
0100
0000
0000
0000
0001
0000
0000
0010
0000
0000
0001
0000
0100
0000
0000
0000
,
0010
0000
0000
0000
1000
0000
0000
0100
0000
0000
1000
0000
0000
0000
0001
0000
,
1000
0000
0000
0000
0010
0000
0000
0100
0000
0000
0010
0000
0000
0000
0000
0000
,
1000
0000
0000
0000
0001
0000
0000
0100
0000
0000
0001
0000
0000
0000
0000
0000
,
1000
0000
0000
0000
0001
0000
0000
0010
0000
0000
0100
0000
0000
0000
0000
0000
,
1000
1100
0100
0010
,
0001
0000
0000
0000
1000
0000
0000
0010
0000
0000
1000
0000
0000
0000
0000
0000
,
0001
0000
0000
0000
0100
0000
0000
0001
0000
0000
0100
0000
0000
0000
0000
0000
,
0010
0000
0000
0000
1000
0000
0000
0100
0000
0000
1000
0000
0000
0000
0000
0000
,
0001
2000
3000
1001
,
0000
0000
2002
0000
,
3003
0000
0000
0000
2000
0000
0000
0000
3001
0000
0000
0100
0000
0000
0001
0000
,
0000
0100
0000
0000
0010
0000
0010
0000
1000
0000
0000
0100
0000
0000
1000
0000
,
0000
0010
0000
0000
2000
0000
0000
0000
3001
0000
0000
0100
0000
0000
0001
0000
,
0000
0010
0000
0000
0001
0000
0001
0000
1000
0000
1001
0000
0000
0000
0000
0000
,
0101
0000
0000
0000
0100
0010
1000
0100
,
0000
1000
0001
0100
0000
0010
0010
0000
,
1000
0001
1000
0010
1000
0001
0100
0001
,
0010
0100
1000
0010
0100
0001
0010
0001
,
0000
0000
0100
0000
0000
0000
0001
0000
1000
0000
0000
0010
0000
0000
0100
0000
,
0000
0001
0000
0000
1000
0000
0001
0000
1000
0000
0000
0000
0001
0000
0000
0000
,
1000
0001
0100
0001
,
0010
0001
0100
0010
,
1000
0100
0010
0001
,
0010
0100
1100
1000
,
0010
0100
0001
0100
,
0001
0010
0100
1000
,
0010
0100
0001
1000
,
0001
0000
0000
0000
1000
0000
0000
0010
0000
0000
1000
0000
0001
0000
0000
0000
,
0010
0001
0100
0001
,
0010
0001
0100
0010
,
1000
0100
1000
0001
,
1000
2002
3003
0001
,
0100
0001
0010
0001
,
1000
0001
1000
0010
,
1000
1000
0010
0100
,
0202
0303
0001
1000
,
0010
0000
1000
0001
,
1000
0000
0000
0000
0001
1000
0000
1010
,
0000
0010
0000
0101
0000
0001
0000
1001
,
0000
1000
0000
1010
0000
0000
1000
0000
,
0001
1000
0001
0100
,
0010
0000
0100
0000
0001
1000
0001
1000
,
0010
0100
0010
0100
0001
0000
0000
1000
,
0000
0001
0000
0000
0200
0000
0000
0000
0300
0000
0000
0000
0001
0000
0000
0000
,
0100
0001
0010
0001
,
0100
0010
1000
0001
,
0010
0100
1000
0010
,
0100
0002
0003
1000
,
0010
1000
0010
1000
,
0001
0010
0100
1000
,
0100
0010
0001
0010
,
0100
0000
0000
0000
1000
0000
0000
0001
0000
0000
1000
0000
0010
0000
0000
0000
,
0000
0100
0000
0001
,
0000
1000
0000
0001
,
0000
0100
0000
0010
,
0000
1000
0000
2002
,
0000
0000
0000
3003
,
0000
2002
0000
0000
,
0000
0000
0000
3003
;

//--------------- dance-single - XMOD XO ----------------
#NOTES:
     dance-single:
     XMOD XO:
     Medium:
     15:
     0,0,0,0,0:
0000
0000
0000
0000
,
2000
0000
3002
0000
,
2003
0000
0000
0000
3001
0100
0001
0010
,
0002
0100
0100
0103
0020
1000
1000
1030
,
0001
0000
1000
0000
0001
0000
0100
0000
0000
0000
0000
0000
0001
0000
0000
1000
0000
0000
0001
0000
0000
0000
0000
0000
,
1000
0100
0000
1100
0000
1000
0100
0000
,
0001
0100
1000
0000
0001
0010
0001
0000
,
1000
0010
0000
1010
0000
1000
0100
0010
,
0001
1000
0001
1000
0010
0100
0010
0000
,
1000
0001
0000
1001
0000
1000
0100
0000
,
0010
0001
0000
1000
0000
0001
1000
0000
,
0001
0100
0001
1000
0000
0001
0010
0100
,
1000
0001
0100
0010
2000
0000
0000
3000
,
0010
0000
1000
0010
0000
0100
0001
0000
0010
0000
0010
0000
0001
0000
0001
0000
,
1000
0000
0010
0000
1000
0000
0001
0100
0010
1000
0001
0000
2000
0000
0001
0000
,
3000
0000
0100
0000
0100
0000
0010
0000
0001
0000
0100
0000
0020
0030
0020
0030
,
2000
0000
3001
0100
0001
0100
0010
1000
0001
0000
1000
0000
0001
0000
0100
0000
,
0001
0000
0000
0000
1000
0000
0000
0100
0000
0000
1000
0000
0010
0000
0100
0000
,
0001
0000
0000
0000
1000
0000
0000
0100
0000
0000
0001
0000
0100
0000
1000
0000
,
0001
0000
0000
0000
1000
0000
0000
0010
0000
0000
0100
0000
0001
0000
0010
0000
,
0001
0000
0000
1000
0010
0000
0000
0000
1010
0000
0000
0000
1000
0000
0001
0000
,
1000
0000
0000
0000
0001
0000
0000
0100
0000
0000
1000
0000
0100
0000
0010
0000
,
0100
0000
0000
0000
0001
0000
0000
1000
0000
0000
0001
0000
0010
0000
0100
0000
,
1000
0000
0000
0000
0001
0000
0000
0010
0000
0000
1000
0000
0010
0000
0001
0000
,
1000
0000
0000
0000
0001
0000
0000
1000
0000
0000
0010
0000
1010
0000
0000
0000
,
1000
0000
0010
0000
1000
0000
0000
0100
0000
0000
0001
0000
0100
0000
1000
0000
,
0001
0000
0000
0000
1000
0000
0000
0010
0000
0000
0100
0000
0010
0000
1000
0000
,
0001
0000
0000
0000
1000
0000
0000
0010
0000
0000
1000
0000
0001
0000
0100
0000
,
0010
0000
1010
0000
1000
0001
0100
0010
,
0100
0000
0000
0000
0001
0000
0000
0010
0000
0000
0100
0000
0010
0000
0001
0000
,
0100
0000
0000
0000
0001
0000
0000
1000
0000
0000
0010
0000
1000
0000
0100
0000
,
0010
0000
0000
0000
0001
0000
0000
0100
0000
0000
0001
0000
0000
0000
1000
0000
,
0100
0000
1000
0000
0001
0000
0000
0100
0000
0000
0010
0000
2000
0000
0000
0000
,
0000
3000
2002
0000
,
3003
0000
0000
0000
0002
0000
0000
0000
1003
0000
0000
0100
0000
0000
0010
0000
,
0000
0001
0000
0000
1000
0000
1000
0000
0001
0000
0000
0010
0000
0000
0100
0000
,
0000
1000
0000
0000
0020
0000
0000
0000
0130
0000
0000
0001
0000
0000
0100
0000
,
0000
0010
0000
0000
1000
0000
1000
0000
0001
0000
1001
0000
0000
1000
0100
0000
,
0020
0000
0030
0000
0001
1000
0001
1000
,
0000
0010
1000
0010
1000
0000
0100
0000
0000
0010
0001
0000
0100
0000
0000
0001
,
1000
0100
1000
0100
0010
0001
0010
0001
1000
0000
0010
0000
0100
0000
0001
0010
,
0100
1000
0001
0000
1000
0000
0100
0000
0001
0000
0100
0000
1000
0010
1000
0000
,
0000
0001
0100
0000
0000
0000
0010
0100
0010
0000
0000
1000
0000
0001
1000
0000
,
0000
0010
1000
0000
0001
0000
1000
0000
0001
0000
0000
0000
1000
0000
0100
0000
,
1000
0000
0010
0000
1000
0000
0000
1000
0000
0000
1000
0000
0010
0000
0100
0000
,
0001
0000
0100
0000
0010
0000
0000
0010
0000
0000
0010
0000
1000
0000
0001
0000
,
1000
0000
0010
0000
1000
0000
0000
1000
0000
0000
1000
0000
0001
0000
0100
0000
,
0010
1000
0001
0000
1001
0000
1000
0100
,
0010
0000
0000
0000
0001
0000
0000
0001
0000
0000
0001
0000
0100
0000
0010
0000
,
1000
0000
0000
0000
0100
0000
0000
0100
0000
0000
0100
0000
0010
0000
0001
0000
,
1000
0000
0000
0000
0001
0000
0000
0001
0000
0000
0001
0000
1000
0000
0010
0000
,
1000
0000
0000
0000
0001
0000
0000
1000
0000
0000
0001
0000
1000
0000
0010
0000
,
1000
0000
0100
0000
0010
0000
0000
0001
0000
0000
1000
0000
0001
0000
0100
0000
,
0001
0000
0010
0000
0001
0000
0000
0100
0000
0000
0010
0000
1000
0000
0100
0000
,
1000
0000
0001
0000
1000
0000
0000
0010
0000
0000
1000
0000
0001
0000
0010
0000
,
0001
0100
0101
0000
0001
1000
0001
0010
,
0100
0000
1000
0000
0001
0000
0000
0010
0000
0000
0100
0000
1000
0000
0010
0000
,
0100
0000
0001
0000
1000
0000
0000
0100
0000
0000
1000
0000
0000
0000
0001
0000
,
1000
0010
1000
0010
0100
0001
0100
0000
,
0220
0000
0330
0000
0010
1000
0100
1000
,
0002
0000
0000
0000
1003
0010
1000
0001
,
2000
0000
3000
0000
1000
0001
0000
0101
,
0000
0100
0000
0101
0000
0001
0000
1001
,
0000
1000
0000
1010
0000
0010
1000
0100
,
0010
0001
1000
0010
0100
0001
1000
0100
,
0010
0001
1000
0100
1000
0010
1000
0010
,
0100
0001
0100
0001
0010
0100
0000
1000
,
0000
0001
0000
0000
0200
0000
0000
0000
0300
0000
0000
0000
0001
0000
0010
0000
,
0001
0000
0010
0000
0001
0000
0000
1000
0000
0000
0020
0000
0000
0000
0000
0000
,
1030
0000
0100
0000
1000
0000
0000
0010
0000
0000
0200
0000
0000
0000
0000
0000
,
0301
0000
1000
0000
0001
0000
0000
0100
0000
0000
0020
0000
0000
0000
0000
0000
,
1030
0001
0100
0000
0110
0000
0010
1000
,
0001
0000
1000
0000
0010
0000
0000
0100
0000
0000
0002
0000
0000
0000
0000
0000
,
1003
0000
0010
0000
1000
0000
0000
0001
0000
0000
0020
0000
0000
0000
0000
0000
,
0031
0000
0000
0000
1000
0000
0000
0010
0000
0000
1000
0000
0000
0000
0001
0000
,
0100
0000
0000
0000
0001
0000
0000
1000
0000
0000
0001
0000
2000
0000
0000
0000
,
0000
0000
0000
0000
3010
0000
0000
1000
0000
0000
0010
0000
0200
0000
0000
0000
,
0000
0000
0000
0000
0301
0000
0000
0010
0000
0000
0001
0000
2000
0000
0000
0000
,
0000
0000
0000
0000
3010
0000
0000
1000
0000
0000
0001
0000
1000
0000
0000
0100
,
0000
0000
0010
0000
0001
0000
0000
0100
0000
0000
0010
0000
2000
0000
0000
0000
,
0000
0000
3000
0000
,
0000
0202
0000
0000
,
0000
0000
0000
0303
;

//--------------- dance-single - XMOD BU+ RH JA XO ----------------
#NOTES:
     dance-single:
     XMOD BU+ RH JA XO:
     Hard:
     18:
     0,0,0,0,0:
0000
0000
0000
0000
,
2000
0000
3002
0000
,
1003
0000
0010
0000
0100
0000
0001
0000
1000
0010
0000
0000
1000
0000
0001
0100
,
0001
0010
0100
1000
0001
0100
0010
1000
,
0001
0000
0100
0000
0001
0000
1000
0000
0000
0001
0000
0000
1000
0000
0000
0100
0000
0000
0001
0000
0000
0000
0000
0000
,
0100
1000
0010
0001
0000
0010
1000
0000
,
0001
0100
0001
0100
0010
1000
0010
0000
,
1000
0100
0001
0100
0000
1000
0010
0000
,
1000
0000
0100
0000
0010
0000
0001
1000
0001
0000
0100
0000
0010
0000
0000
0000
,
1000
0100
0010
0001
0000
1000
0010
0000
,
1000
0100
0010
1000
0010
0100
1000
0000
,
0001
0000
0100
0000
0010
0000
1000
0000
0000
0000
0001
0100
0010
1000
0001
0010
,
0100
1000
0100
0010
0002
0000
0003
0000
,
1000
0001
1000
0001
0000
0100
0010
1000
0100
0000
0010
0000
0002
0000
2003
0000
,
3020
0000
0130
0001
1000
0010
0100
0010
1000
0010
0010
0100
0002
0000
0000
0000
,
0003
0100
0010
0010
1000
0001
1000
0010
0100
0000
0001
0000
2000
0000
3020
0000
,
0230
0000
0310
0010
0100
0001
0100
0001
1000
0010
1000
0000
0001
0100
0001
0000
,
0100
0000
0010
1000
0010
0000
0000
0100
0000
0000
0001
0000
1000
0100
1000
0000
,
0001
0000
0100
0010
0100
0000
0000
0001
0000
0000
1000
0000
0001
0010
0100
0000
,
1000
0000
0100
0010
0001
0000
0000
1000
0000
0000
0010
0000
1000
0100
1000
0000
,
0001
0000
1000
0100
1000
0000
0000
0010
0100
0000
0001
0000
1000
0100
1000
0000
,
0001
0000
1000
0100
0010
0000
0000
0001
0000
0000
0100
0000
0001
0010
0001
0000
,
1000
0000
0001
0010
0100
0000
0000
1000
0000
0000
0001
0000
1000
0010
0100
0000
,
0001
0000
0100
0010
1000
0000
0001
0100
0000
0010
0100
0000
0001
0010
0001
0000
,
1000
0000
0001
0100
0001
0000
0000
0100
0000
0000
0110
0000
0000
0000
0010
0000
,
1000
0001
1000
0001
1000
0000
0000
0010
0000
0000
0100
0000
0000
0000
0001
0000
,
1000
0100
0010
0001
1000
0000
0000
0001
0000
0000
0100
0000
0000
0000
0001
0000
,
1000
0100
0010
0100
1000
0000
0001
0100
0000
0010
0100
0000
0000
0000
0001
0000
,
1000
0100
0010
0001
1000
0000
0000
0010
0000
0000
0100
0000
0000
0000
0001
0000
,
1000
0010
1000
0010
1000
0000
0000
0001
0000
0000
0100
0000
0000
0000
0010
0000
,
1000
0100
0010
0001
1000
0000
0000
0001
0000
0000
0100
0000
0000
0000
0001
0000
,
1000
0001
0100
0001
1000
0000
0000
0010
0000
0000
0100
0000
0000
0000
0001
0000
,
0100
0000
0010
0000
0100
0000
0000
0010
0000
0000
1000
0000
0002
0000
0000
0000
,
0000
0003
2002
0000
,
3003
0000
0000
0000
0002
0000
0000
0000
1003
0000
0000
0001
0000
0000
0100
0000
,
0000
0001
0000
0000
0100
0000
0100
0000
1000
0000
0000
0100
0000
0000
0001
0000
,
0000
0100
0000
0000
0020
0000
0000
0000
1030
0000
0000
0100
0000
0000
0010
0000
,
0000
0001
0000
0000
0100
0000
0100
0000
0010
0000
1010
0000
0000
1000
0100
0000
,
0001
0000
0100
0000
1000
0010
0100
0001
,
0000
1000
0100
0010
0001
0000
0100
0000
1000
0100
0010
0000
1000
0000
0000
0001
,
0100
0010
0100
0001
0010
0100
1000
0001
1000
0000
0001
0000
0010
0000
0001
0001
,
0100
0100
0010
0000
1000
0000
0001
0000
1000
0000
0100
0000
0010
0010
0001
0000
,
0000
0100
0010
0000
0000
0000
1000
0001
1000
0000
0000
0001
0000
0100
0010
0000
,
0000
1000
1000
0000
0001
0000
1000
0000
0001
0000
0000
0000
1000
0100
1000
0000
,
0100
0000
0001
0000
0100
0000
0000
1000
0000
0000
0010
0000
0100
0001
0100
0000
,
0001
0000
0010
0000
1000
0000
0000
0010
0000
0000
0001
0000
1000
0010
1000
0000
,
0001
0000
0100
0000
1000
0000
0000
0100
0000
0000
0001
0000
1000
0010
1000
0000
,
0001
0000
1000
0000
0100
0000
0000
0000
1100
0000
0000
0000
1000
0100
1000
0000
,
0001
0010
0001
0000
1000
0000
0000
0010
0000
0000
0100
0000
0001
0010
0001
0000
,
1000
0010
1000
0000
0010
0000
0000
0100
0000
0000
0001
0000
1000
0010
1000
0000
,
0001
0010
0100
1000
0001
0000
0000
1000
0000
0000
0010
0000
1000
0100
1000
0000
,
0001
0000
0100
0000
0101
0000
0000
0110
0000
0000
1010
0000
0000
0000
1000
0000
,
0100
0000
0001
0000
0100
0000
0000
1000
0000
0000
0010
0000
0000
0000
1000
0000
,
0100
0000
0001
0000
0100
0000
0000
1000
0000
0000
0010
0000
0000
0000
1000
0000
,
0010
0000
1000
0000
0100
0000
0000
0010
0000
0000
0100
0000
0000
0000
1000
0000
,
0010
0000
0100
0000
0101
0000
0000
0001
0000
0000
0101
0000
0000
0000
0100
0000
,
0010
1000
0010
1000
0010
0000
0000
0100
0000
0000
0001
0000
0000
0000
1000
0000
,
0001
0100
0001
0100
0001
0000
0000
1000
0000
0000
0100
0000
0000
0000
0010
0000
,
0001
1000
0001
1000
0001
0100
0010
0000
,
1000
0000
0001
1000
0000
0001
1000
0000
0010
0000
0100
0000
0001
0000
0100
0000
,
0010
0000
0000
0010
0000
0000
0010
0000
1000
0000
0100
0000
0001
0000
0100
0000
,
1000
0000
0000
0010
0000
0000
0100
0000
0001
0000
1000
0000
0001
0010
0001
0000
,
1000
0000
0001
0000
0100
0010
0100
0000
0001
0000
1000
0000
0001
0100
0001
0000
,
0100
0000
0010
0000
1000
0100
1000
0000
0001
0010
0001
0000
0100
0001
0100
0000
,
0010
1000
0010
0000
1000
0100
1000
0000
0001
0010
0100
0000
1000
0100
0010
0000
,
0001
0100
0010
0000
1000
0010
0100
0000
0010
0000
0010
0000
1000
0000
1000
0000
,
0001
0000
0001
0000
1000
0000
1000
0000
0001
0100
0010
1000
0001
0000
0100
0010
,
0000
1000
0010
0000
0200
0000
0000
0000
0300
0000
0000
0000
1000
0000
0001
0000
,
1000
0000
0100
0000
0001
0000
0000
0100
0000
0000
1000
0000
0001
0000
0100
0000
,
0001
0000
0010
0000
1000
0000
0000
0010
0000
0000
0001
0000
1000
0000
0010
0000
,
1000
0000
0100
0000
0001
0000
0000
0100
0000
0000
0010
0000
0001
0000
1000
0000
,
0001
0100
0001
0000
0101
0000
0001
1000
,
0001
0000
0100
0000
1000
0000
0000
0100
0000
0000
0001
0000
1000
0000
0010
0000
,
1000
0000
0010
0000
0100
0000
0000
1000
0000
0000
0100
0000
0010
0000
1000
0000
,
0001
0000
0010
0000
1000
0000
0000
0010
0000
0000
0001
0000
0100
0000
0010
0000
,
1000
0000
0001
0000
1000
0000
0000
0001
0000
0000
1000
0000
0001
0000
0100
0000
,
0010
0000
1000
0000
0001
0000
0000
0100
0000
0000
0001
0000
1000
0000
0100
0000
,
0010
0000
0001
0000
1000
0000
0000
0010
0000
0000
0100
0000
0001
0000
0010
0000
,
0100
0000
1000
0000
0010
0000
0000
0100
0000
0000
0001
0000
1000
0000
0100
0000
,
1000
0000
0010
0000
1000
0000
0000
0001
0000
0000
1000
0000
0020
0000
0000
0000
,
0000
0000
0000
0030
,
0000
0220
0000
0000
,
0000
0000
0330
0000
;

//--------------- dance-single - XMOD BU++ RH JA XO ----------------
#NOTES:
     dance-single:
     XMOD BU++ RH JA XO:
     Challenge:
     19:
     1.259197,1.479668,0.296811,0.215862,1.807847,980,947,33,24,0,0,1.259197,1.479668,0.296811,0.215862,1.807847,980,947,33,24,0,0:
0000
0000
0000
0000
,
1000
0100
0010
0001
1000
0010
0100
0001
,
1000
0000
0000
0000
0100
0000
0000
0000
0010
0000
0000
0000
0001
0000
0000
0000
1000
0000
0010
0000
1000
0000
0001
0000
0100
0000
0010
0000
0100
0001
0100
0001
,
0100
0000
0010
1000
0010
0000
1000
0000
0001
0000
0010
0000
0100
0000
1000
0000
0001
0000
0010
0000
0001
0000
1000
0000
0010
0000
0100
0000
0001
0000
0010
0000
,
0001
0000
0000
0000
1000
0000
0000
0000
0001
0000
0000
0000
1000
0000
0000
0010
0000
0000
0100
0000
0000
0001
0000
0000
0101
0000
0000
0000
0000
0000
0100
0000
0000
0010
0000
0000
0100
0000
0000
0000
0000
0000
0010
0000
0000
0000
0000
0000
,
1000
0001
1000
0001
0100
0000
0010
0000
1000
0000
0001
0100
0001
0000
1000
0000
,
1001
0000
0001
1000
0010
0000
0000
0000
1000
0100
0010
0001
0010
0000
0100
1000
,
0001
0100
0010
1000
0001
0000
0100
0000
0010
0000
1000
0100
0010
0001
1000
0000
,
0001
0000
0000
0000
1000
0000
0000
0000
0001
0000
0000
0000
1000
0000
0000
0000
0000
0000
0010
0000
0000
0000
0000
0000
1000
0000
0000
0100
0000
0000
0010
0000
0000
0001
0000
0000
1000
0000
0000
0000
0000
0000
0001
0000
0000
0100
0000
0000
,
0001
0010
0001
1000
0010
0000
0100
0000
0001
0000
1000
0000
0001
0010
0100
1000
,
0001
0100
0001
0100
0010
0000
1000
0000
0001
0010
0001
0010
0001
0000
1000
0100
,
0010
0001
0010
0100
1000
0000
0001
0000
1000
0000
0001
0100
0010
1000
0001
0010
,
0100
1000
0001
0000
1000
0100
0010
0001
0200
0000
0000
0000
0000
0000
0300
0000
,
0010
0000
0010
0000
0010
0000
0010
0000
0000
1000
0010
0000
0100
0000
0001
0000
1000
0000
0000
0000
0010
0000
0000
0000
0200
0000
0300
0000
0200
0000
0300
0000
,
0020
0000
1030
1000
0001
0100
1000
0100
0001
0010
0010
0000
0200
0000
0000
0300
,
0000
0000
1000
0000
0100
0000
0010
0000
0001
1000
0001
0000
0010
0000
0100
0000
1000
0000
0000
0000
0002
0000
0000
0000
2003
0000
0000
0000
3002
0000
0000
0000
,
0103
0010
0100
0100
0100
0001
1000
0100
0001
0100
0010
0001
1000
0100
1000
0000
,
0001
0010
0100
1000
0001
0000
1000
0010
0000
1000
0010
0000
0100
0001
0100
0000
,
0001
0000
1000
0010
1000
0000
0001
0010
0000
0001
0010
0000
0100
1000
0100
0000
,
1000
0100
0010
0001
1000
0000
0001
0100
0000
0001
0100
0000
0010
1000
0100
0000
,
1000
0100
0010
0001
1000
0000
0001
0100
0010
0000
1000
0000
0001
0100
0001
0100
,
0010
1000
0100
1000
0001
0000
0010
0100
0000
0100
1000
0000
0001
0010
0001
0010
,
0100
1000
0100
1000
0001
0000
0100
0010
0000
1000
0001
0000
1000
0010
1000
0000
,
0001
0100
0001
0100
0001
0000
1000
0100
0000
0010
0001
0000
1000
0100
0010
0000
,
0001
1000
0001
0100
0001
0000
0000
0101
0000
0000
0110
0000
0010
0000
1000
0000
,
0100
0010
0100
0010
0001
0000
0000
0100
0000
0010
1000
0000
0001
0100
0001
0000
,
1000
0100
0010
0001
1000
0000
0010
1000
0000
0010
0100
0000
0001
0010
0001
0100
,
0010
1000
0010
1000
0001
0000
0010
0100
0000
1000
0100
0000
0010
0001
0010
0000
,
0001
0100
0010
1000
0100
0000
0000
0010
0000
0000
0001
0000
1000
0001
1000
0000
,
0001
0100
0001
0100
0001
0000
0100
0010
0000
0100
0001
0000
1000
0100
1000
0000
,
0001
0010
0100
1000
0001
0000
1000
0100
0000
0010
0100
0000
0010
0001
0010
0000
,
0001
1000
0100
1000
0001
0000
0010
0100
0000
1000
0100
0000
0010
0001
0010
0000
,
0001
0100
0001
0010
0001
0000
0000
1000
0000
0000
0001
0000
2002
0000
0000
0000
,
0000
3003
0220
0000
,
0330
0000
0000
0000
2000
0000
0000
0000
3001
0000
0000
0100
0000
0000
0001
0000
,
0000
0100
0000
0000
0001
0000
0001
0000
1000
0000
0000
0010
0000
0000
1000
0000
,
0000
0001
0000
0000
0200
0000
0000
0000
0310
0000
0000
1000
0000
0000
0001
0000
,
0000
1000
0000
0000
0001
0000
0001
0000
1000
0000
1001
0000
0000
1000
0010
0000
,
0200
0000
0000
0000
0301
0000
0000
0000
1000
0000
0100
0000
0001
0100
1000
0000
,
0000
0010
0100
0001
1000
0000
1001
0000
0000
0001
0001
0000
0100
0000
0000
0010
,
1000
0100
0010
0001
1000
0010
0100
0001
1000
0010
1010
0000
0110
0000
0100
0100
,
0001
0001
0100
0000
0010
0000
1010
0000
0100
0000
0101
0000
0010
0010
0100
0000
,
0000
0001
1000
0000
0000
0000
0010
0010
0010
0000
0000
0100
0000
0001
1000
0000
,
0000
0001
1000
0000
0010
0000
1000
0000
0001
0000
0000
0000
1000
0001
1000
0010
,
0100
0001
0010
0100
1000
0000
0000
0001
0000
0000
1000
0000
0001
0010
0100
1000
,
0001
0010
0100
1000
0001
0000
0000
0100
0000
0000
0010
0000
1000
0100
1000
0010
,
1000
0001
0100
0001
1000
0000
0001
0100
0000
0000
0010
0000
1000
0100
0010
0001
,
1000
0010
0100
0001
1000
0000
0000
0000
1001
0000
0001
0000
1000
0100
1000
0100
,
0010
0001
0010
0001
1000
0000
0000
0010
0000
0000
0100
0000
0001
0010
0100
1000
,
0001
0100
0010
1000
0100
0000
0000
1000
0000
0000
0001
0000
1000
0100
0010
0001
,
1000
0010
0100
0001
1000
0000
0000
0001
0000
0000
1000
0000
0001
0010
0100
1000
,
0001
0100
0010
1000
0001
0000
0000
0101
0000
0000
1010
0000
0000
0000
1000
0010
,
1000
0000
0001
0100
0001
0000
0000
0100
0000
0000
0100
0000
0010
1000
0010
0000
,
1000
0100
1000
0100
1000
0000
0000
0001
0000
0000
0100
0000
0001
0010
0100
0000
,
1000
0100
0010
0001
1000
0000
0001
0100
0000
0001
0100
0000
0010
1000
0010
0100
,
0001
0010
0100
0000
1100
0000
0000
1000
0000
0000
1001
0000
0001
0010
0100
1000
,
0001
0010
0100
1000
0001
0000
1000
0010
0000
1000
0010
0000
1000
0100
0010
0001
,
1000
0100
0010
0001
1000
0000
0010
0100
0000
0010
1000
0000
0001
0100
0001
0100
,
0010
0000
0000
0000
1000
0000
0000
0000
0001
0000
0000
0000
1000
0000
0000
0000
0001
0000
0100
0000
0001
0000
0000
0000
1000
0001
0000
1000
0000
0000
0001
0000
,
0100
0000
0000
0010
0000
0000
1000
0000
0001
0100
0001
0100
0010
1000
0010
1000
,
0001
0000
0000
1000
0000
0000
0001
0000
1000
0100
0010
0001
1000
0100
0010
0001
,
1000
0000
0000
0001
0000
0000
0100
0000
0001
0100
0010
1000
0001
0010
0100
1000
,
0001
0100
0010
0100
0001
1000
0100
0010
0001
0100
0001
0100
0010
1000
0010
1000
,
0001
0010
0100
1000
0001
0100
0010
1000
0001
0100
0001
0000
1000
0010
1000
0000
,
0001
0100
0001
0000
1000
0010
1000
0000
0001
0010
0100
0000
1000
0100
0010
0000
,
0001
1000
0001
0000
0100
0010
0100
0000
0001
0000
0001
0000
0001
0000
0001
0000
,
1000
0000
1000
0000
1000
0000
1000
0000
0001
1000
0001
1000
0001
0000
1000
0010
,
0000
0000
0000
0000
0000
0000
0000
0000
0000
0000
0000
0000
1000
0000
0000
0000
0000
0000
0000
0000
0000
0000
0000
0000
0010
0000
0000
0000
0000
0000
0000
0000
0000
0000
0000
0000
0000
0000
0000
0000
0000
0000
0000
0000
0000
0000
0000
0000
1000
0000
0000
0000
0000
0000
0000
0000
0000
0000
0010
0000
0000
0000
0000
0000
0000
0000
0000
0100
0000
0000
0000
0000
0000
0000
0000
0000
0000
0001
0000
0000
0000
0000
0000
0000
0000
0000
1000
0000
0000
0000
0000
0000
0000
0000
0000
0000
0001
0000
0000
0000
0000
0000
0000
0000
0000
0000
0000
0000
0000
0000
0000
0000
0000
0000
0000
0000
0000
0000
0000
0000
0000
0000
0000
0000
0000
0000
0000
0000
0000
0000
0000
0000
0000
0000
0000
0000
0000
0000
0000
0000
0000
0000
0000
0000
1000
0000
0000
0000
0000
0000
0000
0000
0000
0000
0000
0000
0000
0000
0000
0000
0000
0000
0000
0000
0000
0000
0000
0000
0100
0000
0000
0000
0000
0000
0000
0000
0000
0000
0000
0000
0000
0000
0000
0000
0000
0000
0000
0000
0000
0000
0000
0000
,
0010
0000
0001
1000
0001
0000
0000
0100
0000
0000
1000
0000
0100
0000
0001
0000
,
1000
0000
0010
1000
0001
0000
0000
0100
0000
0000
1000
0000
0100
0000
0010
0000
,
1000
0000
0001
0100
0001
0000
0000
1000
0000
0000
0100
0000
0001
0000
0100
0000
,
1000
0000
0010
0100
0010
0000
0000
1000
0010
0000
0100
0000
0001
0000
0010
0000
,
0100
0000
0010
0001
0010
0000
0000
0001
0000
0000
0100
0000
0010
1000
0010
0000
,
0100
0001
0100
0000
0001
0000
0000
1000
0000
0000
0001
0000
0100
0000
0010
0000
,
1000
0000
0001
0100
0001
0000
0000
0100
0000
0000
1000
0000
0100
0000
0001
0000
,
0100
0000
0010
1000
0010
0000
0000
1000
0000
0000
0001
0000
1000
0000
0100
0000
,
0010
0000
0001
0000
0100
0000
0000
0010
0000
0000
1000
0000
0001
0000
0010
0000
,
0100
0000
1000
0000
0001
0000
0000
0100
0000
0000
0001
0000
1000
0000
0100
0000
,
0010
0000
0001
0000
1000
0000
0000
0010
0000
0000
0100
0000
0001
0000
0000
0100
,
0000
0000
0001
0000
1000
0000
0000
0010
0000
0000
1000
0000
0002
0000
0000
0000
,
0000
0000
0000
0000
,
0003
2002
0000
0000
,
0000
0000
3003
0000
;

//--------------- dance-single - XMOD BU++ RH JA XO ----------------
#NOTES:
     dance-single:
     XMOD BU++ RH JA XO:
     Edit:
     20:
     0,0,0,0,0:
0000
0000
0000
0000
,
1000
0100
0010
0001
1000
0010
0100
0001
1000
0100
0010
0001
1000
0010
0100
0001
,
1000
0000
0100
0000
1000
0000
0010
0000
0100
0000
0001
0000
0100
0000
0010
0000
1000
0000
0010
0000
1000
0000
0001
0000
0100
0000
0010
0000
0100
0001
0100
0010
,
1000
0000
0100
0010
0001
0000
1000
0000
0001
0000
0010
0000
0100
0000
1000
0000
0001
0000
0010
0100
1000
0000
0001
0000
0010
0000
0100
0000
0010
0000
0001
0000
,
1000
0000
0000
0000
0100
0000
1000
0000
0001
0000
0000
0000
1000
0000
0000
0010
0000
0000
0100
0000
0000
0001
0000
0000
1000
0000
0000
0010
0000
0000
0100
0000
0000
0010
0000
0000
1000
0000
0000
0000
0000
0000
0010
0000
0000
0000
0000
0000
,
1000
0001
1000
0001
0100
0000
0010
0000
1000
0000
0001
0100
0001
0010
0100
1000
,
0001
0100
0001
1000
0010
0000
0000
0000
1000
0100
0010
0001
0010
0000
0100
1000
,
0001
0100
0010
1000
0001
0000
0100
0000
0010
0000
1000
0100
0010
0001
1000
0000
,
0001
0010
0100
1000
0001
0000
0010
0000
0001
0100
0010
1000
0001
0000
1000
0100
,
1000
0010
1000
0001
0010
0000
0100
0000
1000
0000
0001
0000
1000
0010
0100
0001
,
1000
0100
1000
0100
0010
0000
0001
0000
1000
0010
1000
0010
1000
0000
0001
0100
,
0010
1000
0010
0100
0001
0000
1000
0000
0001
0000
1000
0100
0010
0001
1000
0010
,
0100
0001
1000
0000
0001
0100
0010
1000
0200
0000
0000
0000
0000
0000
0310
0001
,
0010
0000
0010
0000
0010
0000
0010
0000
0000
0001
0010
0000
0100
0000
1000
0000
0001
0000
0000
0000
0010
0000
0000
0000
0200
0000
0300
0000
0100
0000
0100
0000
,
0000
0010
0001
0000
0010
0000
0001
0000
1000
0000
0100
0010
0001
0000
0100
0000
0000
0000
0010
0000
0010
0000
0100
0000
0001
0000
0000
0001
0100
0000
0100
0000
,
0000
0100
0001
0000
0100
0000
0010
0000
1000
0001
1000
0000
0010
0000
0100
0000
0001
0000
0000
0000
2000
0000
0000
0000
3001
0000
0100
0000
0001
0000
1000
0000
,
0100
0000
0010
0000
0100
0000
0100
0000
0100
0000
1000
0010
0100
0000
0001
0000
1000
0010
1000
0000
0010
0000
1000
0000
0001
0000
0100
0000
0001
0000
0000
0000
,
1000
0010
0100
0001
1000
0000
0001
0010
0100
0010
0001
0000
1000
0010
1000
0000
,
0001
0000
1000
0010
0100
0000
0001
0010
0100
1000
0010
0000
0100
0001
0100
0000
,
0001
0100
0010
1000
0001
0000
1000
0100
0010
0001
1000
0000
0010
0001
0100
0000
,
0001
0100
0010
1000
0001
1000
0100
0010
0001
0000
0001
0000
1000
0100
1000
0100
,
0010
0001
0100
0001
1000
0000
0100
0010
0001
0010
0100
0000
1000
0010
1000
0010
,
0100
0001
0100
0001
1000
0000
0100
0010
0001
0010
0100
0000
1000
0010
1000
0000
,
0001
0100
0001
0100
0001
0000
1000
0100
0010
0001
1000
0000
0001
0100
0010
0000
,
1000
0001
1000
0100
1000
0000
0000
1100
0000
0000
0110
0000
0010
0000
0001
0000
,
0100
0010
0100
0010
1000
0000
0001
0100
0010
0100
0001
0000
1000
0100
1000
0000
,
0001
0100
0010
1000
0001
0000
0010
0001
0010
0100
1000
0000
0001
0010
0001
0100
,
0010
1000
0010
1000
0001
0000
0010
0100
0000
1000
0100
0000
0010
0001
0010
0000
,
0001
0100
0010
1000
0100
0000
0000
1100
0000
0000
1001
0000
1000
0001
1000
0000
,
0001
0100
0001
0100
0001
0000
0100
0010
0100
0001
0010
0000
0100
1000
0100
0000
,
0010
0001
0100
0001
1000
0000
0001
0100
0010
0100
0001
0000
0010
0001
0010
0000
,
0001
1000
0100
1000
0001
0000
0010
0100
1000
0100
0010
0000
0001
0010
0001
0000
,
1000
0100
1000
0010
0100
0000
0000
0001
0000
0000
1000
0000
2002
0000
0000
0000
,
0000
3003
0220
0000
,
0330
0000
0000
0000
2000
0000
0000
0000
3001
0000
0000
0100
0000
0000
0001
0000
,
0000
0100
0000
0000
0001
0000
0001
0000
1000
0000
0000
0010
0000
0000
1000
0000
,
0000
0001
0000
0000
0200
0000
0000
0000
0310
0000
0000
1000
0000
0000
0001
0000
,
0000
1000
0000
0000
0001
0000
0001
0000
1000
0000
1001
0000
0000
1000
0010
0000
,
0100
0000
0000
0100
0001
0000
0000
0000
1000
0010
0100
0001
1000
0100
0001
0000
,
0000
0100
0010
0001
1000
0001
1001
0000
1000
0001
0001
0000
0100
0000
0000
0010
,
1000
0100
0010
0001
1000
0010
0100
0001
1000
0010
1010
0000
0110
0000
0100
0100
,
0001
0001
0100
0010
1000
0000
1100
0000
0010
0000
0101
0000
0010
0010
0100
0000
,
0000
0001
1000
0000
0000
0000
0010
0010
0010
0000
0000
0100
0000
0001
1000
0000
,
0000
0001
1000
0000
0010
0000
1000
0000
0001
0000
0000
0000
1000
0001
1000
0010
,
0100
0001
0010
0100
1000
0000
0001
0100
0010
1000
0001
0000
1000
0100
0010
0001
,
1000
0010
0100
0001
1000
0000
0100
0010
0001
0010
0100
0000
1000
0100
1000
0010
,
1000
0001
0100
0001
1000
0000
0001
0010
0001
0100
0001
0000
1000
0100
0010
0001
,
1000
0010
0100
0001
1000
0100
1000
0000
1001
0000
0001
0000
1000
0100
1000
0100
,
0010
0001
0010
0001
1000
0000
0001
0010
0100
1000
0001
0000
1000
0010
0100
0001
,
1000
0100
0010
0001
0100
0000
0001
1000
0001
0010
0001
0000
1000
0100
0010
0001
,
1000
0010
0100
0001
1000
0000
0001
0100
0010
0100
0001
0000
1000
0010
0100
0001
,
1000
0100
0010
0001
1000
0000
0000
1100
0000
0000
0011
0000
0000
0000
0001
0010
,
0001
0000
1000
0100
1000
0000
0001
0100
0010
1000
0001
0000
0010
0001
0010
0100
,
1000
0010
0100
0001
1000
0000
0001
0010
0100
1000
0001
0000
1000
0010
0100
0000
,
0001
0100
0010
1000
0001
0000
1000
0100
0010
0001
1000
0000
0001
1000
0010
0100
,
0001
0010
0100
1000
0001
0000
0000
0001
0000
0000
1001
0000
1000
0010
0100
0001
,
1000
0010
0100
0001
1000
0000
0001
0010
0100
0010
0001
0000
1000
0010
0100
0001
,
1000
0100
0010
0001
1000
0000
0010
0100
0010
1000
0001
0000
1000
0100
1000
0100
,
0010
0000
0000
0000
0001
0000
0000
0000
1000
0000
0000
0000
0001
0000
0000
0000
1000
0000
0100
0000
1000
0000
0000
0000
0001
1000
0000
0001
0000
0000
1000
0000
,
0100
0000
1000
0010
1000
0001
1000
0000
0001
0100
0001
0100
0010
1000
0010
1000
,
0001
0000
1000
0100
0010
0001
1000
0000
0001
0100
0010
1000
0001
1000
0010
1000
,
0001
0000
0100
0010
1000
0001
1000
0000
0001
0100
0010
1000
0001
0010
0100
1000
,
0001
0100
0010
0100
0001
1000
0100
0010
0001
0100
0001
0100
0010
1000
0010
1000
,
0001
0010
0100
1000
0001
0100
0010
1000
0001
0100
0001
0100
0010
1000
0010
1000
,
0001
0100
0001
0100
0010
1000
0010
1000
0001
0010
0100
1000
0001
1000
0001
0010
,
0100
1000
0001
0010
0100
1000
0100
0010
0001
0100
0010
1000
0001
0010
0100
1000
,
0001
0100
0010
1000
0001
0010
0100
1000
0001
0010
0001
1000
0001
0000
1000
0010
,
0000
0000
0000
1000
0000
0000
0010
0000
0000
0000
0000
0000
1000
0000
0001
0000
1000
0000
0001
0000
1000
0000
0001
0000
1000
0000
0000
0000
0000
0000
0000
0000
0000
0000
0000
0000
0001
0000
0000
0100
0000
0000
0001
0000
0000
0000
0000
0000
,
0010
0000
0100
1000
0100
0000
0010
0001
0000
0010
0001
0000
1000
0100
1000
0000
,
0001
0000
0010
0001
1000
0000
0001
0100
0000
0001
0100
0000
0001
0010
0100
0000
,
1000
0000
0001
0100
0001
0000
1000
0001
0000
1000
0100
0000
1000
0010
0100
0001
,
1000
0000
0010
0100
0001
0000
0000
1000
0010
0000
0100
0000
0001
0010
0100
1000
,
0001
0000
1000
0010
1000
0000
0000
0100
0000
0000
1000
0000
0100
0010
0100
0010
,
0100
0010
0100
0000
0010
0000
0000
0001
0000
0000
1000
0000
0100
0010
0100
0000
,
1000
0000
0001
0100
0001
0000
0000
0100
0000
0000
0001
0000
0100
0010
0100
0000
,
0010
0000
1000
0001
1000
0000
0000
1000
0000
0000
1000
0000
0010
1000
0010
0000
,
0100
0000
0001
0000
0100
0000
0000
0010
0000
0000
1000
0000
0001
0100
0001
0000
,
0100
0000
0010
0000
1000
0000
0000
0001
0000
0000
1000
0000
0001
0100
0001
0000
,
0100
0000
0010
0000
1000
0000
0000
0001
0000
0000
1000
0000
0001
0000
0000
0100
,
0000
0000
0010
0000
1000
0000
0000
0100
0000
0000
0010
0000
2200
0000
0000
0000
,
0000
0000
0000
3300
,
0000
2002
0000
0000
,
0000
0000
3003
0000
;
