#TITLE:Liberty Walk;
#SUBTITLE:;
#ARTIST:Miley Cyrus;
#TITLETRANSLIT:;
#SUBTITLETRANSLIT:;
#ARTISTTRANSLIT:;
#GENRE:;
#CREDIT:Braeden;
#MUSIC:Liberty Walk.ogg;
#BANNER:SC2022-bn.png;
#BACKGROUND:SC2022-bg.png;
#CDTITLE:;
#SAMPLESTART:28.038;
#SAMPLELENGTH:15.000;
#SELECTABLE:NO;
#OFFSET:-0.038;
#BPMS:0.000=120.000;
#STOPS:;
#BGCHANGES:;
#FGCHANGES:;

//--------------- dance-single - ----------------
#NOTES:
     dance-single:
     :
     Beginner:
     2:
     0,0,0,0,0:
0000
0000
0000
0000
,
0000
0000
0000
0000
,
2002
0000
0000
0000
,
3003
0000
0000
0000
,
0010
0000
0000
0000
,
0100
0000
0000
0000
,
2002
0000
0000
0000
,
3003
0000
0000
0000
,
0000
0000
0000
1000
,
1000
0000
0001
0000
,
1000
0000
0000
0000
,
0010
0000
0000
0000
,
0100
0000
0000
0000
,
0001
0000
0000
0000
,
2000
0000
3000
0000
,
0002
0000
0003
0000
,
2000
0000
3000
0000
,
0001
0000
0001
0000
,
2000
0000
3000
0000
,
0020
0000
0030
0000
,
1000
0000
0000
0000
,
0001
0000
1000
0000
,
1001
0000
0001
0000
,
0100
0000
0010
0000
,
1000
0000
0100
0000
,
0010
0000
0001
0000
,
1000
0000
0000
0000
,
0010
0000
0000
0000
,
1000
0000
0000
0000
,
0001
0000
0000
0000
,
0001
0000
0000
0010
,
0010
0000
0000
0001
,
0001
0000
0000
0000
,
1000
0000
0000
0000
,
1000
0000
0000
0010
,
0010
0000
0000
1000
,
1000
0000
0000
0000
,
0001
0000
0000
0000
,
0010
0000
0000
0000
,
0002
0000
0003
0000
,
2000
0000
3000
0000
,
0001
0000
0000
0000
,
1000
0000
0001
0000
,
0200
0000
0300
0000
,
0020
0000
0030
0000
,
1000
0000
0000
0000
,
0001
0000
0001
0000
,
0020
0000
0030
0000
,
0002
0000
0003
0000
,
0010
0000
0010
0000
,
0001
0000
0000
0000
,
1000
0000
0000
0000
,
0010
0000
0000
0000
,
0100
0000
0001
0000
,
1000
0000
0001
0000
,
1000
0000
0000
0000
,
0001
0000
0000
0000
,
0100
0000
0000
0000
,
0010
0000
0000
0000
,
1000
0000
0000
1000
,
0000
0000
0000
0001
,
0000
0000
0000
0100
,
0000
0000
0000
0000
,
1001
0000
0000
0000
;

//--------------- dance-single - ----------------
#NOTES:
     dance-single:
     :
     Easy:
     5:
     0,0,0,0,0:
0000
0000
0000
0000
,
0000
0000
0000
0000
,
2002
0000
0000
0000
,
3003
0000
0000
0000
,
0002
0000
0003
0000
,
0100
0000
0001
0000
,
2002
0000
0000
3000
,
1003
0000
0200
0000
,
0000
0300
0000
1000
,
1000
0000
0001
0000
,
1000
0001
1000
0010
,
1000
0001
1000
0001
,
0100
0001
0010
0001
,
0100
0010
1000
0001
,
0100
0010
0100
0010
,
1000
0100
1000
0100
,
0010
0001
0010
0001
,
1000
0001
1000
0001
,
1000
0010
1000
0010
,
0100
0001
0100
0001
,
0100
0010
0100
0010
,
1000
0001
1000
0001
,
1000
0010
1000
0001
,
1000
0010
0100
0001
,
0010
0100
1000
0010
,
1000
0001
1000
0010
,
0100
0001
0100
0000
,
0001
1000
0001
1000
,
0010
1000
0001
0100
,
0010
0000
0000
1000
,
0001
1000
0010
1000
,
1000
0001
0001
0100
,
0100
0010
0010
1000
,
0001
0000
0000
1000
,
0010
1000
0001
0100
,
0100
0010
0010
0100
,
0100
0001
1000
0010
,
1000
0000
0000
0010
,
0100
0001
0010
0100
,
1000
0010
1000
0001
,
1000
0010
1000
0001
,
0100
0010
0100
0001
,
1000
0100
0010
0001
,
1000
0010
1000
0010
,
0100
0001
0100
0001
,
1000
0100
0010
0100
,
1000
0001
1000
0001
,
0100
0010
0100
0001
,
1000
0100
0010
0001
,
1000
0010
1000
0001
,
1000
0001
0010
0001
,
1000
0000
0000
1000
0000
0000
0010
0000
,
0010
0000
0000
0100
0000
0000
0001
0000
,
0001
1000
0010
1000
,
0001
0010
0100
1000
,
0001
1000
0001
0000
,
1000
0010
0020
0030
,
1000
0001
1000
0000
,
0010
0100
0010
0100
,
0001
1000
0001
1001
,
1000
0010
0100
0101
,
0001
0010
0001
1001
,
1000
0010
0100
0001
,
1001
0000
0000
0000
;

//--------------- dance-single - XO FS ----------------
#NOTES:
     dance-single:
     XO FS:
     Medium:
     10:
     0,0,0,0,0:
0000
0000
0000
0000
,
0000
0000
0000
0000
,
2002
0000
0000
0003
,
3010
0000
2000
0000
,
3020
0000
0000
0000
0000
0000
0000
0000
1030
0000
0000
0001
0000
0000
1000
0000
,
0010
0000
0000
0010
0000
0000
1000
0000
0001
0000
0000
1000
0000
0000
0010
0000
,
2000
0000
0000
3001
,
1000
0000
0000
0000
0000
0000
0000
0000
0010
0000
0000
1000
0000
0000
0002
0000
,
0000
0003
0000
1000
,
0002
0000
2003
3000
,
1000
0001
1000
0010
1000
0000
0001
0000
,
0100
0000
0010
0100
0001
0000
1000
0000
,
0001
0000
0100
0010
0100
0000
0001
0000
,
1000
0000
0001
0100
0001
0000
1000
0000
,
0001
0000
1000
0100
0001
0100
1000
0001
,
1000
0000
0001
0010
1000
0010
0001
1000
,
0001
0000
1000
0100
0001
0100
1000
0000
,
0001
0010
1000
0001
0100
1000
0001
0000
,
2000
0000
3001
0100
1000
0100
0010
1000
,
0001
0000
0001
0010
1000
0010
0100
1000
,
0001
0000
1000
0100
0001
0100
1000
0000
,
0001
0010
1000
0001
0100
1000
0010
0000
,
0100
0000
0000
0000
0001
0000
0000
0000
1000
0000
0000
0000
0001
0000
0000
0001
,
1000
0000
0000
0000
1010
0000
0000
0000
0010
0000
0000
1000
0010
0000
0000
1000
,
0001
0000
0000
0000
0101
0000
0000
0000
0100
0000
0000
0010
0100
0000
0000
0001
,
1000
0000
0000
0000
1010
0000
0000
0000
1000
0000
0000
0001
1000
0000
0000
0000
,
0001
0000
1000
0000
0001
0000
1000
0000
0000
0010
0000
0000
0100
0000
0000
0000
0000
0000
0001
0000
0000
1000
0000
0000
,
0001
0100
0000
0001
0100
0000
0000
0000
0010
0000
1000
0000
0001
0000
0000
0000
,
1000
0010
1000
0000
0010
0000
0110
0000
,
0100
0100
0001
0000
1000
0000
0001
1000
,
0010
0100
0001
1000
0100
0010
0002
0000
,
0103
0020
1030
0002
,
1003
0000
0200
0000
0310
0000
0001
1000
,
0001
1000
0010
0000
0000
0010
0100
0001
,
0010
0100
1000
0001
1000
0010
2000
0000
,
3100
0020
0130
2000
,
3010
0000
0200
0000
0301
0010
0001
0100
,
0010
1000
0001
0000
0000
1000
0100
1000
,
0001
0010
0100
1000
0001
0000
1000
0000
,
1001
0000
1000
0100
0001
0100
1000
0001
,
1000
0000
0001
0100
0001
0000
1000
0000
,
0001
0010
1000
0010
0100
1000
0001
0000
,
1000
0100
0010
0100
1000
0001
1000
0000
,
0200
0000
1300
0010
0001
0010
0100
0010
,
1000
0000
0001
1000
0020
0000
1030
0000
,
0001
0010
0100
1000
0001
1000
0001
0000
,
1000
0100
0010
0001
0010
0100
1000
0000
,
0002
0000
1003
0010
0001
0010
1000
0001
,
0100
0000
0001
0010
0000
0001
0010
0001
,
0000
1000
0100
1000
0000
0001
1000
0001
,
0000
1000
0000
0001
0100
0001
0000
0000
,
1000
0000
0100
00M0
0100
0000
0001
0000
0010
0M00
0010
0000
1000
0000
1000
0000
,
1000
0000
0100
00M0
0100
0000
0001
0000
0100
00M0
0100
0000
1000
0000
1000
0000
,
0010
0000
0100
0001
0010
0001
0100
0010
,
1000
0000
0001
1000
0001
0000
1000
0000
,
0001
0100
0001
0000
1000
0000
1010
0000
,
1000
0001
0100
0000
0001
0000
0011
0000
,
0001
0100
0010
0000
1000
0000
0001
0100
,
1000
0100
0001
0100
0010
0100
0001
0100
,
0001
0010
0001
0100
0010
0000
0011
0001
,
0100
0010
1000
0001
1000
0000
1100
0000
,
0100
0010
0001
0100
0010
1000
0100
0010
,
0001
0100
0010
1000
0001
0000
1000
0000
,
1001
0000
0000
0000
;

//--------------- dance-single - XO FS ----------------
#NOTES:
     dance-single:
     XO FS:
     Hard:
     13:
     0.655764,0.680746,0.066904,0.100356,0.918069,1235,1217,18,27,0,0,0.655764,0.680746,0.066904,0.100356,0.918069,1235,1217,18,27,0,0:
0000
0000
0000
0000
,
0000
0000
0000
0000
,
2002
0000
0000
3003
,
0002
0000
0000
0003
,
0202
0000
0000
0000
0300
0000
0000
0000
1003
0000
0000
0010
0000
0000
1000
0000
,
0001
0000
0000
1000
0000
0000
0010
0000
1000
0000
0000
0001
0000
0000
0100
0000
,
0202
0000
0000
0000
0303
0010
1000
0000
,
0002
0000
0000
0000
0003
0000
1000
0000
0001
0000
0000
0100
0000
0000
0002
0000
,
0000
0000
0003
1000
,
0002
0000
0203
0300
,
0001
0000
1000
0010
0100
0000
0001
0000
1000
0000
0001
0000
1000
0000
0001
1000
,
0001
0100
00M0
0100
1000
0000
0001
0000
2000
0000
0010
0000
3010
0000
1000
0001
,
1000
0010
0M00
0010
0001
0000
1000
0000
0001
0000
0100
0000
0010
0000
0000
1000
,
0001
0100
00M0
0100
1000
0000
0001
0000
0100
0000
0010
0000
1000
0000
0001
0000
,
0101
0000
0100
0001
0100
0000
0001
0000
0100
0000
0010
0000
0001
0000
0010
0000
,
2000
0000
3001
0100
1000
0100
0001
0010
,
0100
0000
1000
0100
0010
0000
0100
0000
1000
0000
0001
0000
1000
0000
0000
0000
,
0002
0010
1003
0002
0100
1003
0001
0000
,
1001
0000
1000
0100
0010
0000
0001
0000
0100
0000
0010
0000
1000
0000
0100
0000
,
2000
0000
3001
0010
0100
1000
0100
0001
,
0100
0000
1000
0010
1000
0000
0100
0000
0010
0000
0001
0000
0011
0000
0000
0000
,
0020
0100
0031
0020
0100
0031
1000
0000
,
0001
0000
0000
0000
0100
0000
0000
0000
0001
0000
0000
0000
1000
0000
0000
0001
,
0100
0000
0000
0000
0010
0000
1000
0000
0001
0000
0000
0001
0100
0000
0000
0100
,
0010
0000
1000
0000
1010
0000
0000
0000
0010
0000
0000
0100
0001
0000
0000
1000
,
0001
0000
0100
0000
0020
0000
0000
0000
1030
0000
0000
0001
1000
0000
0000
0100
,
1000
0000
0001
0000
1000
0000
0001
0000
0000
0100
0000
0000
0010
0000
0000
1000
0000
0000
1010
0000
0000
0010
0000
0000
,
1000
0100
0000
0010
0001
0000
1000
0010
0000
0100
0001
0000
1000
0000
0000
0000
,
0001
0000
0100
0000
0001
0010
0001
0000
0100
0000
0010
0000
1000
0100
1000
0000
,
0001
0000
0100
0000
0001
0000
1000
0000
0001
0000
0010
0001
0100
0000
0010
0000
,
1000
0000
0100
0000
0001
0000
0100
0000
1000
0000
0001
0000
1000
0100
0010
0001
,
1000
0001
2000
0001
3001
0100
0010
0000
,
1010
0000
1000
0001
1000
0100
0010
0000
0001
0010
0100
1000
0001
0000
1000
0000
,
0001
0000
1000
0000
0001
0100
0010
0000
0100
0000
1000
0000
0100
0000
0001
0000
,
0001
0000
0100
0000
1000
0000
0001
0000
0100
0000
0010
1000
0100
0000
1000
0000
,
0002
0000
0000
0000
1003
0010
1000
0000
0001
0000
0000
0000
2001
0000
0000
0000
,
3001
0000
0100
0000
0010
1000
0010
0000
1000
0000
0001
0000
0100
0000
1000
0000
,
0100
0000
0001
0000
0100
0010
0100
0001
0100
0000
0001
0000
1000
0000
0100
0000
,
0001
0000
0100
0000
1000
0000
0010
0000
0100
0000
0001
0000
1000
0100
0010
0001
,
1000
0000
0000
0000
0001
0000
0100
00M0
0100
0000
0000
0000
1000
0000
0000
0000
0001
0000
0000
0000
1000
0000
0000
0000
0100
0000
0000
0000
0010
0000
0000
0000
,
0001
0000
1001
1000
0010
0100
0001
1000
,
0001
0000
1000
0100
1000
0000
0010
0000
0010
0000
1000
0000
0001
0000
0000
0000
,
1000
0001
0010
1000
0010
0100
1000
0010
,
1000
0000
0000
0000
0001
0000
0010
0M00
0010
0000
0000
0000
1000
0000
0000
0000
0001
0000
0000
0000
1000
0000
0000
0000
0100
0000
0000
0000
0001
0000
0000
0000
,
0100
0000
1100
0010
1000
0000
0001
0001
,
1000
0000
0000
0000
1000
0000
0010
0M00
0010
0000
0000
0000
0001
0000
0000
0000
1000
0000
0000
0000
0010
0000
0000
0000
0200
0000
0000
0000
0000
0000
0000
0000
,
0301
0100
1000
0100
0001
0100
0020
0000
,
1030
0000
0000
0000
0010
0000
0100
M000
0100
0000
0000
0000
1000
0000
0000
0000
0010
0000
0000
0000
1000
0000
0000
0000
0100
0000
0000
0000
0001
0000
0000
0000
,
0100
0000
1100
1000
0001
1000
0100
0010
,
0001
0000
0000
0000
0000
0000
0010
0000
000M
0010
0000
0000
0100
0000
0000
0000
0000
0000
1000
0000
0000
0000
0000
0000
0010
0000
0000
0000
0000
0000
0100
0000
0000
0000
0000
0000
0001
0000
0000
0000
0000
0000
1000
0000
0000
0000
0000
0000
,
0002
0000
0103
0010
1000
0001
1000
0001
,
2000
0100
3001
2000
0010
3001
1000
1000
,
2000
0100
3001
2000
0010
3001
0100
0100
,
0010
0000
1000
0001
1000
0000
0100
0000
0010
0000
0001
0000
0100
0000
0010
0000
,
1000
0000
0001
0100
1000
0000
0100
0010
,
1000
0000
0001
1000
0001
0000
0100
0000
0010
1000
0000
0010
0100
0000
0001
0000
,
1000
0000
0001
0000
0100
0000
0001
0000
1000
0000
0000
0010
0000
0000
1000
0000
,
0001
0000
1000
0100
0010
0000
0001
0000
0010
0100
0000
1000
0100
0000
1000
0000
,
0100
0001
0100
1000
0010
0001
0010
0100
,
0001
0000
1000
0010
1000
0000
0001
0000
1000
0000
0000
0000
1001
0000
0001
0000
,
0100
0010
0100
0001
1000
0000
1010
0000
,
0010
0000
0100
0010
0100
0000
0010
0000
1000
0000
0001
0000
1001
0000
1000
0000
,
0100
0000
0010
0000
0001
1000
0001
0000
1000
0100
0010
0001
1000
0000
0000
0000
;

//--------------- dance-single - ----------------
#NOTES:
     dance-single:
     :
     Challenge:
     21:
     0,0,0,0,0:
4000
0000
0000
0000
0000
0000
0000
0000
3001
0010
0001
0010
0100
1000
0100
1000
,
0000
0100
0001
0010
0000
0100
0001
0010
0200
0000
0000
0000
0000
0000
0300
0000
,
1000
0100
0010
0001
1000
0010
0100
0010
1000
0001
0010
0100
1000
0001
0100
0010
1000
0100
0010
0001
1000
0010
0100
0010
1000
0100
1000
0001
0000
0100
1000
0001
,
0100
0010
1000
0001
1000
0100
0010
0001
1000
0010
0100
0001
0100
0010
1000
0100
0010
0001
1000
0010
0100
0010
1000
0100
1000
0001
0010
0100
1000
0001
0010
0001
,
0000
0010
0000
0001
1000
0100
0010
0001
0000
0010
0100
0001
1000
0100
0000
0001
0000
0010
0100
0010
1000
0100
1000
0001
0010
0100
1000
0001
0000
0010
1000
0100
,
1000
0000
0000
0010
0000
0000
0100
0000
0001
0000
0000
0100
0000
0000
0001
0000
,
1000
0010
0100
0001
1000
0100
0010
0001
1000
0010
0100
0010
1000
0100
1000
0001
0010
0100
1000
0001
1000
0100
0010
0001
1000
0100
1000
0100
0010
0001
1000
0010
,
0100
0001
0010
0100
1000
0100
0010
0001
1000
0010
0100
0001
0000
0100
0010
0001
1000
0010
0100
0001
1000
0010
0000
0001
0010
0100
1000
0001
0100
0010
1000
0100
,
0010
0001
1000
0010
0000
0010
1000
0100
0010
0001
0010
0100
1000
0001
0100
0001
0010
0100
1000
0001
0000
0010
1000
0010
0100
0001
0010
0100
0010
0001
1000
0001
,
0100
0010
1000
0100
0010
0001
1000
0010
0100
0001
1000
0001
0010
0100
1000
0001
0100
0010
1000
0100
0010
0001
1000
0010
0000
0010
1000
0100
0010
0001
0010
0100
,
1000
0000
0010
0100
0002
0003
0100
0000
0001
0000
1000
0000
1001
0000
0001
0000
,
0100
0100
0000
0010
0010
0000
1000
0000
0002
2003
3002
0003
0100
0000
0010
1000
,
0100
0100
0000
0010
0010
0000
0002
0000
2003
0000
3010
0000
0010
0000
0100
0000
,
0100
0000
0001
1000
0001
0000
1000
0010
,
1000
0100
0010
0001
1000
0100
1000
0010
0100
0001
0010
0100
1000
0010
0100
0001
1000
0100
0010
0001
1000
0010
0100
0001
1000
0100
0010
0100
1000
0001
0100
0010
,
1000
0100
0010
0001
1000
0010
0100
0010
1000
0100
0010
0001
1000
0010
0100
0001
1000
0100
1000
0010
0100
0001
0010
0100
1000
0010
0100
0001
0100
0010
1000
0001
,
1000
0100
0010
0001
0010
0100
1000
0010
0100
0001
0010
0001
1000
0001
0100
0010
1000
0100
0010
0001
1000
0100
0010
0001
1000
0010
0100
0001
1000
0010
0100
0001
,
1000
0010
1000
0100
0010
0001
0100
0010
1000
0001
1000
0100
0010
0001
1000
0010
0100
0001
0010
0100
1000
0001
0100
0010
1000
0001
0010
0001
0100
0010
1000
0001
,
1000
0100
1000
0010
0100
0001
1000
0010
0100
0001
0010
0001
0000
0010
0100
0001
0010
0100
1000
0010
0100
0001
0010
0001
1000
0100
0010
0001
0000
0010
0100
0001
,
1000
0100
0010
0001
0010
0100
1000
0010
0100
0001
0010
0001
1000
0010
0100
0010
1000
0100
0010
0001
0100
0010
1000
0010
0100
0001
0010
0100
1000
0001
1000
0010
,
0100
0010
1000
0100
0010
0100
1000
0001
0100
0010
1000
0100
0010
0001
1000
0010
0100
0001
0010
0001
1000
0100
0010
0001
1000
0010
0100
0001
1000
0010
0100
0010
,
1000
0001
1000
0100
0010
0001
1000
0100
0000
0010
0100
0001
1000
0010
0100
0001
0000
0100
0010
0001
1000
0010
0100
0010
1000
0100
1000
0001
0010
0100
1000
0001
,
1000
0000
0000
0000
1001
0000
0000
0000
0001
0000
0000
0000
1000
0000
0000
0001
,
0100
0000
0000
0000
0110
0000
0000
0000
0010
0000
0000
1000
0010
0000
0000
0010
,
0100
0000
0000
0000
0110
0000
0000
0000
0100
0000
0000
0001
0100
0000
0000
0001
,
1000
0000
0000
0000
1001
0000
0000
0000
1000
0000
0000
0010
1000
0000
0000
0010
,
1000
0000
0001
0000
0100
0000
0001
0000
0000
1000
0000
0000
0001
0000
0000
0100
0000
0000
0101
0000
0000
0001
0000
0000
,
1000
0001
0000
0100
0001
0000
1000
0010
0000
1000
0010
0000
0100
0000
0000
0001
,
0010
0000
0001
0000
1000
0001
1000
0000
0010
0000
0100
0000
0001
1000
0001
0000
,
0001
0000
0100
0000
0110
0000
0000
0000
0010
0000
0000
1000
0010
0000
1000
0000
,
0010
0000
0100
0000
0001
0000
1000
0000
0001
0000
1000
0000
0001
0010
0100
1000
,
0001
2000
3010
0200
,
0301
0000
2000
0000
3001
1000
0001
0100
,
0001
1000
0010
0010
1000
0001
1000
0001
,
0001
0000
0100
0000
0100
0000
0010
0000
1000
0000
0010
0100
0001
0000
1000
0000
,
1002
0103
0010
1000
,
0001
0000
1000
0000
0010
0100
0001
1000
,
0100
0010
0001
0100
0001
1000
0001
0100
,
0010
1000
0100
0010
0001
1000
2000
0000
,
3010
0100
0010
1000
0001
0010
0100
1000
0001
0100
0010
1000
0001
0010
0100
1000
0001
0100
0001
0010
0100
1000
0010
1000
0001
0010
0100
1000
0001
0100
0010
1000
,
0001
0010
0100
1000
0001
0100
0010
1000
0001
0100
0010
1000
0001
0010
0100
0010
0001
1000
0010
0100
0001
1000
0100
0010
0001
1000
0010
0100
0010
1000
0001
0010
,
0100
1000
0010
1000
0100
0010
0001
0010
0001
0100
0010
1000
0001
0010
0100
0010
0001
0100
0010
1000
0100
0010
0001
1000
0001
0100
0010
1000
0100
0010
0100
1000
,
0001
0100
0010
1000
0100
0010
0001
1000
0010
0100
0001
1000
0001
0010
0100
1000
0000
0010
0101
1000
0001
0100
0010
1000
0001
0010
0100
1000
0010
1000
0001
0010
,
0100
1000
0010
1000
0100
0010
0001
0010
0001
1000
0010
0100
0001
0010
0100
1000
0010
0100
0001
1000
0001
0010
0100
1000
0010
0100
0001
1000
0001
0010
0100
1000
,
0001
0100
0010
1000
0100
0010
0001
1000
0100
1000
0001
0100
0010
1000
0001
0010
0100
1000
0010
0100
0010
1000
0001
0010
0100
1000
0001
0100
0010
1000
0001
0010
,
0100
1000
0010
1000
0001
0010
0001
1000
0010
1000
0001
1000
0010
0100
0001
0100
0010
1000
0001
0010
0100
1000
0010
0100
0001
1000
0100
0010
0100
1000
0001
0100
,
0010
1000
0010
0100
0001
0010
0100
1000
0001
0100
0010
1000
0001
0010
0100
0010
0001
0100
0010
1000
0001
0010
0100
0010
0001
0100
0001
1000
0010
0100
0001
1000
,
0100
1000
0001
0100
0010
1000
0001
0010
0001
0100
0010
1000
0100
0010
0100
1000
0001
0100
0010
0100
0001
0010
0100
1000
0100
0010
0100
1000
0001
0010
0001
1000
,
0010
0100
0001
1000
0100
0010
0001
0100
0010
1000
0100
0010
0001
0100
0010
1000
0010
0100
0001
0010
0001
0100
0010
1000
0010
0100
0001
1000
0010
1000
0001
0010
,
0100
0010
0001
0100
0010
1000
0100
0010
0001
1000
0001
1000
0100
1000
0010
0100
0001
1000
0100
0010
0001
0100
0010
1000
0000
0010
0100
1000
0001
0100
0010
0100
,
0001
1000
0100
0010
0100
1000
0010
1000
0001
0010
0100
1000
0001
0100
0010
1000
0100
0010
0001
1000
0010
0100
0001
0010
0100
1000
0001
0100
0010
1000
0001
0010
,
0100
1000
0010
1000
0001
0010
0001
0100
0010
1000
0001
0010
0001
0100
0010
1000
0001
0010
0100
1000
0001
0100
0010
1000
0001
0010
0001
0100
0010
1000
0100
1000
,
0001
0010
0001
0100
0010
1000
0001
0010
0001
0100
0010
1000
0001
0010
0001
0100
0010
1000
0100
0010
0001
1000
0010
0100
0001
1000
0100
0010
0100
1000
0010
0100
,
0010
1000
0001
0010
0100
0010
0001
0100
0001
0010
0100
1000
0001
0100
0010
1000
0001
0010
0100
0010
0001
0100
0001
1000
0010
0100
0001
0010
0100
1000
0010
0100
,
0000
1000
0001
0010
0000
0010
0001
0100
0001
1000
0010
0100
0000
1000
0001
0010
0000
0010
0001
0100
0001
1000
0010
0100
0000
1000
0100
0010
0001
0000
0000
0000
,
1001
0000
1000
0001
1000
0000
0010
0000
0100
0001
0000
1000
0000
0001
1000
0000
,
0001
0000
0100
0000
0101
0000
0001
0000
1000
0000
0000
1000
0000
0000
1000
0000
,
0001
0000
1000
0000
1001
0000
0001
0000
0100
0001
0000
1000
0000
0010
1000
0000
,
0010
0100
0001
1000
0100
0010
0001
1000
,
0001
1000
0001
1000
0010
0100
0101
0001
,
0010
0100
1000
0010
0100
0001
0101
0001
,
1000
0001
0100
0001
1000
0001
0011
0010
,
0100
1000
0010
0100
0001
1000
1000
0000
;

//--------------- dance-double - XO ----------------
#NOTES:
     dance-double:
     XO:
     Hard:
     13:
     0,0,0,0,0:
00000000
00000000
00000000
00000000
,
00000000
00000000
00000000
00000000
,
00022000
00000000
00000000
00033000
,
00020000
00000000
00000000
00030000
,
00002000
00000000
00000000
00000000
00000000
00000000
00000000
00000000
01003000
00000000
00000000
00100000
00000000
00000000
10000000
00000000
,
00010000
00000000
00000000
10000000
00000000
00000000
00100000
00000000
10000000
00000000
00000000
00010000
00000000
00000000
01000000
00000000
,
02020000
00000000
03030000
00010000
,
10000000
00000000
00000000
00000000
00000000
00000000
00010000
00000000
01000000
00000000
00000000
00001000
00000000
00000000
00020000
00000000
,
00000000
00000000
00000000
00030000
00000000
00000000
00000010
00000000
,
00002000
00000000
00003001
00000000
,
00001000
00000000
00000001
00000100
00000001
00000000
00010000
00000000
00001000
00000000
00000000
00000000
00011000
00000000
00000000
00000000
,
00010000
00000100
00000000
00000100
00000010
00000000
00000100
00000000
00000001
00000000
00000000
00000000
00001000
00000000
00000010
00001000
,
00000100
00010000
00000000
00001000
00010000
00000000
00001000
00000000
00100000
00000000
00000000
00000000
00110000
00000000
00000000
00000000
,
10000000
00100000
00000000
10000000
01000000
00000000
10000000
00000000
00010000
00000000
00000000
00000000
01000000
00000000
00010000
00000000
,
10000000
00000000
00010000
00100000
10000000
00000000
00100000
00000000
00010000
00000000
01000000
00000000
00010000
00000000
10000000
00000000
,
00010000
00000000
00100000
00001000
00010000
00000010
00000100
00000001
,
00000100
00000000
00000001
00000100
00001000
00000000
00000100
00000000
00000010
00000000
00010000
00000000
00001000
00000000
00000000
00000000
,
00010000
00001000
00001000
00010000
00000100
00000100
00001000
00000001
,
00001000
00000000
00000001
00000010
00001000
00000000
00000010
00000000
00000001
00000000
00010000
00000000
00001000
00000000
01000000
00000000
,
00100000
00000000
10100000
10000000
00010000
01000000
10000000
01000000
,
00010000
00000000
00100000
00010000
01000000
00000000
00100000
00000000
10000000
00000000
00010000
00000000
00100000
00000000
00000000
00000000
,
00001000
00001000
00100000
00010000
00010000
01000000
00100000
00000000
,
10000000
00000000
00000000
00000000
10100000
00000000
00000000
00000000
00010000
00000000
00000000
00000000
01010000
00000000
00000000
01000000
,
00001000
00000000
00000000
00000000
00011000
00000000
00000000
00000000
00010000
00000000
00000000
00010000
00001000
00000000
00000000
00010000
,
00000100
00000000
00000000
00000000
00001100
00000000
00000000
00000000
00001000
00000000
00000000
00000010
00010000
00000000
00000000
00001000
,
00010000
00000000
00000000
00000000
00011000
00000000
00000000
00000000
00010000
00000000
00000000
00000100
00001000
00000000
00000000
00000100
,
00001000
00000000
00000010
00000000
00000100
00000000
00000010
00000000
00000000
00001000
00000000
00000000
00000001
00000000
00000000
00001000
00000000
00000000
00001100
00000000
00000000
00000100
00000000
00000000
,
00010000
00001000
00000000
00010000
00000100
00000000
00001000
00000010
00000000
00010000
00001000
00000000
00010000
00000000
00000000
00000000
,
00001000
00000000
00100000
00000000
00010000
01000000
00010000
00000000
00100000
00000000
01000000
00000000
10000000
01000000
10000000
00000000
,
00100000
00000000
01000000
00000000
00010000
00000000
00100000
00000000
00001000
00000000
00100000
00001000
00000000
00010000
00000000
00000000
,
00000010
00001000
00000100
00000001
00000100
00001000
00010000
00100000
,
10000000
20100000
30010000
00120000
,
00130000
00000000
00201000
00000000
00301000
00010000
00000100
00001000
,
00000010
00000000
00001000
00000000
00000100
00001000
00000100
00000000
00010000
00000000
00001000
00000000
00100000
00000000
00010000
00000000
,
00010000
10000000
10000000
00010000
00100000
10000000
00100000
00010000
,
00110000
00201000
00300010
00001020
,
00010030
00000000
00000000
00000000
00010000
00001000
00010000
00000000
00000100
00000000
00001000
00000000
00000010
00000000
00001000
00000000
,
00000010
00000000
00000010
00000000
00001000
00000100
00001000
00000000
00000100
00000000
00001000
00000000
00000010
00000000
00001000
00000000
,
00001000
00000000
00000001
00000000
00000001
00000100
00000010
00000000
00001000
00000000
00000100
00000000
00010000
00000000
00000000
00000000
,
00011000
00000000
00001000
01000000
00100000
00000000
10000000
00000000
01000000
00000000
00010000
00000000
01000000
00000000
10000000
00000000
,
00010000
00000000
01010000
01000000
00001000
00000000
00011000
00010000
,
00000100
00000000
00001000
00000010
00001000
00000000
00000001
00000000
00000010
00000000
00000100
00000000
00001000
00000000
00000000
00000000
,
00000010
00000100
00001000
00000100
00000010
00010000
00001000
01000000
,
00010000
00000000
10000000
00100000
01000000
00000000
00010000
00000000
01000000
00000000
10000000
00000000
01000000
00000000
00001000
00000000
,
00100000
00000000
00101000
00001000
00010000
00000000
00001000
00001000
,
00010000
00000000
00000010
00001000
00000010
00000000
00001000
00000000
00000100
00000000
00001000
00000000
00000020
00000000
00000000
00000000
,
00001030
00000001
00001000
00000010
00001000
00000001
00001000
00000010
,
00010000
00000000
00001000
01000000
00100000
00000000
10000000
00000000
01000000
00000000
00010000
00000000
00001000
00000000
00000010
00000000
,
00000001
00000000
00000011
00000100
00000000
00000010
00010000
00001000
,
01000000
00000000
00010000
10000000
00010000
00000000
01000000
00000000
00100000
00000000
10000000
00000000
00010000
00000000
10000000
00000000
,
00100000
00000000
10100000
00000000
10000000
00010000
10000000
00000000
,
10000000
00100000
00010000
00001000
00000100
00000001
00000010
00000010
,
00000010
00000001
00000010
00001000
00010000
01000000
10000000
10000000
,
00010000
00000000
00100000
00001000
00100000
00000000
00001000
00000000
00010000
00000000
00000100
00000000
00010000
00000000
00000100
00000000
,
00010000
00000000
00000010
00001000
00000100
00000000
00010000
00001000
,
00010000
00000000
00000100
00001000
00000100
00000000
00001000
00000000
00000001
00000010
00000000
00000100
00001000
00000000
00000010
00000000
,
00000100
00000000
00000001
00000000
00000100
00000000
00000010
00000000
00010000
00000000
00000000
00001000
00000000
00000000
00010000
00000000
,
00001000
00000000
00100000
00010000
01000000
00000000
00100000
00000000
01000000
00010000
00000000
01000000
00100000
00000000
01000000
00000000
,
10000000
01000000
00010000
00001000
00000100
00001000
00010000
00100000
,
10000000
00000000
00010000
01000000
00010000
00000000
01000000
00000000
00001000
00000000
00000000
00000000
00011000
00000000
00010000
00000000
,
00000100
00010000
00000010
00010000
00000100
00000000
00010010
00000000
,
00010000
00000000
00001000
00010000
00000100
00000000
00010000
00000000
00001000
00000000
00010000
00000000
00011000
00000000
00001000
00000000
,
00100000
00010000
00100000
00001000
00010000
00001000
00101000
00000000
;
