#TITLE:Level Up;
#SUBTITLE:;
#ARTIST:USAO;
#TITLETRANSLIT:;
#SUBTITLETRANSLIT:;
#ARTISTTRANSLIT:;
#GENRE:;
#CREDIT:;
#MUSIC:Level Up.ogg;
#BANNER:Level Up.png;
#BACKGROUND:Level Up-bg.png;
#CDTITLE:;
#SAMPLESTART:100.000;
#SAMPLELENGTH:12.000;
#SELECTABLE:YES;
#OFFSET:-0.124;
#BPMS:0.000=210.000
,8.000=105.000
,40.000=210.000
,104.000=105.000
,136.000=210.000
,148.000=105.000
,168.000=210.000
,228.000=105.000
,230.000=210.000
;
#STOPS:;
#ORIGIN:;
#PREVIEWVID:;
#JACKET:;
#CDIMAGE:;
#DISCIMAGE:;
#BGCHANGES:;
#FGCHANGES:;

//--------------- dance-single - ----------------
#NOTES:
     dance-single:
     :
     Beginner:
     5:
     0,0,0,0,0:
0000
0000
0000
0000
,
0000
0000
0000
0000
,
1001
0000
0000
0000
,
1000
0000
0010
0000
,
1000
0000
0001
0000
,
1000
0000
0010
0000
,
0100
0000
0100
0000
,
0001
0000
1000
0000
,
0001
0000
1000
0000
,
0001
0000
1000
0000
,
1001
0000
1000
0000
,
0001
0000
0100
0000
,
0010
0000
1000
0000
,
0001
0000
0010
0000
,
0100
0000
1000
0000
,
0001
0000
0100
0000
,
0010
0000
1000
0000
,
0001
0000
1000
0000
,
0001
0000
0100
0000
,
0010
0000
1000
0000
,
0001
0000
0100
0000
,
0001
0000
0010
0000
,
0001
0000
0100
0000
,
0001
0000
1000
0000
,
0001
0000
1000
0000
,
0010
0000
1000
0000
,
1001
0000
0100
0000
,
0010
0000
1000
0000
,
0001
0000
1000
0000
,
0001
0000
0100
0000
,
0010
0000
1000
0000
,
0001
0000
0010
0000
,
0001
0000
1000
0000
,
0001
0000
0001
0000
,
1000
0000
0000
0000
,
0001
0000
0000
0000
,
0100
0000
0010
0000
,
0110
0000
0000
0000
,
1000
0000
0001
0000
,
1000
0000
0001
0000
,
0100
0000
0010
0000
,
1000
0000
0001
0000
,
1001
0000
1000
0000
,
0001
0000
0100
0000
,
0010
0000
0100
0000
,
0001
0000
1000
0000
,
1001
0000
0001
0000
,
0001
0000
0100
0000
,
0100
0000
0010
0000
,
0010
0000
1000
0000
,
0001
0000
0001
0000
,
0001
0000
1000
0000
,
1000
0000
0010
0000
,
0010
0000
0100
0000
,
0001
0000
1000
0000
,
0001
0000
1000
0000
,
0002
0000
0003
0000
,
1000
0000
1001
0000
,
0100
0000
0010
0000
,
1000
0000
0001
0000
,
0100
0000
0001
0000
,
0000
0001
0001
0000
,
1000
0000
0010
0000
,
0100
0000
0001
0000
,
1000
0000
0100
0000
,
0000
0000
0010
0000
,
0001
0000
0100
0000
,
0010
0000
1000
0000
,
0001
0000
0100
0000
,
0001
0000
0010
0000
,
0001
0000
1000
0000
,
0001
0000
1000
0000
,
0000
0000
0010
0000
,
0000
0000
0100
0000
,
0001
0000
1000
0000
,
0100
0000
0010
0000
,
0100
0000
1000
0000
,
0001
0000
0010
0000
,
0100
0000
1000
0000
,
0001
0000
1000
0000
,
0010
0000
1000
0000
,
0001
0000
1000
0000
,
0010
0000
0100
0000
,
0001
0000
1000
0000
,
0100
0000
0010
0000
,
0001
0000
1000
0000
,
0001
0000
0100
0000
,
0000
0000
0100
0000
,
0010
0000
1000
0000
,
0001
0000
1000
0000
,
0001
0000
1000
0000
,
0010
0000
1000
0000
,
0001
0000
0100
0000
,
0001
0000
0010
0000
,
0100
0000
1000
0000
,
0100
0000
0100
0000
,
0010
0000
0001
0000
,
0000
0000
1001
0000
;

//--------------- dance-single - ----------------
#NOTES:
     dance-single:
     :
     Easy:
     10:
     0,0,0,0,0:
0000
0000
0000
0000
,
0000
0000
0000
0000
,
0002
0000
0000
1003
1000
0000
0100
0000
,
0010
0001
1000
0001
,
1000
0000
0000
0100
0000
0000
0010
0000
0001
0000
0000
1000
0000
0000
0010
0000
,
0100
0000
0000
0001
0000
0000
1000
0000
0200
0000
0000
0000
0310
0000
0001
0000
,
1000
0000
0100
0000
,
0010
0000
0001
0000
,
2000
0000
3000
0001
0200
0000
0300
0001
,
2000
0000
3000
0100
0010
0000
0001
0000
,
1001
1000
0100
1000
,
0010
0010
0100
0100
,
0001
1000
0001
0010
,
0001
1000
0010
0100
,
0001
1000
0001
1000
,
0100
0100
0010
0010
,
0001
1000
0001
1000
,
0001
0010
0001
1000
,
0001
0010
0100
0100
,
0010
0001
1000
0100
,
0010
0001
1000
1000
,
0100
0010
0002
0003
,
1001
0100
0010
0001
,
1000
0001
0100
0010
,
2000
3100
0010
0001
,
1000
0001
1000
0001
,
1000
0000
0000
0001
0000
0000
0010
0000
0001
0000
0000
1000
0000
0000
0010
0000
,
0100
0000
0000
0001
0000
0000
0010
0000
0100
0000
0000
1000
0000
0000
0010
0000
,
1000
0100
0010
0000
0001
1000
0001
0000
,
1000
0100
1000
0000
0100
0010
0001
0010
,
0001
0000
1000
0000
,
0100
0000
0010
0000
,
0001
0100
0010
1000
,
0001
1000
0001
1000
0001
0000
0010
0000
,
0011
0001
1000
0001
,
1000
0100
1000
0010
,
1000
0001
1000
0001
1000
0001
0010
0000
,
0110
0100
0010
0001
,
1001
1000
0001
0010
,
0100
1000
0010
0100
,
0001
1000
0100
1000
,
0001
0100
0010
1000
,
2002
3003
0001
1000
,
0001
0010
0100
1000
,
2020
3030
1000
0100
,
0010
0001
0100
0001
,
2002
3003
0220
0330
,
0202
0303
2002
3003
,
2020
3030
0220
0330
,
2002
3003
0022
0033
,
0001
0000
0000
1000
0001
0000
0000
0010
,
0001
0000
0000
1000
0100
0000
0010
0000
,
0001
0000
0000
1000
0100
0000
0000
1000
,
0010
1000
0100
0010
,
0001
1000
0001
1000
,
0100
0010
0100
0010
,
0001
1000
0001
1000
0001
1000
0001
1000
,
0001
0000
0000
0100
0001
0000
0100
0000
,
1000
0100
0001
0010
,
1000
0010
0001
1000
,
0010
1000
0010
1000
0001
0000
0000
0100
,
0000
0010
2000
3001
,
0100
0010
1000
0100
,
0010
0001
0100
0001
,
0010
0001
0200
0300
,
0001
1000
1001
0001
,
1000
0000
0000
0010
0000
0000
1000
0000
0001
0000
0000
0000
0100
0000
0000
0000
,
0001
0000
0000
1000
0000
0000
0001
0000
0100
0000
0000
0000
0001
0000
0000
0000
,
0202
0000
0000
0000
0303
0000
0000
0000
0010
0000
0000
0001
0000
0000
0001
0000
,
2000
3000
0010
1010
,
1000
1001
0001
0101
,
0100
0110
0010
1000
,
0001
1000
1000
0010
,
1000
1001
0001
1000
,
0010
1000
0010
0000
1000
0000
0001
0000
,
0100
0010
1000
0001
,
1000
0100
0001
0100
,
1000
0010
1000
0000
0001
0000
0100
0000
,
0001
0010
0001
0000
0100
0000
0010
0000
,
1000
0001
1000
0000
0001
0000
0100
0000
,
0010
1000
1100
0100
,
0010
0000
0001
0000
1000
0001
0010
0001
,
1000
0010
0100
0001
,
0100
0000
0010
0000
1000
0001
1000
0000
,
0010
0100
0010
0000
1000
0000
0001
0000
,
1000
0001
0100
0100
,
0001
1000
0001
0100
0010
0000
0000
0000
,
1000
1001
0001
0100
,
0001
0010
0001
0100
,
0010
0000
0000
0000
1000
0000
0000
0000
0001
0000
0000
1000
0000
0000
0000
0000
,
0001
0000
0000
0100
0000
0000
0000
0000
0010
0000
0000
1000
0000
0000
0000
0000
,
0001
0000
0000
0000
1000
0000
0000
0000
0001
0000
0000
0100
0000
0000
0000
0000
,
0010
0000
0000
1000
0000
0000
0000
0000
0001
0000
0000
0010
0000
0000
0000
0000
,
0001
0000
0000
0100
0000
0000
0000
0000
0001
0000
0000
0000
1000
0000
0000
0000
,
0001
1000
0010
0100
,
0010
0000
0100
0000
0001
0010
0100
1000
,
0001
0010
0100
1000
0001
0000
0100
0000
,
0010
1000
0110
0000
;

//--------------- dance-single - XMOD XO ----------------
#NOTES:
     dance-single:
     XMOD XO:
     Medium:
     14:
     0,0,0,0,0:
0000
0000
0000
0000
,
0000
0000
0000
0000
,
2M00
0000
0000
0001
3001
0000
0100
0010
,
1000
0000
0001
0100
0001
0010
0100
1000
,
0001
0100
0001
0010
0001
0100
0010
1000
,
0001
0010
0100
1000
0001
0100
0010
0100
,
0001
1000
0000
0001
1000
0000
0010
0000
0100
0000
0000
0001
0000
0000
1000
0000
,
0001
0000
0000
0100
0000
0000
0010
0000
1000
0000
0000
0001
0000
0000
0100
0000
,
0001
0000
0000
0010
0000
0000
0100
0000
1000
0000
0000
0001
0000
0000
1000
0000
,
0010
0000
0000
0100
0000
0000
0001
0000
1000
0000
0010
0000
1000
0000
0001
0000
,
10M0
0100
1000
0000
0001
0100
0001
0000
,
1000
0001
1000
0000
0001
0100
0001
0000
,
1000
0000
1001
0000
0001
0010
0100
1000
,
0001
0000
0101
0000
0100
0010
0100
0010
,
0100
0001
1000
0010
1000
0000
1001
0000
,
0001
1000
0001
1000
0010
0100
0010
0100
,
0001
0000
0101
0000
0100
0010
0100
0010
,
0100
0010
1000
1001
,
0001
0000
1000
0000
0001
0100
0001
0100
,
0020
0000
0000
0000
0000
0000
1030
0000
0001
0000
1000
0000
0020
0000
0000
0000
0000
0000
0130
0000
0000
0010
0000
0000
,
2000
0000
3001
0000
1000
0010
1000
0010
,
1000
0000
0100
0000
0010
0000
0000
0000
0001
0000
0000
1000
0000
0000
0001
0000
,
0100
0000
0010
0000
0200
0000
0301
1000
,
0010
0100
0010
1000
0001
0010
0001
1000
,
0002
0000
1003
0010
1000
0000
0001
0100
,
0001
0000
1000
0000
0010
0000
1000
0001
,
10M0
0000
0000
0100
0000
0000
1000
0000
0000
0100
0000
0000
1000
0000
0001
0000
1000
0000
0000
0010
0000
0000
1000
0000
0000
0010
0000
0000
1000
0000
0001
0000
,
1000
0000
0000
0001
0000
0000
0010
0000
0000
0100
0000
0000
1000
0000
0001
0000
1000
0000
0000
0010
0000
0000
0100
0000
0000
0001
0000
0000
0100
0000
0010
0000
,
1000
0100
1000
0000
0001
0100
0001
0000
1000
0010
1000
0000
0010
1000
0001
0000
,
1000
0100
0010
0001
0010
0100
1000
0000
0010
0100
0010
0100
0010
0100
0001
0000
,
1001
0000
0000
1000
0001
0000
0000
0100
,
0010
0000
0000
1000
0001
0000
0000
1000
,
0001
0000
0000
0100
0000
0000
0001
0000
0100
0000
0000
0010
0000
0000
1000
0000
0010
0000
0000
1000
0000
0000
0001
0000
1000
0000
0000
0010
0000
0000
1000
0000
,
0001
0010
0100
1000
0001
0010
0100
1000
0001
0000
0100
0000
0010
0000
0100
0000
,
M001
0000
0000
0100
0000
0000
1000
0000
0000
0100
0000
0000
0001
0000
0000
0000
,
1000
0000
0000
0010
0000
0000
0001
0000
0000
0010
0000
0000
1000
0000
0000
0000
,
0001
0100
0001
0100
0010
1000
0001
0000
,
1M01
0000
1000
0001
1000
0010
0010
0000
,
1001
0000
1000
0000
0001
0100
0001
0000
1000
0000
0001
0000
0010
0001
0100
0000
,
0010
0000
1000
0000
0001
0100
0001
0000
0100
0000
0010
0000
1000
0100
1000
0000
,
0001
0000
0100
0000
0010
1000
0010
0000
1000
0000
0001
0000
0010
0100
0010
0000
,
0001
0000
1000
0000
0010
0100
0001
0000
1001
0000
0000
0000
0100
0001
0100
0000
,
02M1
0000
0000
0000
0001
0000
0000
0000
1000
0000
0000
1000
0300
0000
0000
0000
,
0100
0000
0002
0000
1000
0000
0013
0100
,
1100
0000
2000
0000
3010
0100
0001
1000
,
0010
0000
1000
0000
0001
0100
0001
0010
,
0011
0100
0110
0010
,
1010
0000
1000
0000
1001
0000
0001
0100
,
0101
0000
0100
0000
0110
0000
0010
1000
,
1010
0000
0100
0000
0101
0000
0001
1000
,
0001
0000
0000
0100
0000
0000
0001
0000
0100
0000
0000
0010
0000
0000
1000
0000
,
0001
0000
0000
0100
0000
0000
0001
0000
0010
0000
0000
0000
0100
0000
1000
0000
,
0001
0000
0000
0100
0000
0000
0001
0000
0010
0000
0000
0001
0000
0000
1000
0000
,
0100
0000
0000
0010
0000
0000
0001
0000
0010
0000
0000
0100
0000
0000
1000
0000
,
0001
0100
0001
0100
0010
1000
0100
1000
,
0001
0010
0100
1000
0001
0100
0010
1000
,
0001
0100
0001
0100
0010
1000
0100
1000
,
00M1
0100
0001
0100
0001
0100
0001
0000
10M0
0000
0000
0000
1001
0000
0000
0001
,
0000
0000
1000
0000
0000
0000
0010
0000
1000
0000
0000
0000
1100
0000
0000
0100
,
0000
0000
0010
0000
0000
0001
0000
0000
1000
0000
0000
0000
1100
0000
0000
0000
,
0100
0000
0010
0000
0001
0000
0010
0000
0100
0000
0000
1000
0000
0000
0010
0000
,
0000
0100
0000
0000
0101
0000
0000
0000
0020
0000
0000
0000
1030
0000
0000
0100
,
0000
0000
0001
0000
0000
0000
0100
0000
1000
0000
0000
0000
0001
0000
0000
0010
,
0000
0000
0100
0000
0000
0010
0000
0000
0002
0000
0000
0000
1003
0000
0000
0010
,
0000
1000
0000
0001
0100
0000
0010
0000
,
1000
0000
1001
0000
1000
0100
0002
0000
,
0103
0000
0000
0100
0000
0000
0100
0000
1000
0000
0010
0000
0200
0000
0000
0000
,
1300
0000
0000
0100
0000
0000
0010
0000
2000
0000
0000
0000
3001
0000
0000
0000
,
0101
0100
0000
0010
1000
0000
0001
1000
,
0001
0000
1000
0001
1000
0100
0001
0000
,
1000
0010
0001
0000
1000
0100
0001
0000
,
1000
0010
0001
0000
1000
0001
1000
0000
,
0001
0100
0001
0010
0001
0100
0010
1000
,
0010
0000
0110
0000
0100
0001
0100
0001
,
0010
0001
0010
0001
0100
0010
1000
0001
,
1000
0000
1001
0000
0001
0010
0100
1000
,
0001
0100
0010
1000
0001
0010
0001
0100
,
0010
1000
0010
0000
1000
0100
1000
0001
,
1000
0010
1000
0100
1000
0001
0010
0001
,
0100
0001
0010
0000
0100
1000
0100
1000
,
0001
0100
0001
0100
0101
0000
0010
0000
,
1000
0000
0010
0000
1000
0010
0000
0001
,
0010
0000
1000
0100
0001
0100
1000
0010
,
0100
0001
0100
0000
0001
0010
0100
0000
,
1000
0010
1000
0000
0001
0100
0001
0010
,
0001
0100
0010
0000
1000
0100
0010
0001
,
1000
0000
0001
0000
1000
0000
0001
0000
0100
0000
0000
0010
0000
0000
1000
0000
,
0000
0001
0000
0000
1000
0000
0100
0000
2000
0000
0000
0000
3000
0000
0000
0000
,
1010
0000
0000
1000
0001
0000
0100
0000
,
0010
0000
1000
0000
0010
0000
0000
0000
1000
0000
0000
0100
0000
0000
0010
0000
,
0001
0000
0000
0010
0000
0000
0100
0000
1000
0000
0000
0001
0000
0000
1000
0000
,
0001
0000
0000
0000
1000
0000
0010
0000
1000
0000
0000
0001
0000
0000
0100
0000
,
0001
0000
0000
0010
0000
0000
0001
0000
0100
0000
0000
0010
0000
0000
1000
0000
,
0001
0000
1000
0000
0001
0010
0100
1000
,
0001
0010
0100
1000
0001
0100
0010
1000
,
0001
0100
0010
1000
0001
0100
0001
0100
,
0010
1000
0001
1000
0001
0000
0100
0010
,
1000
0001
1000
0000
1001
0000
0000
0000
;

//--------------- dance-single - XMOD BU XO JA FS ----------------
#NOTES:
     dance-single:
     XMOD BU XO JA FS:
     Hard:
     17:
     0,0,0,0,0:
0000
0000
0000
0000
,
0000
0000
0000
0000
,
2MM2
0000
0003
0001
3001
0000
1000
0001
,
1000
0000
0000
0000
0000
0000
0010
0000
0100
0000
0000
0000
0001
0000
1000
0000
0001
0000
0000
0010
0000
0000
0100
0000
0000
1000
0000
0000
0001
0000
1000
0000
,
0001
0000
0000
0010
0000
0000
0100
0000
0000
0000
1000
0000
0010
0000
0100
0000
0001
0000
0000
0010
0000
0000
0001
0000
0000
0000
1000
0000
0100
0000
0010
0000
,
0001
0000
0000
1000
0000
0000
0010
0000
0000
1000
0000
0000
0010
0000
1000
0000
0200
0000
0000
0000
0320
0000
0000
0000
0031
0000
1000
0000
0001
0000
0100
0000
,
0101
0000
0100
0000
0010
0000
1000
0000
0000
0000
0100
0000
0010
0000
0001
0000
0010
0000
0000
0100
0000
0000
1000
0000
0000
0001
0000
0000
1000
0000
0010
0000
,
1000
0100
0010
0001
1000
0010
0100
0001
1000
0100
0010
0001
1000
0010
1000
0001
,
1000
0000
0000
1000
0000
0000
1000
0000
0000
0000
0010
0000
0100
0000
0001
0000
0100
0000
0000
0100
0000
0000
0100
0000
0000
0000
0010
0000
1000
0000
0001
0000
,
1000
0000
0100
0000
0010
0000
0001
0000
1000
0000
0010
0000
1000
0001
1000
0001
1000
0000
0000
0000
0010
0000
0000
0000
0100
0000
0000
0000
0001
0000
0000
0000
,
1M00
0000
0010
0000
1000
0000
0000
0000
0001
0000
0100
0001
0100
0000
0001
0000
,
1000
1000
0010
0100
0001
0001
1000
0100
,
1000
0000
2010
0000
3001
0010
1000
1000
,
0010
0001
0200
0000
0310
1000
0100
0001
,
0100
1000
0010
0010
1000
0000
1010
0010
,
1000
0000
1000
0000
1000
0000
0010
0000
0100
0000
0001
0000
1000
0010
1000
0010
,
1000
0000
1001
0000
0001
0001
1000
0010
,
1000
0000
0100
0000
0010
0000
0001
0000
1000
0010
1000
0000
0010
0000
0000
0000
,
1000
0000
0100
0000
1000
0000
0000
0000
0001
1000
0001
1000
0010
0000
0100
0000
,
0010
0000
0000
1000
0000
0000
0001
0000
0100
0000
0001
0000
0100
0000
0000
0010
0000
0000
1000
0000
0000
0100
0000
0000
,
1000
0000
0100
0000
0001
0000
0100
0000
1000
0000
0001
0100
0010
0100
0001
0000
,
1000
0000
0100
0000
1000
0000
0010
0100
0010
0000
0000
1000
0000
0000
0001
0000
,
1000
0000
0100
0000
0001
0000
0100
0000
1000
0010
1000
0010
0100
0000
0001
0000
,
1000
0000
1000
0000
0010
0000
0100
0000
0001
0010
0001
0010
0100
0000
1000
0001
,
2000
0000
3001
0100
0010
0100
0001
1000
,
0001
0000
0100
0000
0010
0000
0000
0000
1000
0000
0010
0000
1000
0001
1000
0001
,
10M0
0000
0000
0100
0000
0000
0010
0000
0000
0001
0000
0000
1000
0000
0001
0000
1000
0000
0000
0100
0000
0000
0001
0000
0000
0100
0000
0000
1000
0000
0001
0000
,
1000
0000
0000
0010
0000
0000
0001
0000
0000
0010
0000
0000
1000
0000
0010
0000
1000
0000
0000
0100
0000
0000
0001
0000
0000
0100
0000
0000
0010
0000
0001
0000
,
1000
0010
1000
0001
0100
0001
0100
0010
1000
0100
0010
0001
1000
0010
1000
0100
,
1000
0001
0010
0000
0001
1000
0010
0000
1000
0100
1000
0100
0010
0001
0100
0000
,
1010
0000
0000
0010
0000
0000
1000
0000
0000
0100
0000
0000
0010
0000
0001
0000
1000
0000
0000
0010
0000
0000
0100
0000
0000
0010
0000
0000
1000
0000
0001
0000
,
1000
0000
0000
0100
0000
0000
0010
0000
0000
0100
0000
0000
0010
0000
0001
0000
0100
0000
0000
0010
0000
0000
1000
0000
0000
0001
0000
0000
1000
0000
0001
0000
,
1000
0000
0000
0100
0000
0000
0001
0000
1000
0000
0000
0010
0000
0000
0001
0000
1000
0000
0000
0010
0000
0000
0001
0000
1000
0000
0000
0100
0000
0000
0010
0000
,
1000
0001
1000
0001
0100
0100
0010
0010
0100
0000
0001
0000
1000
0000
0000
0000
,
1M00
0000
0000
0010
0000
0000
0100
0000
0000
1000
0000
0000
0100
0000
0010
0000
,
1000
0000
0000
0100
0000
0000
0001
0000
0000
0100
0000
0000
1000
0000
0001
0000
,
1000
0010
1000
0010
0100
0001
0100
0001
1000
0000
0010
0000
1000
0000
0000
0000
,
1M01
0000
0000
0000
1000
0010
1000
0001
0100
0001
0010
0000
0001
0000
0000
0000
,
2002
0000
3003
0000
1000
0100
1000
0001
0100
0010
1000
0000
0001
0010
0100
1000
,
0010
0100
0001
0000
1000
0100
0010
0001
1000
0010
1000
0000
0001
0010
0100
1000
,
0001
0100
0001
0000
1000
0100
0010
0100
1000
0001
0100
0000
0010
1000
0100
1000
,
0001
0000
0010
0000
0100
0000
0000
0000
1000
0000
0010
0000
1000
0000
0001
0000
0400
0000
0000
0000
0000
0000
0000
0000
0301
1000
0001
1000
0100
0000
0000
0000
,
002M
0000
0000
0000
0031
0000
0000
0000
1000
0001
0000
1000
0010
0000
0100
0000
,
0002
0000
1003
0000
0001
0100
0010
0000
,
1020
0000
0000
0000
1030
0000
0000
0000
0001
0100
0001
0000
1000
0000
0100
0000
,
2000
0000
3001
0000
0100
0000
0010
1000
,
1020
0000
0130
0000
0210
0000
0301
0010
,
0012
0000
1003
0010
2010
0000
3001
1000
,
1002
0000
1003
0000
1010
0010
1000
0001
,
1002
0000
0103
0010
1010
1000
0001
1000
,
0001
0000
0000
0100
0000
0000
1000
0000
0001
0000
0000
0010
0000
0000
1000
0000
,
1000
0000
0000
0100
0000
0000
0010
0000
0001
0000
0000
1000
0010
0100
0001
0000
,
1000
0000
0000
0100
0000
0000
0001
0000
0001
0000
0000
0100
0000
0000
1000
0000
,
1000
0000
0000
0010
0000
0000
0001
0000
0010
0000
0000
1000
0010
0000
0100
0000
,
0001
0010
0001
0100
0010
1000
0100
1000
,
0001
0010
0100
1000
0001
0010
0100
1000
,
0001
0100
0001
0100
0010
1000
0001
0010
0100
1000
0100
0010
0001
1000
0100
1000
,
00M4
0000
0000
0000
0003
0000
0101
0000
M200
0000
0000
0000
0301
0000
0000
1000
,
0000
0000
0010
0000
1000
0100
0010
0001
1000
0000
0000
0000
1001
0000
0000
0001
,
0000
0000
0100
0000
0010
1000
0000
0010
1000
0000
0000
0000
1020
0000
0000
0000
,
1030
0100
0010
0001
1000
0010
0100
0001
0010
0000
0000
0100
1000
0000
0002
0000
,
0000
0103
0000
0000
0101
0000
0001
1000
0200
0000
0000
0000
0310
0000
0001
1000
,
0001
0000
0100
0000
0001
0010
0100
1000
0001
0000
0100
0000
0101
0000
0001
1000
,
0100
0000
0010
0000
0001
0100
0000
0000
0001
0010
0000
0000
0100
0000
1000
0000
,
0001
0000
1000
0000
0010
0100
0001
0100
0010
0000
1000
0000
0010
0000
1000
0100
,
0010
0001
1000
0000
0010
0000
0000
0000
1010
0000
1000
0000
0001
0000
0100
0000
,
1000
0000
0000
0100
0000
0000
0001
0000
0001
0000
1000
0000
0001
0000
0010
0000
,
1000
0000
0000
0010
0000
0000
0001
0000
4000
0000
0000
0000
3001
0000
0100
0000
,
0101
0000
0001
0000
0000
1000
0010
1000
0020
0000
0000
0000
0130
0000
0010
1000
,
0010
0000
1000
0000
0100
0000
0010
0000
0001
0000
0100
00M0
0100
0000
1000
0000
,
0001
0000
0010
0M00
0010
0000
1000
0000
0001
0000
0100
00M0
0100
0000
1000
0000
,
0001
0000
0010
0M00
0010
0000
1000
0000
0001
0000
0100
M000
0100
0000
0010
0000
,
0001
0000
0100
M000
0100
0000
1000
0010
1000
0000
0001
0000
0000
0100
0000
0000
,
0010
0000
1000
0000
1010
0000
0000
0000
0010
1000
0010
0000
1000
0100
0000
0010
,
0001
0000
1000
0100
1000
0000
0001
0000
1000
0010
1000
0000
0001
0100
0000
0001
,
0010
0000
0100
0000
1100
0000
1000
0000
0001
0100
0001
0000
1000
0010
0000
0100
,
0001
0000
0010
0000
0011
0000
0001
0000
0100
0000
0000
0000
0010
2000
0000
0000
,
3100
0000
0010
0000
0011
0000
0001
0000
1000
0010
1000
0000
0001
0000
0010
0000
,
1000
0010
0001
0100
0001
0100
1000
0100
,
0001
0000
0100
0010
0100
0000
0001
0000
1000
0000
0010
0100
0010
0000
1000
0000
,
0010
0000
1000
0000
1010
0000
0010
0000
0110
0000
0100
0000
0001
0000
1000
0100
,
0010
0001
1000
0010
1000
0000
0001
0000
1000
0000
0010
0000
1000
0100
0000
1000
,
0001
0000
0000
1000
0010
0000
0100
0000
0001
0000
1000
0000
0001
1000
0000
0001
,
0100
0000
0000
0010
1000
0000
0001
0000
1000
0100
1000
0000
0001
0200
0000
0000
,
0310
0000
1000
0000
1100
0000
0100
0000
0010
0001
0010
0000
0100
2000
0000
0000
,
3010
0100
0101
0001
1000
0010
1000
0100
,
1000
0100
0010
0001
1000
0010
0100
0001
1000
0000
0010
0100
0010
0000
1000
0001
,
1000
0010
0000
0000
0110
0000
0100
0000
0001
1000
0100
0000
1000
0000
0010
0000
,
0100
0020
0000
1030
0001
0000
1000
0010
,
0100
0001
0010
0001
1000
0000
0000
0000
1000
0000
0000
0100
0000
0000
0001
0000
,
1000
0000
0000
0010
0000
0000
0001
0000
1000
0000
0000
0100
0000
0000
0010
0000
,
0100
0000
0000
1000
0010
0100
0001
0000
1000
0000
0000
0100
0000
0000
0010
0000
,
0001
0000
0000
0100
0000
0000
0010
0000
1000
0000
0000
0001
0000
0000
1000
0000
,
0010
0000
0000
1000
0010
0000
0100
0000
0001
0000
1000
0000
0001
0000
1000
0000
,
0010
0100
0010
0100
0001
0010
0001
0010
,
0100
0000
1000
0000
0001
0000
1000
0000
0001
0010
0100
1000
0001
0100
0010
1000
,
0001
0010
0100
1000
0001
1000
0010
1000
0001
0000
0000
0000
0010
0000
0001
0000
,
1000
0001
1000
0000
2002
0000
0000
0000
,
3003
0000
0000
0000
;

//--------------- dance-single - XMOD BU+ RH XO JA FS ----------------
#NOTES:
     dance-single:
     XMOD BU+ RH XO JA FS:
     Challenge:
     18:
     1.144295,1.546648,0.769369,0.381089,0.938343,1114,1006,107,53,16,4,3,0,0,1.144295,1.546648,0.769369,0.381089,0.938343,1114,1006,107,53,16,4,3,0,0:
0000
0000
0000
0000
,
0000
0000
0000
0000
,
1M00
0001
0000
1000
0000
0100
0010
0000
0010
0001
0000
0100
0001
0000
0100
0000
,
0010
0000
1000
0000
0000
0000
0010
0000
1000
0000
0000
0000
0001
0000
1000
0000
0001
0000
0000
0010
0000
0000
0001
0000
0000
0100
0000
0000
0001
0000
1000
0000
,
0001
0000
0000
0100
0000
0000
0010
0000
0000
0000
1000
0000
0010
0000
0100
0000
0001
0000
0000
0010
0000
0000
0100
0000
0000
0000
1000
0000
0010
0000
0100
0000
,
0001
0000
0000
0001
0000
0000
1000
0000
0000
1000
0000
0000
0100
0000
0010
0000
0100
0000
0000
1000
0000
0000
0001
0000
0000
0000
0010
0000
0100
1000
0100
0000
,
0010
0000
0000
0010
0000
0000
0001
0000
0000
0001
0000
0000
1000
0000
0100
0000
1000
0000
0000
0010
0000
0000
0100
0000
0000
0001
0000
0000
0010
0000
0100
0000
,
0010
0000
0000
1000
0000
0000
0010
0000
0000
0001
0000
0000
1000
0000
0001
0000
1000
0000
0000
0010
0000
0000
0001
0000
0000
0010
0000
0000
1000
0000
0100
0000
,
1000
0000
0000
0001
0000
0000
1000
0000
0000
0000
0001
0000
0010
0000
0100
0000
1000
0000
0000
0010
0000
0000
0100
0000
0000
0000
0001
0000
0010
0000
0100
0000
,
0010
0000
0000
0001
0000
0000
1000
0000
0000
0100
0000
0000
1000
0010
0100
0001
1000
0000
0000
0000
1100
0000
0000
0000
0100
0000
0000
0000
0010
0000
0000
0000
,
0M01
0000
1000
0000
1000
0000
0000
0000
0010
0M00
0010
0000
0001
0000
1000
0000
,
0001
0000
0010
0000
0011
0000
0001
0000
1000
0000
0100
0000
1000
0010
0100
0001
,
1000
0000
0100
0000
0010
0000
0010
0000
0001
0000
1000
0001
1000
0000
0001
0000
,
1000
0100
0010
0010
0001
0010
1000
0010
,
0001
0000
0100
00M0
0100
0000
1000
0000
0100
00M0
0100
0000
0001
0000
0010
0000
,
0001
0000
0100
0000
0001
0000
1000
0000
0001
0000
0100
0000
0001
0010
0100
1000
,
0002
0000
0000
0000
0013
0000
0000
0000
0001
0000
0100
0000
0010
1000
0010
1000
,
0001
0010
0001
0011
,
0001
0000
0010
0M00
0010
0000
1000
0000
0001
0010
0001
0010
0001
0000
1000
0000
,
1000
0000
0000
0000
0000
0000
0100
0000
0000
0010
0000
0000
0100
0000
0000
0000
1000
0000
0000
0000
0001
0000
0000
0000
0100
0000
0000
0000
0000
0000
0001
0000
0000
0000
0000
0000
0010
0000
0000
M000
0000
0000
0010
0000
0000
0000
0000
0000
,
0100
0000
0001
0000
0010
0000
0100
0000
0010
0000
0001
0100
0001
0010
0001
0000
,
1000
0000
0010
0M00
0010
0000
0001
1000
0001
0000
0000
1000
0000
0000
0010
0000
,
1010
0000
1000
0000
0100
00M0
0100
0000
0001
0000
0100
0000
0001
0000
0100
0000
,
0001
0000
1000
0010
1000
0000
0100
0000
0010
0001
0010
0001
1000
0000
0001
1000
,
0020
0000
0000
0000
0130
0000
0001
1000
0001
0000
0100
0000
0010
1000
0010
1000
,
0010
0000
1000
0100
0010
0000
0001
0000
1000
0000
0001
0000
1000
0001
0010
0001
,
1M00
0000
0000
0010
0000
0000
1000
0000
0000
0100
0000
0000
1000
0000
0001
0000
1000
0000
0000
0010
0000
0000
0001
0000
0000
0010
0000
0000
1000
0000
0001
0000
,
1000
0000
0000
0100
0000
0000
0001
0000
0000
0100
0000
0000
1000
0000
0001
0000
0010
0000
0000
1000
0000
0000
0010
0000
0000
0001
0000
0000
0100
0000
0010
0000
,
1000
0000
0100
0000
0010
0000
0001
1000
0001
0000
0100
0000
0001
0010
0001
0010
0001
0000
0100
0000
0010
0000
1000
0100
1000
0000
0010
0000
0100
0000
0001
0000
,
1000
0000
0001
0010
0100
0000
0000
0010
0001
1000
0001
0000
0100
0000
0010
0000
1000
0001
1000
0001
1000
0001
1000
0001
0100
0010
0100
0000
0010
0000
1000
0000
,
1001
0000
0000
0001
0000
0000
0100
0000
0000
0010
0000
0000
1000
0000
0100
0000
1000
0000
0000
0010
0000
0000
0001
0000
0000
0010
0000
0000
1000
0000
0010
0000
,
0100
0000
0000
0001
0000
0000
0010
0000
0000
1000
0000
0000
0010
0000
0001
0000
0100
0000
0000
0010
0000
0000
1000
0000
0000
0100
0000
0000
0010
0000
0001
0000
,
1000
0000
0000
0010
0000
0000
0001
0000
1000
0000
0000
0100
0000
0000
0001
0000
1000
0000
0000
0010
0000
0000
0001
0000
1000
0000
0000
0100
0000
0000
0001
0000
,
1000
0000
0010
0000
1000
0000
0100
0000
1000
0000
1000
0000
0001
0000
0001
0000
0100
0000
0000
0000
0010
0000
1000
0000
0001
0000
0001
0000
1000
0001
0100
0001
,
10M0
0000
0010
0100
0010
0000
1000
0000
0010
0100
0010
0000
1000
0000
0010
0000
,
0100
0000
0001
0010
0001
0000
0100
0000
0001
1000
0001
0000
0100
0000
0010
0000
,
1000
0100
0010
0001
1000
0010
0100
0001
1000
0000
0001
0000
0100
0000
0000
0000
,
M1M1
0000
0000
0000
0100
0010
1000
0010
0100
0001
1000
0000
0001
0000
0000
0000
,
1001
0000
0000
0000
1000
0000
0001
0010
0001
0010
0001
0000
1000
0010
0100
0010
1000
0000
0000
0000
0010
0000
0100
0001
0010
0100
1000
0000
0000
0010
0100
0001
,
1000
0000
0000
0000
0100
0000
0010
0001
1000
0001
0010
0000
0000
0100
1000
0001
1000
0000
0010
0000
0100
0000
0001
0010
0100
1000
0001
0000
0000
0000
0100
0000
,
0001
0000
1000
0000
0000
0010
0000
0100
0001
0000
0000
0010
0000
0000
0100
1000
0100
0000
0010
0000
0000
0001
0100
0001
1000
0000
0000
0010
0000
0000
0100
0001
,
0100
0010
0100
0000
0000
0001
0000
0000
1000
0000
0000
0010
0000
0000
0100
0001
2000
0000
0000
0000
0000
0000
0000
0000
3001
0100
0010
1000
0001
0000
0000
0000
,
1MM2
0000
0000
0000
1003
0000
0010
0100
0010
1000
0010
0000
0100
0001
0010
0001
,
2000
0000
0000
0000
3001
0000
1000
0100
0010
0001
1000
0000
0001
0100
0001
0000
,
0201
0000
0000
0000
0310
0000
1000
0100
1000
0100
1000
0000
0001
0100
0001
0010
,
0002
0000
0000
0000
0103
0000
0010
1000
0010
0100
0010
0000
0100
0001
0010
0001
,
1000
0000
0000
0000
0001
0000
0000
0000
1002
0000
0000
0000
0103
0010
1000
0000
,
1020
0000
0000
0000
0130
0000
0001
0000
0201
0000
0000
0000
0310
1000
0001
0000
,
2001
0000
0000
0000
3010
0000
0000
0100
0001
0000
1000
0000
0001
0010
0001
0010
,
0200
0000
0000
0000
1300
0000
0001
0000
0021
0000
0001
0000
0031
0100
0010
0000
,
1010
0000
0000
1000
0000
0000
0010
0000
0001
0000
0000
1000
0000
0000
0100
0000
,
0001
0000
0000
1000
0000
0000
0010
0000
1000
0000
0000
0001
0100
0010
1000
0000
,
0001
0000
0000
0100
0000
0000
1000
0000
0001
0000
0000
0010
0000
0000
1000
0000
,
0001
0000
0000
0100
0000
0000
0010
0000
1000
0000
0000
0001
0100
0000
0010
0000
,
1000
0100
1000
0100
0010
0001
0010
0001
,
1000
0010
1000
0010
0100
0001
0100
0001
,
1000
0100
0010
0001
1000
0010
0100
0001
1000
0100
0010
0001
1000
0010
0100
0001
,
1000
0100
1000
0010
0100
0001
0010
0001
1000
0100
0010
0000
0011
0000
0000
0000
1M01
0000
0000
0000
1000
0000
0010
0000
1000
0000
0000
0000
0001
0000
0100
0000
,
00M0
0100
1000
0000
0001
0010
0100
1000
0001
0000
0100
0000
0101
0000
0001
0100
,
00M0
0100
1000
0000
0001
0010
0M00
0010
1000
0000
0001
0000
0101
0000
0100
0010
,
1000
0100
1000
0010
0100
0001
0100
0001
1000
0000
0000
0010
0100
0000
0001
0000
,
0000
1000
0000
0000
1001
0000
0001
1000
0040
0000
0000
0000
0130
0000
0001
0010
,
0M00
0010
1000
0000
0001
0100
0010
1000
0001
0000
1000
0000
1010
0000
0010
0100
,
0000
0100
0001
0000
0000
1000
0000
0000
0001
0000
0000
0000
1001
0000
1000
0010
,
0000
0010
0100
0000
0001
0000
1000
0100
0020
0000
0130
0000
0010
0000
0100
1000
,
0100
0000
0010
0000
0011
0000
0000
0000
1001
0000
0001
0000
0000
0100
0000
0000
,
1000
0000
0000
0100
0000
0000
0010
0M00
0010
0000
0001
0000
1000
0000
0000
0001
,
1000
0000
0000
0001
0000
0000
0100
00M0
0100
0000
0000
1000
0000
0000
0001
1000
,
0001
0000
0000
0100
0000
0010
1000
0001
0100
0000
0000
0010
0000
0000
1000
0001
,
2000
0000
0000
0000
3010
0000
0100
0000
0001
0000
0010
0M00
0010
0000
1000
0000
,
0001
0000
0100
00M0
0100
0000
1000
0000
0001
0000
0100
M000
0100
0000
0010
0000
,
0001
0000
0100
00M0
0100
0000
1000
0000
0001
0000
0010
0M00
0010
0000
1000
0000
,
0000
0000
0000
0010
0000
0000
0100
0000
0000
0000
0000
0000
0101
0000
0000
0000
0000
0000
0001
0000
0000
1000
0000
0000
0001
0000
0000
0000
0000
0000
1000
0000
0010
0000
1000
0000
0010
0000
0000
0100
0000
0000
0001
0000
0000
1000
0000
0000
,
0001
0010
0100
0000
0010
0000
0001
0000
1000
0010
1000
0010
1000
0000
0100
0010
,
0100
0000
0010
0001
2000
0000
3010
0000
0100
0001
0010
0001
1000
0200
0000
0000
,
0310
0000
0001
0000
0011
0000
0010
0000
0100
1000
0100
1000
0100
0010
0001
0000
,
1000
0000
0001
0000
0101
0000
0100
0000
0010
1000
0100
1000
0001
0010
0001
0000
,
1000
0000
0010
0000
1010
0000
1000
0000
0001
0010
0100
1000
0001
1000
0001
0000
,
1000
0000
0100
0000
1100
0000
1000
0000
0001
0010
0001
0000
1000
0010
1000
0010
,
0100
0000
0001
0000
0011
0000
0100
0000
1000
0100
0010
0000
0001
0100
0010
1000
,
0001
0000
0001
0000
0100
0000
0010
0000
1010
0000
1000
0000
0001
0000
1000
0100
,
0010
0001
1000
0000
0100
0000
0010
0000
0001
1000
0001
0000
1000
0100
0010
0001
,
1000
0010
0100
0001
1000
0000
0001
0000
1000
0010
1000
0000
0001
0010
0100
1000
,
0001
0100
0001
0010
0001
0000
0100
0000
0010
1000
0010
0000
1000
0100
0010
0001
,
1000
0001
0010
0001
1000
0000
0010
0000
1000
0100
0010
0000
0001
0100
0010
1000
,
0001
0000
0100
0000
0101
0000
0001
0000
1000
0100
0010
0001
1000
0010
1000
0100
,
1000
0100
0010
0001
1000
0010
0100
0001
1000
0010
1000
0001
0100
0010
0100
0001
,
1000
0010
0000
1000
0001
0000
0100
0010
0100
0000
0001
0000
1000
0020
0000
0000
,
0130
0000
0001
1000
0001
0000
0100
0000
0010
0000
0010
0000
1010
0000
1000
0001
,
0100
0010
1000
0001
1000
0000
0000
0000
1001
0000
0000
1000
0000
0000
0100
0000
,
0100
0000
0001
1000
0000
0000
0010
0000
0001
0000
0000
1000
0000
0000
0010
0000
,
0100
0000
0000
0001
0010
0001
0100
0000
0001
0000
0000
0100
0000
0000
1000
0000
,
0001
0000
0000
0010
0000
0000
1000
0000
0001
0000
0100
0010
0100
0000
0001
0000
,
1000
0000
0010
1000
0010
0000
1000
0000
0001
0000
0100
0000
0010
0000
0100
0000
,
0001
0010
0100
0010
0100
1000
0010
0100
,
0001
0000
0010
0000
0100
0000
1000
0000
0001
0010
0100
1000
0001
0100
0010
1000
,
0001
0010
0100
1000
0001
0100
0001
1000
0001
0000
1000
0100
1000
0010
0100
0001
,
1000
0010
0100
0000
0001
0000
0000
0000
1001
0000
0000
0000
0000
0000
0000
0000
;

//--------------- dance-double - XMOD XO+ FS BU+ ----------------
#NOTES:
     dance-double:
     XMOD XO+ FS BU+:
     Challenge:
     18:
     0,0,0,0,0:
00000000
00000000
00000000
00000000
,
00000000
00000000
00000000
00000000
,
00010000
00001000
00000000
00010000
00000000
00001000
01000000
00000000
00100000
10000000
00000000
00010000
00000000
01000000
00010000
01000000
,
00001000
00000000
00010000
00000000
00000000
00000000
00000100
00000000
00001000
00000000
00000000
00000000
00000001
00000000
00001000
00000000
00000001
00000000
00000000
00000010
00000000
00000000
00000100
00000000
00000000
00001000
00000000
00000000
00000100
00000000
00010000
00000000
,
00000100
00000000
00000000
00010000
00000000
00000000
00001000
00000000
00000000
00000000
00010000
00000000
00001000
00000000
01000000
00000000
00010000
00000000
00000000
10000000
00000000
00000000
00010000
00000000
00000000
00000000
10000000
00000000
01000000
00000000
00100000
00000000
,
00010000
00000000
00000000
00010000
00000000
00000000
01000000
00000000
00000000
01000000
00000000
00000000
00001000
00000000
00010000
00000000
00001000
00000000
00000000
00010000
00000000
00000000
00000010
00000000
00000000
00000000
00000100
00000000
00000001
00000010
00000001
00000000
,
00001000
00000000
00000000
00001000
00000000
00000000
00001000
00000000
00000000
00001000
00000000
00000000
00000100
00000000
00010000
00000000
00000100
00000000
00000000
00000100
00000000
00000000
00000100
00000000
00000000
00000100
00000000
00000000
00010000
00000000
00001000
00000000
,
00010000
00000000
00000000
00010000
00000000
00000000
00010000
00000000
00000000
00010000
00000000
00000000
00001000
00000000
01000000
00000000
00010000
00000000
00000000
00010000
00000000
00000000
00010000
00000000
00000000
00010000
00000000
00000000
10000000
00000000
00010000
00000000
,
10000000
00000000
00000000
01000000
00000000
00000000
00010000
00000000
00000000
00000000
00001000
00000000
00000010
00000000
00000001
00000000
00001000
00000000
00000000
00001000
00000000
00000000
00000010
00000000
00000000
00000000
00001000
00000000
00000100
00000000
00001000
00000000
,
00000001
00000000
00000000
00000100
00000000
00000000
00000010
00000000
00000000
00010000
00000000
00000000
00001000
00010000
00001000
00010000
00001000
00000000
00000000
00000000
00100000
00000000
00000000
00000000
00010000
00000000
00000000
00000000
10000000
00000000
00000000
00000000
,
10M10000
00010000
10000000
00000000
00100000
00100000
01000000
00001000
,
00010000
00000000
00010000
00000000
00001000
00000000
00001000
00000000
00010000
00000000
00000100
00000000
00001000
00000100
00001000
00000100
,
00010000
00000000
00000010
00000000
00000100
00000000
00001000
00000000
00000100
00000000
00000010
00000000
00001000
00000001
00001000
00000000
,
00000001
00000100
00001000
00010000
00100000
10000000
00010000
01000000
,
00100000
00010000
00100000
01000000
00001000
00010000
00001000
00000100
,
00000010
00000000
00000010
00000000
00000010
00000000
00000100
00000000
00001000
00000000
00000100
00000000
00000001
00001000
00000100
00000000
,
00001000
00000000
00001100
00001000
00000100
00000100
00010000
00001000
,
01000000
00100000
10000000
01000000
00100000
00000000
00110000
00000000
,
00010000
00000000
01000000
00M00000
01000000
00000000
10000000
00000000
00010000
01000000
00010000
01000000
00010000
00000000
01000000
00000000
,
00100000
10000000
00100000
10000000
00010000
00000000
00100000
00000000
00001000
000M0000
00001000
00000000
00000100
00000000
00001000
00000000
,
00000001
00000000
00000100
0000M000
00000100
00000000
00000010
00000000
00000001
00000000
00001000
00000100
00001000
00000010
00001000
00000000
,
00000001
00000000
00000100
00000000
00000010
00000000
00001000
00000100
00001000
00000000
00000100
00000000
00010000
00000000
00001000
00000000
,
01000000
00000000
00100000
00000000
01000000
00000000
00100000
00000000
10000000
00010000
10000000
00010000
01000000
00000000
00100000
00000000
,
01000000
00000000
01000000
00000000
00010000
00000000
00100000
00000000
00001000
00010000
00001000
00000000
01000000
00000000
00100000
00000000
,
20100000
00000000
30010000
00010000
00100000
01000000
10000000
00100000
,
01000000
00000000
00000000
00000000
00001000
00000000
00000000
00000000
00010000
00000000
00000000
00000000
00001000
00010000
00001000
00010000
,
00M00100
00000000
00000000
00010000
00000000
00000000
00000100
00000000
00000000
00001000
00000000
00000000
00000001
00000000
00000100
00000000
00000010
00000000
00000000
00001000
00000000
00000000
00000100
00000000
00000000
00010000
00000000
00000000
00001000
00000000
00010000
00000000
,
00100000
00000000
00000000
00010000
00000000
00000000
00001000
00000000
00000000
00010000
00000000
00000000
00001000
00000000
00000100
00000000
00001000
00000000
00000000
00010000
00000000
00000000
00000100
00000000
00000000
00001000
00000000
00000000
00000001
00000000
00001000
00000000
,
00000001
00000010
00000100
00001000
00010000
00100000
01000000
10000000
00100000
01000000
00010000
00100000
00001000
00010000
00000100
00001000
,
00000010
00000000
00000100
00000000
00000001
00000000
00001000
00000000
00000010
00000000
00001000
00000000
00000001
00000000
00001000
00000000
00000010
00000100
00000010
00000100
00000010
00000100
00000010
00000100
00000010
00001000
00000100
00000000
00001000
00000000
00000000
00000000
,
00001010
00000000
00000000
00000010
00000000
00000000
00010000
00000000
00000000
00001000
00000000
00000000
01000000
00000000
00100000
00000000
01000000
00000000
00000000
00001000
00000000
00000000
01000000
00000000
00000000
00100000
00000000
00000000
01000000
00000000
00010000
00000000
,
10000000
00000000
00000000
00100000
00000000
00000000
01000000
00000000
00000000
00010000
00000000
00000000
00100000
00000000
00001000
00000000
00100000
00000000
00000000
00001000
00000000
00000000
00010000
00000000
00000000
00000100
00000000
00000000
00001000
00000000
00000100
00000000
,
00001000
00000000
00000000
00000100
00000000
00000000
00000001
00000000
00000100
00000000
00000000
00001000
00000000
00000000
00010000
00000000
01000000
00000000
00000000
10000000
00000000
00000000
01000000
00000000
00100000
00000000
00000000
01000000
00000000
00000000
00010000
00000000
,
00001000
00000000
00000010
00000000
00000100
00000000
00001000
00000000
00010000
00000000
00010000
00000000
00010000
00000000
00010000
00000000
00001000
00000000
00000000
00000000
01000000
00000000
00000000
00000000
00100000
00000000
00000000
00000000
10000000
00010000
10000000
00010000
,
1000M000
01000000
00100000
00010000
00001000
00000100
00000010
00000001
,
00001000
00000100
00010000
00000100
00100000
00010000
00100000
00001000
,
00010000
00001000
00010000
00001000
00100000
00010000
01000000
00100000
10000000
00000000
00010000
00000000
10000000
00000000
00000000
00000000
,
2M020000
30030000
10000000
00010000
00100000
00010000
00100000
00000000
,
00110000
00010000
01000000
00100000
10000000
00100000
00000000
10000000
00010000
00000000
00100000
00010000
00000000
00100000
00000000
00100000
,
00010000
00000000
00000000
00000000
00100000
00000000
00001000
00000000
00010000
00000000
00000000
00001000
00000000
00000000
00010000
00000000
00000100
00000000
00001000
00000000
00000010
00000000
00000000
00000000
00000100
00000000
00000000
00000001
00000000
00000000
00000100
00000000
,
00000010
00000000
00010000
00000000
00000000
00001000
00000000
00000000
00010000
00000000
00000000
00000100
00000000
00000000
00001000
00000000
00000000
00000000
00000001
00000000
00000000
00001000
00000000
00000000
00000100
00000000
00000000
00001000
00000000
00000000
00000001
00000000
,
00001001
00000000
00001000
00000000
00000000
00000100
00000000
00000000
00010000
00000000
00000000
00001000
00000000
00000000
00010000
00000000
00022000
00000000
00000000
00000000
00033000
00000000
00000000
00000000
00010000
00001000
00010000
00001000
00010000
00000000
00000000
00000000
,
00012M00
00000000
00000000
00000000
01003000
00000000
00000000
00000000
00100000
00000000
00000000
10000000
00000000
00000000
00010000
00000000
,
20000000
00000000
30010000
00000000
01000000
00010000
00100000
00001000
,
00021000
00000000
00030100
00000000
00001000
00000100
00000001
00000100
,
00002000
00000000
00003010
00000000
00010000
00001000
01000000
00100000
,
10200000
00000000
10300000
00000000
10010000
00000000
10000000
00010000
,
10010000
00000000
01000000
00000000
01001000
00000000
00100000
00001000
,
00011000
00000000
00010000
00000000
00000100
00001000
00000010
00000100
,
00000120
00000000
00001030
00000001
00001001
00001000
00000010
00001000
,
00000001
00000000
00000000
00000010
00000000
00000000
00001000
00000000
00010000
00000000
00000000
01000000
00000000
00000000
10000000
00000000
,
10000000
00000000
00000000
00100000
00000000
00000000
00010000
00000000
00001000
00000000
00000000
00000100
00000001
00000100
00000001
00000000
,
00001000
00000000
00000000
00000010
00000000
00000000
00000001
00000000
00000001
00000000
00000000
00000010
00000000
00000000
00001000
00000000
,
00010000
00000000
00000000
01000000
00000000
00000000
10000000
00000000
01000000
00000000
00000000
00100000
00010000
00000000
01000000
00000000
,
00100000
00100000
10000000
10000000
00001000
00001000
00010000
00010000
,
00000100
00000100
00010000
00010000
00000010
00000010
00000100
00000100
,
00000001
00000010
00000100
00001000
00000001
00000100
00000010
00001000
00000001
00000010
00000100
00001000
00000001
00000100
00000010
00010000
,
M0001000
00010000
00001000
00010000
00001000
00010000
00001000
00010000
00001000
00100000
00010000
00000000
00110000
00000000
00000000
00000000
00010M00
00000000
00000000
00000000
10000000
00000000
00000000
00000000
11000000
00000000
00000000
00000000
01000000
00000000
00100000
00000000
,
00000000
00000000
00010000
00000000
01000000
00100000
01000000
00100000
01000000
00000000
00100000
00000000
10100000
00000000
10000000
00020000
,
00000000
00000000
01030000
00000000
00001000
00010000
00000000
00000000
00001000
00000000
00000000
00000000
00011000
00000000
00010000
00000100
,
00001000
00000001
00001000
00000100
00000010
00000001
00000100
00000010
00001000
00000000
00000000
00000001
00001000
00000000
00001000
00000000
,
00000000
00000100
00000000
00000000
00010100
00000000
00010000
00000000
00001000
00000000
00000000
00000000
01001000
00000000
00000000
01000000
,
00100000
00000000
10000000
00000000
00010000
00100000
01000000
10000000
00100000
00000000
00000000
00000000
10100000
00000000
10000000
00020000
,
00000000
00000000
01030000
00000000
00001000
00010000
00000000
00000000
00001000
00000000
00010000
00000000
00010100
00000000
00000100
00002000
,
00000000
00000000
00003010
00000000
00000100
00000001
00000010
00000100
00000010
00000000
00000100
00000000
00001000
00000000
00000100
00001000
,
00000100
00010000
00001000
00010000
00000100
00000000
00000000
00000000
00010000
00000000
00000100
0000M000
00000100
00000000
00000010
00000000
,
00001010
00000000
00000000
00001000
00000000
00000000
00000010
00000M00
00000010
00000000
00000001
00000000
00001000
00000000
00000100
00000000
,
00001100
00000000
00000000
00001000
00000000
00000000
00000100
00000000
00020000
00000000
00000000
00000000
00031000
00000000
00100000
00000000
,
00110000
00000000
00010000
00000000
00000000
10000000
00100000
01000000
00010000
00000000
00000000
00000000
10000000
00000000
00100000
10000000
,
00200000
00000000
00000000
00000000
10300000
00000000
10000000
00000000
00010000
00000000
01000000
00M00000
01000000
00000000
10000000
00000000
,
00010000
00000000
00100000
0M000000
00100000
00000000
10000000
00000000
10000000
00000000
00100000
0M000000
00100000
00000000
00010000
00000000
,
00001000
00000000
00000100
000000M0
00000100
00000000
00000001
00000000
00001000
00000000
00000100
000000M0
00000100
00000000
00000010
00000000
,
00001000
00000000
00000100
00000000
00010000
00000000
00010000
00001000
00010000
00000000
00000000
00000000
00001000
00000000
00100000
00000000
,
00010000
00000000
10000000
00000000
10010000
00000000
00000000
00000000
00010000
10000000
00010000
00000000
10000000
01000000
10000000
00000000
,
00010000
00000000
10000000
00010000
00000000
01000000
00010000
00000000
00100000
00001000
00100000
00000000
00002000
00000000
00000000
00000000
,
00013000
00000000
00000100
00001000
00000000
00000100
00001000
00000000
00000100
00001000
00000001
00000000
00000200
00000000
00000000
00000000
,
00000310
00000000
00000000
00000000
00001000
00000001
00001000
00000001
00000010
00000000
00000100
00000000
00001200
00000000
00000000
00000000
,
00001300
00000000
00000000
00000000
00001010
00000000
00000000
00000000
00000010
00010000
00000010
00000000
00010000
00002000
00000000
00000000
,
00013000
00000000
00001000
00000000
01000000
00000000
00100000
00000000
10000000
00010000
10000000
00000000
00010000
20000000
00000000
00000000
,
30100000
00000000
10000000
00010000
00000000
10000000
00100000
00000000
01000000
00000000
00001000
00000000
00010000
00000000
00000100
00000000
,
00010000
00000000
00000000
00000000
00011000
00000000
00000000
00000000
00010100
00000000
00010000
00000000
00000100
00000000
00001000
00000001
,
00001000
00000010
00000100
00000001
00000010
00000000
00000001
00000000
00000100
00000000
00000010
00000000
00010000
00001000
00010000
00000000
,
00001000
00000000
01000000
00100000
00000000
01000000
00100000
00000000
01000000
00010000
01000000
00000000
00100000
10000000
00100000
00000000
,
10000000
00000000
01000000
10000000
00000000
00010000
00100000
00000000
00001000
00000000
00001000
00000000
00010000
00001000
00010000
00000000
,
00001000
00000000
01000000
00001000
00000000
00100000
00001000
00000000
00010000
00000000
00000100
00000000
00001000
00000200
00000000
00000000
,
00001300
00000000
00000001
00000000
00001001
00000000
00001000
00000000
00000010
00001000
00000010
00000000
00001000
00000000
00000100
00000000
,
00001000
00000001
00001000
00000100
00010000
00001000
00010000
00000100
00001000
00000100
00001000
00000100
00010000
00000000
00001000
00000000
,
01000000
00100000
01000000
00000000
01010000
00000000
00010000
00000000
20000000
00000000
00000000
00000000
30020000
00000000
00030000
00000000
,
01010000
00000000
00000000
01000000
00000000
00000000
00001000
00000000
00010000
00000000
00001000
00000000
00010000
00000000
00000100
00000000
,
00001000
00000100
00010000
00001000
00010000
00000000
00000000
00000000
00001000
00000000
00000000
00100000
00000000
00000000
10000000
00000000
,
10000000
00000000
00000000
01000000
00000000
00000000
00010000
00000000
00001000
00000000
00000000
00000010
00000000
00000000
00000100
00000000
,
00001000
00000000
00000000
00000001
00001000
00000010
00001000
00000000
00000001
00000000
00000000
00000010
00000000
00000000
00001000
00000000
,
00010000
00000000
00000000
01000000
00000000
00000000
00100000
00000000
01000000
00000000
00000000
10000000
00000000
00000000
00100000
00000000
,
01000000
00000000
00000000
00010000
00000000
00000000
01000000
00000000
00010000
00000000
00100000
00000000
00001000
00000000
00010000
00000000
,
00000100
00001000
00000001
00000010
00000100
00001000
00000010
00000100
,
00000001
00000000
00001000
00000000
00000010
00000000
00001000
00000000
00000001
00000100
00000010
00001000
00000100
00010000
00001000
00010000
,
00001000
00100000
00010000
01000000
00100000
10000000
01000000
10000000
00100000
00000000
00000000
00000000
01000000
00000000
00000000
00000000
,
00001000
00010000
00001100
00000000
;
