#TITLE:君のハートにロックオン;
#SUBTITLE:;
#ARTIST:Dr.Honda;
#TITLETRANSLIT:Kimi no Heart ni Lock-On;
#SUBTITLETRANSLIT:;
#ARTISTTRANSLIT:;
#GENRE:;
#CREDIT:;
#MUSIC:Kimi no Heart ni Lock-On.ogg;
#BANNER:Kimi no Heart ni Lock-On.png;
#BACKGROUND:Kimi no Heart ni Lock-On-bg.png;
#CDTITLE:;
#SAMPLESTART:52.531;
#SAMPLELENGTH:7.385;
#SELECTABLE:YES;
#OFFSET:1.064;
#BPMS:0.000=130.000
,4.000=260.000
,100.000=130.000
,116.000=260.000
,172.000=130.000
,192.000=260.000
,224.000=130.000
,256.000=260.000
,384.000=130.000
,400.000=260.000
;
#STOPS:;
#BGCHANGES:;
#FGCHANGES:;

//--------------- dance-single - ----------------
#NOTES:
     dance-single:
     :
     Beginner:
     4:
     0.218,0.254,0.102,0.07,0:
0000
0000
0000
0000
,
1001
0000
0000
0000
,
1000
0000
0000
0000
,
0001
0000
0000
0000
,
0100
0000
0000
0000
,
0010
0000
0000
0000
,
1000
0000
0000
0000
,
0001
0000
0001
0000
,
0001
0000
1000
0000
,
0001
0000
1000
0000
,
0010
0000
1000
0000
,
0001
0000
0001
0000
,
0100
0000
0100
0000
,
0010
0000
0010
0000
,
1000
0000
0001
0000
,
1000
0000
0010
0000
,
1000
0000
0001
0000
,
2000
0000
0000
3000
,
0020
0000
0000
0030
,
0200
0000
0000
0300
,
0002
0000
0000
0003
,
1000
0000
1000
0000
,
0020
0000
0030
0000
,
0100
0000
0100
0000
,
0002
0000
0000
0003
,
1001
0000
1000
0000
,
0001
0000
0000
0010
,
0010
0000
0100
0000
,
1000
0000
0000
0000
,
1001
0000
0000
0000
,
1000
0000
0000
0000
,
0010
0000
0000
0000
,
0100
0000
0001
0000
,
1000
0000
0010
0000
,
0010
0000
1000
0000
,
0001
0000
1000
0000
,
0010
0000
1000
1000
,
1000
0000
0001
0000
,
0100
0000
0100
0000
,
0010
0000
0010
0000
,
1000
0000
1000
0000
,
0001
0000
1000
0000
,
0010
0000
0010
0000
,
1001
0000
0001
0000
,
1001
0000
0000
0000
,
0000
0000
0000
0000
,
0000
0000
0000
0000
,
1000
0001
1000
0000
,
0110
0000
0000
0000
,
0000
0000
1000
0000
,
0001
0000
0001
0000
,
1000
0000
1000
0000
,
0010
0000
0010
0000
,
0100
0000
0100
0000
,
0002
0000
0000
0000
,
0000
0000
0003
0000
,
1001
0000
1000
0000
,
0001
0000
1000
0000
,
0010
0000
0100
0000
,
0001
0001
0001
0000
,
1001
0000
1000
0000
,
0010
0000
0100
0000
,
0001
0000
1000
0000
,
0001
0001
0001
0000
,
1001
0000
0000
0000
,
0001
0000
0000
0000
,
1000
0000
0000
0000
,
0100
0000
0000
0000
,
0001
0000
0000
0000
,
0001
0000
0000
0000
,
1000
0000
1000
0000
,
1000
0000
0001
0000
,
1000
0000
0010
0000
,
1000
0000
0010
0000
,
0100
0000
0001
0000
,
0100
0000
0001
0000
,
0100
0000
0000
0000
,
0001
0000
0000
0000
,
1000
0000
1000
0000
,
1000
0000
0000
0000
,
1001
0000
0000
0000
,
1000
0000
0000
0000
,
0001
0000
1000
0000
,
0100
0000
0000
0000
,
1000
0000
0000
0000
,
0001
0000
0000
0000
,
1000
0000
0010
0000
,
1000
0000
0000
0000
,
0001
0001
0001
0000
,
1000
1000
1000
0000
,
0010
0010
0010
0000
,
0100
0000
0100
0000
,
0001
0000
0000
0000
,
1000
0000
0000
0000
,
0010
0000
0010
0000
,
0010
0000
0010
0000
,
1001
0000
1000
0000
,
0001
0000
0000
0010
,
0010
0000
1000
0000
,
1000
0000
0000
0000
,
1001
0000
0000
0000
,
1000
0000
0000
0000
,
0001
0000
0000
0000
,
1000
0000
0000
0000
,
0010
0000
1000
0000
,
0001
0000
0100
0000
,
0010
0000
0010
0000
,
0010
0000
2002
0000
,
3003
0000
0000
0000
;

//--------------- dance-single - ----------------
#NOTES:
     dance-single:
     :
     Easy:
     8:
     0.337,0.38,0.094,0.211,0:
0000
0000
0000
0000
,
1001
0000
0000
0000
,
1000
0000
0010
0000
,
1000
0000
0000
0000
,
0001
0000
0101
0000
,
0010
0000
0000
0000
,
1000
0000
0010
0000
,
1000
0000
1000
0000
,
0001
0000
0001
0000
,
1000
0010
1000
0000
,
0001
0100
0001
0000
,
1000
0010
1000
0000
,
0001
1000
0001
0000
,
1000
0010
1000
0000
,
0001
0100
0001
0000
,
1000
0010
1000
0000
,
0001
0100
0001
0000
,
2000
0000
3020
0000
,
0230
0000
0302
0000
,
0023
0000
0230
0000
,
2300
0000
0000
0000
,
3002
0000
0203
0000
,
0302
0000
2003
0000
,
3002
0000
0023
0000
,
0230
0000
1300
0000
,
10M1
0000
1000
0000
,
0010
0000
0000
0010
0000
0000
1000
0000
,
0001
0000
0000
0000
,
1000
0000
0000
1000
0000
0000
1000
0000
,
1M01
0000
1000
0001
,
1000
0000
0010
1000
,
0010
0000
1000
0001
,
1000
0001
0100
0001
,
1000
0000
0010
1000
,
0010
0000
1000
0001
,
2000
0000
3020
0000
,
0230
0000
0301
1000
,
0001
0000
1000
0000
,
0010
0000
1000
0000
,
0001
0000
0001
0000
,
1000
0000
0010
0000
,
1000
0000
0001
0100
,
0010
0000
0100
0001
,
M100
0000
0001
1000
,
1001
0000
0000
1000
0000
0000
0000
0000
,
0001
0000
1000
0000
,
1000
0000
0001
0000
,
1000
0010
1000
0001
,
1M01
0000
0010
0000
,
1000
0000
0001
0000
,
1000
0000
0010
0000
,
1000
0001
1000
0001
,
1000
0000
0010
0000
,
1000
0000
0001
0000
,
1001
0000
0000
0000
,
1000
0000
0001
0000
,
1M01
0000
1000
0000
,
0001
0000
1000
0000
,
0010
0000
1000
0000
,
0010
0010
0010
0000
,
0200
0000
0000
0000
,
0302
0000
0000
0000
,
2003
0000
0000
3000
,
0001
1000
0001
1000
,
10M1
0000
1000
0010
,
1000
0000
0001
0100
,
0001
0000
1000
1000
,
0001
0000
1000
1000
,
0010
0000
1000
0001
,
0100
0000
0100
0001
,
1000
0000
0010
0000
,
1000
0000
0001
0100
,
0001
1000
0001
0100
,
0001
0000
1000
0010
,
1000
0000
0001
0100
,
0001
0000
1000
0000
,
1001
0000
0010
1000
,
0000
0000
1000
0001
,
1000
0000
0001
0000
,
1000
0000
0001
0000
,
1001
0000
1000
0000
,
0010
0000
0100
0000
,
0001
0000
1000
0000
,
0010
0000
0100
0000
,
0001
0000
0010
0000
,
0100
0000
1000
0000
,
0001
0000
0100
0000
,
0010
0000
1000
0000
,
0001
0010
0001
0010
,
0001
1000
0001
1000
,
0100
1000
0100
1000
,
0001
1000
0001
1000
,
0001
0100
0001
0100
,
0001
0010
0001
0010
,
0002
0000
2003
0000
,
3020
0000
0230
0000
,
M301
0000
0100
0000
,
0010
0000
0000
1000
,
0001
0000
1000
0000
,
0010
0000
0000
0010
0000
0000
1000
0000
,
00M1
0000
1000
0000
,
0010
0000
0100
0000
,
0100
0000
0001
0000
,
1000
0000
0010
0000
,
1000
0001
1000
0010
,
1000
0010
1000
0001
,
2000
0000
3002
0000
,
0203
0000
0310
1000
;

//--------------- dance-single - XMOD ----------------
#NOTES:
     dance-single:
     XMOD:
     Medium:
     12:
     0.619,0.675,0.195,0.414,0.18:
0000
0000
0000
0000
,
1M01
0000
0000
0001
0000
0010
0000
0100
,
0000
1000
0010
0000
0100
0000
0000
0000
,
1001
0000
0000
1000
0000
0100
0000
0010
,
0000
0001
1000
0000
2001
0000
0000
0000
,
3001
0000
0000
0010
0000
0100
0000
0010
,
0000
0001
1000
0000
0001
0000
1000
0000
,
0010
2000
3001
0200
,
0301
0010
0100
1000
,
1001
0001
0010
0010
,
0100
0100
1000
1000
,
0001
0100
0001
0100
,
0001
1000
0002
0000
,
1003
0100
1000
0100
,
0010
0001
0010
0001
,
0100
0010
0100
0010
,
1000
0001
1000
0010
,
2000
0000
3002
0000
,
0023
0000
0230
0000
,
2300
0000
3002
0000
,
0023
0000
0230
0000
,
1300
0010
1000
0100
,
0010
0001
0010
0001
,
1000
0010
1000
0001
,
1000
0100
1000
0001
,
10M0
0000
0000
0100
0000
0010
0000
0000
0001
0000
0000
0010
0000
0100
0000
0000
,
1000
0000
0000
0100
0000
0000
2000
0000
0000
0000
0100
0000
3100
0000
0000
0000
,
1001
0000
0000
1000
0000
0100
0000
0000
0010
0000
0000
0001
0000
0001
0000
0000
,
1000
0000
0000
1000
0000
0000
0020
0000
0000
0000
0130
0000
0001
0000
0000
0000
,
1MM1
0000
0001
0100
0001
0000
0100
0000
,
0001
0000
1000
0100
1000
0000
0100
0000
,
1000
0000
0001
0010
0001
0000
0010
0001
,
0010
0100
1000
0001
,
1000
0200
0320
0031
,
0100
0020
2030
3001
,
2002
3003
0202
0303
,
2020
3030
1000
0001
,
1001
0000
1000
0010
0100
0000
0001
0000
,
0100
0001
1000
0001
,
0100
0000
0010
1000
0010
0000
0100
0001
,
0100
0000
0010
1000
0010
0000
0100
0000
,
0001
2000
0100
0100
,
0000
0001
3001
1001
,
0M01
0000
0000
0010
0000
0000
0001
0000
0002
0000
0000
0000
1003
0000
0000
0000
,
1001
0000
1000
0000
0100
0000
0000
0010
0000
0000
0001
0000
1000
0000
0000
0010
,
0000
0000
1000
0000
0100
0000
0100
0000
0010
0000
0001
0000
0010
0000
0000
0100
,
0000
0000
1000
0000
0001
0000
0000
0100
0000
0000
0010
0000
1000
0000
0001
0000
,
1000
0001
0100
0010
1000
0100
0010
0001
,
1M01
0000
0001
0000
0010
0001
0010
0001
,
0000
0000
1000
0000
0100
0010
0100
0010
,
0100
1000
0100
0010
,
0001
0010
0001
1000
,
0001
0000
0010
0000
0001
1000
0001
0000
,
1000
0000
0001
0000
0010
0001
0010
0001
,
0020
0000
0000
0000
,
0031
0001
0100
0001
,
1M01
0000
0000
1000
0010
0000
0000
0100
,
0001
0000
0000
0100
0000
0010
0000
0000
2000
0000
0000
0000
3000
0000
0001
0000
,
0200
0000
0000
0000
0300
0000
0001
0000
1000
0001
0000
1000
0000
0000
1000
0100
,
0010
0000
0000
0000
0000
0000
0001
0000
0000
0000
0000
0000
1000
0000
0000
0000
0010
0000
0000
0000
1000
0000
0000
0000
0010
0000
0000
0000
0000
0000
0000
0000
0000
0000
0000
0000
0000
0000
0000
0000
0000
0000
1000
0000
0000
0001
0000
0000
,
2000
0000
0000
0000
3000
0000
0001
0100
0001
0000
0000
0000
0000
0000
0001
0000
,
0100
0000
0010
1000
0000
0001
0000
1000
0010
0000
0000
0000
0000
0000
0100
0001
,
0100
0000
0000
0000
0000
0000
0010
1000
0010
0000
0000
1000
0000
0000
0000
0000
,
0001
0100
0010
0100
0001
0100
0010
1000
,
0M01
1000
0001
1000
,
0001
0100
0100
0010
,
0010
1000
1000
0010
,
0100
0001
0100
0010
,
2000
3002
0023
0130
,
1100
2000
3002
0023
,
0032
0103
0010
0010
,
1000
0001
1000
0001
,
1001
0000
1000
0000
0010
0000
1000
0100
,
0000
0000
1000
0000
0100
0000
0010
0001
,
0000
0000
0001
0000
1000
0100
1000
0000
,
0001
0010
0001
1000
,
1001
0002
0100
0103
,
0101
0020
1030
0001
,
1010
0000
0000
0101
0000
0000
0001
1000
,
0002
1003
0020
0030
,
1001
0000
1000
0000
0001
0000
1000
0010
,
1000
0000
0000
0001
,
1000
0000
0010
1000
0000
1000
0000
1000
,
0001
0000
0000
0000
0000
0000
1000
0010
,
1000
0000
0000
0000
0000
0000
0001
1000
,
0001
1000
0000
0010
0000
0000
1000
0001
,
1000
0000
0000
0002
0000
0000
1003
0000
0010
0000
1000
0000
,
0100
1000
0001
1000
,
2002
0000
0000
0000
3003
0000
0001
0010
,
0200
0000
0000
1000
,
1300
0000
0001
0100
0000
0100
0000
0200
,
0002
0000
0000
0000
0303
0000
1000
0100
,
0020
0000
0000
0000
0030
0000
0001
0010
,
0200
0000
0000
2300
0000
0000
3001
0000
,
0001
0100
0010
1000
,
0001
0100
0010
1000
,
10M1
0000
0000
0001
0000
0001
0000
0000
1000
0000
0000
0001
0000
1000
0000
0000
,
0001
0000
0000
0010
0000
0000
0200
0000
0000
0000
0010
0000
0310
0000
0000
0000
,
0101
0000
0000
0001
0000
1000
0000
0000
0001
0000
0000
0010
0000
0001
0000
0000
,
0100
0000
0000
0010
0000
0000
0100
0000
0000
0000
0010
0000
1000
0000
0001
0000
,
1M01
0000
1000
0000
0001
0100
0001
0000
,
1000
0000
0100
0000
0010
0001
0010
0000
,
0001
0000
1000
0000
0001
0100
0001
0100
,
0010
1000
0010
1000
0001
0010
0001
0010
,
0001
1000
0100
0010
,
0001
1000
0010
0100
,
0002
1003
0010
0100
,
0001
1000
0010
0010
;

//--------------- dance-single - XMOD BU ----------------
#NOTES:
     dance-single:
     XMOD BU:
     Hard:
     16:
     0.829,0.93,0.187,0.383,0.527:
0000
0000
0000
0000
,
1M01
0000
0001
0010
0000
0100
0000
1000
,
0000
0100
0010
0000
0001
0000
1000
0000
,
1010
0000
1000
0010
0000
0100
0000
0001
,
0000
1000
0001
0000
2001
0000
0000
0000
,
3001
0000
1000
0010
0000
0100
0000
0010
,
1000
0001
0010
0100
,
1000
0002
1003
0200
,
1300
0010
1000
0000
0001
0000
0001
0000
,
1001
0000
1000
0100
0000
0100
0010
0000
0010
0001
0000
0001
,
0100
0000
0100
0010
0000
0010
1000
0000
1000
0001
0000
0001
,
1000
0000
1000
0010
0000
0010
1000
0000
1000
0010
0000
0010
,
0100
0000
0100
0001
0000
0001
2000
0000
0000
0000
0000
0000
,
3001
0100
0001
0100
0000
0000
0010
0000
0000
1000
0000
0000
,
0001
0100
0010
0100
0000
0000
0001
0000
0000
1000
0000
0000
,
0001
0100
0001
0100
0000
0000
0010
0000
0000
1000
0000
0000
,
0001
1000
0001
1000
0000
0000
0100
0000
0000
0010
0000
0000
,
0002
0103
0020
1030
,
0200
0310
0002
0103
,
0020
1030
0200
0310
,
0200
1300
0200
0310
,
0001
1000
0001
1000
0000
0000
0001
0000
0000
0100
0000
0000
,
0010
1000
0010
1000
0000
0000
0001
0000
0000
0100
0000
0000
,
0010
1000
0010
1000
0000
0000
0010
1000
0001
1000
0000
0000
,
0001
0100
0010
1000
0000
0000
0001
0010
0100
1000
0000
0000
,
M001
0000
0000
0100
0000
0010
0000
0000
1000
0000
0000
0010
0000
0100
0000
0000
,
0001
0000
0000
0100
0000
0000
0002
0000
0000
0000
0100
0000
0103
0000
0000
0000
,
1001
0000
0000
0001
0000
0100
0000
0000
0010
0000
0000
1000
0000
1000
0000
0000
,
0001
0000
0000
0001
0000
0000
0020
0000
0000
0000
0130
0000
1000
0000
0001
0000
,
1MM1
0000
1000
0100
0010
0100
1000
0100
,
0010
0000
0001
0100
0001
0100
0010
1000
,
0002
0000
1003
0010
1000
0010
1000
0010
,
1000
0001
0100
0001
1000
0100
0010
0000
,
0011
0002
2003
3100
,
1100
0020
0032
2003
,
3001
0000
0000
1000
0100
0010
0100
0000
0000
1000
0100
0010
,
0100
1000
0100
1000
,
1100
0000
0001
0010
0100
1000
0001
0100
,
0010
0000
1000
0001
0010
0100
1000
0001
,
0100
0000
0010
1000
0010
1000
0001
0100
,
0010
0100
0001
1000
0100
0010
0001
0100
,
0001
0000
0000
1000
0100
1000
0100
0000
0000
0010
0000
0000
,
0001
0000
0000
1000
0001
1000
0001
0000
0000
1000
0000
0000
,
00M1
0000
1000
0100
0000
0010
0001
1000
0002
0000
0000
0000
1003
0000
0000
0000
,
1001
0000
1000
0000
0100
0000
0010
0001
0000
0010
0001
0000
1000
0000
0100
0010
,
0000
0100
0010
0000
0001
0000
0100
0000
0010
1000
0010
0000
1000
0001
1000
0001
,
0000
0000
1000
0000
0001
0100
0001
0100
0000
0000
0010
0000
1000
0000
0001
0000
,
1000
0000
0000
0001
0100
0001
0100
0000
0000
0010
1000
0010
1000
0000
0000
0100
0000
0000
0010
0000
0000
0001
0000
0000
,
1M00
0001
0100
0010
1000
0100
0010
0100
,
0000
1000
0001
0100
0001
0010
0100
1000
,
0002
0000
0000
1003
0100
1000
0100
0000
0000
0010
0001
0010
,
0001
0010
0001
1000
0001
1000
0010
1000
,
0010
0000
1000
0100
0010
0100
0010
0001
,
0000
1000
0001
0100
0010
0100
0001
0000
,
1001
0000
1000
0100
0010
0000
0001
0010
,
0100
0000
1000
0010
1000
0001
0010
0000
,
M10M
0000
0000
0000
0000
0000
1000
0010
1000
0000
0000
0000
0000
0000
0001
0000
,
0001
0000
1000
0100
0000
0010
0000
0100
2000
0000
0000
0000
3000
0000
0001
0100
,
0002
0000
0000
0000
0003
1000
0010
1000
0001
1000
0000
0001
0000
0000
0001
0100
,
0010
0000
0000
0000
0000
0000
1000
0000
0000
0000
0000
0000
0001
0000
0000
0000
0010
0000
0000
0000
0001
0000
0000
0000
0010
0000
0000
0000
0000
0000
0000
0000
0000
0000
0000
0000
0000
0000
0000
0000
0000
0000
0001
0000
0000
1000
0000
0000
,
0002
0000
0000
0000
0003
0000
1000
0100
1000
0000
0000
0000
0000
0000
1000
0000
,
0100
0000
0010
0001
0000
1000
0000
0001
0010
0000
0000
0000
0000
0000
0100
1000
,
0100
0000
0000
0000
0000
0000
0010
0001
0010
0000
0000
0001
0000
0000
1000
0100
,
1000
0010
0100
0001
0010
0001
1000
0100
0010
0001
1000
0001
0100
0010
1000
0100
,
100M
0000
0001
1000
0001
0100
0001
1000
,
0001
0000
1000
0100
0010
0100
1000
0100
,
1000
0000
0001
0010
0001
0100
0010
1000
,
0100
1000
0001
0010
0100
1000
0100
0010
,
0002
2003
3020
0130
,
0101
0002
2003
3020
,
2030
0000
0000
3100
0010
0100
0010
0000
0000
0001
1000
0010
,
1000
0001
1000
0001
,
1001
0000
1000
0010
0100
0001
1000
0100
,
0000
1000
0001
1000
0001
0100
0010
0100
,
0000
0001
0100
0010
1000
0100
0010
0001
,
0010
0001
1000
0010
1000
0010
1000
0000
,
1001
2000
0100
3100
,
1100
0020
0031
1000
,
0001
0000
0001
0010
0000
0100
1000
0001
,
2000
0000
3001
0100
0020
0000
0030
0000
,
1001
0000
0001
0000
1000
0000
0001
0010
,
0100
1000
0001
0000
1000
0000
0001
0010
,
0001
0000
1000
0100
0000
0100
0000
0100
,
1000
0001
0010
0000
0001
0000
1000
0010
,
1000
0000
0001
1000
0001
0000
1000
0100
,
0010
0001
0000
2000
0000
0000
3001
0100
,
0010
0000
0000
2000
0000
0000
3001
0000
0010
0000
0001
0000
,
0010
0001
0100
0010
1000
0000
0001
0000
,
2002
0000
0000
0000
3003
0000
1000
0100
,
0020
0000
0000
0001
,
0031
0000
1000
0010
0000
0010
0000
0020
,
2000
0000
0000
0000
3030
0000
0001
0010
,
0200
0000
0000
0000
0300
0000
1000
0100
,
0020
0000
0000
0032
0000
0000
0103
0010
,
1000
0010
1000
0010
0000
0000
0100
0001
0100
0001
0000
0000
,
1000
0010
1000
0010
0000
0000
0100
0001
0100
0001
0000
0000
,
10M1
0000
0000
1000
0000
1000
0000
0000
0001
0000
0000
1000
0000
0001
0000
0000
,
1000
0000
0000
0100
0000
0000
0020
0000
0000
0000
0100
0000
0130
0000
0000
0000
,
1010
0000
0000
1000
0000
0001
0000
0000
1000
0000
0000
0100
0000
0010
0000
0000
,
0001
0000
0000
0100
0000
0000
0010
0000
0000
0000
0102
0000
0003
0000
1000
0000
,
10M1
0000
0001
0010
0001
0010
0100
0010
,
0000
0001
0100
0010
1000
0010
0100
0001
,
0000
1000
0100
0010
0001
0100
0010
1000
,
0010
0100
0001
0010
0100
1000
0001
0000
,
1001
1000
0100
0010
,
0011
0001
1000
0100
,
2000
0000
0000
3001
0100
0001
0100
0000
0000
0010
1000
0010
,
1000
0000
0000
0001
0100
0001
0100
0010
0100
0001
0100
0001
,
1000
0000
0000
0000
;

//--------------- dance-single - XMOD STR XO+ SJ BU ----------------
#NOTES:
     dance-single:
     XMOD STR XO+ SJ BU:
     Challenge:
     19:
     1,1,0.148,0.586,1:
0000
0000
0000
0000
,
1MM1
0000
0001
1000
0000
1000
0000
1000
,
0001
0010
0100
0000
1000
0000
0001
0010
,
0001
0000
1000
0010
0000
0010
0000
0010
,
1000
0010
1000
0001
2000
0000
0000
0000
,
3001
0000
1000
0010
0000
0010
0000
0010
,
1000
0001
0010
0000
0100
0000
0100
0000
,
1000
0002
1003
0200
,
1300
0010
1000
0000
0001
0000
0001
0000
,
1000
0100
0010
0001
1000
0010
0100
0001
0010
0100
1000
0010
,
0100
0001
1000
0100
0010
0100
1000
0001
0010
0100
1000
0001
,
0100
0001
1000
0100
0010
0001
1000
0010
1000
0001
0010
0100
,
0010
0001
1000
0010
0100
0001
1000
0100
0010
0100
1000
0001
,
0100
0001
0010
0100
1000
0100
0010
0001
1000
0010
1000
0100
,
0010
0001
0100
0010
1000
0001
0010
0100
1000
0010
0100
0001
,
1000
0100
0010
0001
1000
0010
0100
0001
0010
0100
1000
0001
,
0010
0001
1000
0010
0100
0001
0010
0100
1000
0001
0100
0001
,
0010
0001
1000
0100
0010
0001
1000
0010
0100
0001
0010
0100
,
1000
0010
0100
0001
1000
0100
0010
0001
1000
0010
1000
0001
,
0010
0100
1000
0010
0100
0001
0100
0010
1000
0001
0010
0100
,
1000
0010
0100
0001
1000
0100
0010
0001
1000
0010
1000
0001
,
0010
0001
0100
0010
1000
0001
0010
0100
1000
0001
0100
0010
,
1000
0100
0010
0001
1000
0010
1000
0001
0010
0100
1000
0001
,
0100
0010
1000
0100
0010
0001
1000
0010
1000
0001
0010
0100
,
1000
0001
0100
0001
1000
0100
0010
0001
0100
0010
1000
0001
,
10M0
0000
0000
0001
0000
0100
0000
0000
0101
0000
0000
0010
0000
1000
0000
0000
,
0001
0000
0000
1000
0000
0000
2000
0000
0000
0000
0100
0000
3100
0000
0000
0000
,
1001
0000
0000
1000
0000
0100
0000
0000
1100
0000
0000
1000
0000
0001
0000
0000
,
1001
0000
0000
1000
0000
0000
0020
0000
0000
0000
0130
0000
0002
0000
1003
0000
,
2MM1
0000
3001
0100
1000
0100
0001
0100
,
0020
0000
1030
0100
0001
0100
0010
0001
,
2000
0000
3001
0010
0001
0010
1000
0010
,
0001
0100
1000
0100
0001
0100
0010
1000
,
1M1M
0000
0000
1000
0100
1000
0001
1000
0100
1000
0001
1000
,
0010
0000
0000
0100
0001
0100
0001
1000
0001
0010
0001
0010
,
0002
0000
0000
1003
0100
0010
0002
0000
0000
1003
0100
0010
,
0002
0000
0000
1003
0100
0010
0001
0100
0010
1000
0100
0010
,
0002
0000
1003
0010
0100
0001
1000
0100
,
0010
0010
0001
1000
0010
0100
0001
1000
,
0200
0000
0310
0001
0010
0001
1000
0100
,
0001
0100
1000
0001
0100
0010
1000
0100
,
1000
0000
0001
0100
0010
1000
0100
0010
0001
1000
0001
0100
,
0010
0000
1000
0010
0100
0001
0100
0010
1000
0001
0010
0001
,
2M00
0000
3001
0200
0000
0310
1000
0001
2000
0000
0000
0000
3000
0000
0000
0000
,
1001
1000
0001
1000
0010
0100
0001
0100
0000
0010
1000
0100
0010
0001
0100
0010
,
0000
1000
0100
0010
0001
1000
0010
0100
0001
0001
1000
0010
0100
0100
0001
1000
,
0002
0103
0010
1000
0100
1000
0001
1000
0000
0001
0100
1000
0100
0001
0100
0010
,
2000
0000
0000
0000
0000
0000
3001
0000
0010
0000
0100
0000
2000
0000
0000
0000
0000
0000
3001
0000
0010
0000
0100
0000
1000
0000
0000
0010
0000
0000
0100
0000
0000
0001
0000
0000
1000
0000
0000
0001
0000
0000
1000
0000
0000
0000
0000
0000
,
1M01
0001
0100
0010
1000
0100
0010
0100
,
0100
1000
0001
0100
0001
0010
0100
1000
,
0002
0000
0000
1003
0100
0010
0002
0000
0000
1003
0100
0010
,
0001
0000
0100
0000
0010
0000
0100
0000
0001
0000
0100
0000
0001
1000
0001
1000
,
0001
0000
1000
0100
0001
0100
0010
0001
,
1000
1000
0001
0100
0010
0100
0001
0100
,
0010
0100
0001
0010
0100
0010
0001
1000
,
0100
0010
0001
1000
0001
0100
0001
1000
,
1MM1
0000
0000
0000
0000
0000
0001
0010
0001
0000
0000
0000
0000
0000
1000
0000
,
1000
0000
0001
0100
0000
0010
0000
0100
0002
0000
0000
0000
0003
0000
1000
0100
,
2000
0000
0000
0000
0000
0000
0000
0000
3000
0000
0001
0010
0001
0000
0010
0000
0001
0000
1000
0000
0000
0000
1000
0000
0000
0000
0000
0000
1000
0000
0001
0010
,
0001
0000
0000
0000
0000
0000
0100
0000
0000
0000
0000
0000
0010
0000
0000
0000
0010
0000
0000
0000
0010
0000
0000
0000
1000
0000
0000
0000
0000
0000
0000
0000
0000
0000
0000
0000
0000
0000
0000
0000
0000
0000
0001
0000
0000
1000
0000
0000
,
2002
0000
0000
0000
3003
0000
1000
0100
0010
0000
0000
0000
0000
0000
0001
0000
,
1000
0000
0010
0100
0000
0001
0000
0100
0010
0000
0000
0000
0000
0000
1000
0001
,
0100
0000
0000
0000
0000
0000
0100
0001
2000
0000
0000
3002
0000
0000
1003
0100
,
1000
0000
0100
0000
0010
0000
0001
0000
0010
0000
0001
0000
1000
0000
0100
0000
1000
0001
1000
0001
1000
0000
0001
0000
1000
0100
1000
0100
1000
0000
0100
0000
,
10M0
0000
0001
0100
0010
1000
0100
0001
,
0100
0000
1000
0001
0100
1000
0100
0001
,
1000
0000
0001
0010
0001
0100
0010
1000
,
0100
1000
0001
0010
0100
1000
0100
0010
,
0002
0000
0000
1003
0010
0100
0001
1000
0001
0100
0010
1000
,
0010
0000
0000
1000
0001
0100
0010
0100
0001
1000
0010
0100
,
0001
0000
0000
1000
0100
0010
0100
0000
0000
1000
0100
0010
,
0100
0000
0000
1000
0100
0010
0001
1000
0100
0010
0100
1000
,
0001
0010
0001
0100
1000
0100
0001
1000
,
0010
0000
0100
0001
1000
0100
0010
0100
,
1000
0000
0001
0100
0001
0100
0010
1000
,
0010
1000
0001
0010
0001
0010
0001
1000
,
0001
0000
0000
1000
0010
0100
0001
0100
0010
1000
0010
0100
,
0001
0000
0001
0010
0100
1000
0001
0100
0010
1000
0001
1000
,
0001
0000
1000
0010
0000
0100
0001
1000
,
0002
0000
0000
0000
0000
0000
1003
0000
0000
0100
0000
0000
0010
0000
0001
0000
1000
0000
0001
0000
1000
0000
0001
0000
,
1000
0100
1000
0000
0001
0000
2000
3020
,
2030
3001
1000
0000
0001
0000
0020
1030
,
0020
0030
2000
3002
0003
0002
0003
0002
,
2003
3100
1000
0000
0001
0000
2000
3200
,
2300
0000
3000
0000
0001
0000
0010
0000
0001
0000
0000
1000
0001
0000
0100
0000
,
0010
0000
1000
0000
0000
0000
2000
0000
0000
0000
3000
0000
0001
0000
0100
0010
,
0200
0000
0000
0302
0000
0000
1003
0000
1000
0000
1000
0000
,
1000
0001
0010
0001
1000
0100
1000
0001
,
2002
0000
0000
0000
3003
0000
2000
3020
,
0032
0000
0000
0013
,
0010
0000
1000
0010
0000
0010
0000
0020
,
2000
0000
0000
0000
3030
0000
0002
0203
,
2300
3000
0000
0000
0000
0000
0002
0023
,
2030
0000
0000
3002
0000
0000
0103
0010
,
1000
0010
1000
0001
0100
0001
1000
0100
1000
0001
0010
0001
,
1000
0100
0010
0001
0010
0100
1000
0001
0010
0100
1000
0001
,
0M10
0000
0000
1000
0000
1000
0000
0000
1001
0000
0000
0001
0000
0001
0000
0000
,
1000
0000
0000
0100
0000
0000
0020
0000
0000
0000
0100
0000
0130
0000
0000
0000
,
1010
0000
0000
1000
0000
0001
0000
0000
1001
0000
0000
1000
0000
0001
0000
0000
,
1000
0000
0000
0100
0000
0000
0002
0000
0000
0000
0100
0003
0100
0000
1000
0000
,
1001
0000
0001
0100
0001
0010
0001
0100
,
0001
0000
1000
0100
1000
0010
1000
0100
,
1000
0000
0001
0010
0001
0100
0001
1000
,
0001
0100
0001
0010
0001
0100
0001
1000
,
1001
0000
0000
1000
0100
0010
0001
1000
0010
0100
0001
1000
,
0100
0000
0010
0001
1000
0100
0010
0001
1000
0100
1000
0100
,
0010
0000
0000
0001
0100
0001
2000
0000
0000
3010
0100
0001
,
2000
0000
0000
3001
0100
0010
1000
0100
0010
0001
0100
0010
,
1000
0000
0000
0000
;
