#TITLE:Iolite Sky;
#SUBTITLE:;
#ARTIST:Doin;
#TITLETRANSLIT:;
#SUBTITLETRANSLIT:;
#ARTISTTRANSLIT:;
#GENRE:;
#CREDIT:Braeden;
#MUSIC:Iolite Sky.ogg;
#BANNER:Iolite Sky.png;
#BACKGROUND:Iolite Sky-bg.png;
#CDTITLE:;
#SAMPLESTART:0.000;
#SAMPLELENGTH:0.000;
#SELECTABLE:YES;
#OFFSET:-0.231;
#BPMS:0.000=90.000;
#STOPS:;
#BGCHANGES:;
#FGCHANGES:;

//--------------- dance-single - ----------------
#NOTES:
     dance-single:
     :
     Beginner:
     3:
     0,0,0,0,0:
0000
0000
0000
0000
,
0000
0000
0000
0000
,
1000
0000
0001
0000
,
0000
0000
0000
0000
,
1001
1000
0000
0001
,
0000
0100
0000
0010
,
1000
0001
0000
0010
,
0000
0100
1000
0000
,
0001
0001
0000
0100
,
0000
0010
0000
1000
,
0001
0100
0000
0010
,
0000
1000
0000
0010
,
1001
0000
0000
0001
,
0100
0000
0000
0010
,
1000
0000
0000
0001
,
2000
0000
3000
0000
,
1001
1000
0000
0001
,
0000
0100
0000
0010
,
0000
1000
0000
0100
,
0000
0010
0000
0001
,
1001
1000
0000
0001
,
0000
0100
0000
0010
,
0000
1000
0000
0100
,
0000
0010
0000
0001
,
2000
0000
3000
0000
,
1001
0000
0000
0000
0001
0000
0000
0100
,
0000
0010
0000
1000
,
0000
0001
0000
0010
,
0200
0300
0002
0003
,
0000
0000
0002
0003
,
1000
0000
0001
0000
,
0020
0000
0000
0030
,
1001
0001
0000
1000
,
0000
0010
0000
0100
,
0000
0001
0000
0001
,
0000
0100
0000
0001
,
1001
1000
0000
0010
,
0000
0100
0000
0001
,
0000
0010
0000
0001
,
0000
1000
0000
0010
,
0000
1000
0000
0000
0000
0001
0000
0000
,
0000
0000
0000
0000
0000
0100
0000
0000
,
0000
0010
0000
0000
0000
1000
0000
0000
,
0000
0000
0000
0010
0000
0200
0000
0300
;

//--------------- dance-single - ----------------
#NOTES:
     dance-single:
     :
     Easy:
     6:
     0,0,0,0,0:
0000
0000
0000
0000
,
0000
0000
0000
0000
,
1000
0000
0000
0001
0000
0000
0000
0000
0100
0000
0010
0000
0000
0000
0000
0000
,
0000
0000
1000
0000
0000
0001
0000
0000
2000
0000
0000
0000
3010
0000
0000
0000
,
0110
0000
0100
0000
0001
1000
0001
0000
,
0100
0000
0010
0000
1000
0001
0200
0000
,
0310
0000
1000
0000
0001
0100
0001
0000
,
0010
0000
0100
0000
1000
0002
0000
0103
,
0001
0000
0010
0000
0100
1000
0001
0000
,
0100
0000
0010
0000
1000
0001
0200
0000
,
0001
0300
0000
0000
0000
0000
0000
0000
0000
0000
0000
0000
0000
0000
0000
0000
0010
0000
0000
0000
0000
0000
0000
0000
0000
0000
0000
0000
0000
0000
0000
0000
0100
0000
0000
0000
0000
0000
0000
0000
1000
0000
0000
0000
0000
0000
0000
0000
0001
0000
0000
0000
0000
0000
0000
0000
0000
0000
0000
0000
0000
0000
0000
0000
,
0010
0000
0001
0000
1000
0010
0200
0000
,
0301
1000
0001
0200
,
0310
0000
2000
3000
0010
0000
0200
0000
,
0301
0010
0001
0010
0100
1000
0200
0000
,
0310
0001
0010
0001
2000
0000
3000
0000
,
1010
0000
1000
0001
2000
0000
3010
0100
,
0020
0000
1030
0100
1000
0000
0001
0010
,
0002
0000
1003
0010
0200
0000
0302
0000
,
1003
0010
2000
0000
3001
0100
0001
0000
,
1001
0000
0001
0100
0001
0000
0020
0000
,
0130
1000
0002
0000
0103
0010
2000
0000
,
3001
0100
0002
0000
0013
0100
2000
0000
,
3001
0100
0010
0000
1000
0100
0010
0000
,
0001
0000
0000
1000
0000
0000
0010
0000
0100
0000
0000
0000
0001
0000
0000
0000
,
1001
0000
1000
0000
0001
0000
0100
0010
,
0000
1000
0000
0000
0001
0000
0010
0000
0100
0000
0000
0000
1000
0000
0000
0000
,
0001
0000
0100
0010
0100
0000
0001
0000
,
1000
0010
0200
0301
,
0100
0010
2000
3100
,
0010
0001
0010
0001
1000
0010
2000
0000
,
3001
0100
0010
1000
0002
0000
0003
0000
,
1001
0000
1000
0000
0001
0100
0020
0000
,
1030
0100
0010
0000
0001
0100
0002
0000
,
1003
1000
1000
0000
0001
0001
0002
0000
,
0103
0001
0200
0000
0310
1000
0010
0000
,
1010
0000
2000
0000
3001
0010
0200
0000
,
1300
0001
1000
0010
0100
0001
0020
0000
,
0130
1000
0200
0000
0310
0001
2000
0000
,
3001
0010
0100
1000
0010
0100
0001
0000
,
0000
1001
0000
1000
0000
0001
0000
0100
,
0000
0010
0000
1000
0000
0100
0100
0020
,
0000
0031
0000
1001
0000
1000
1000
0010
,
0000
0100
0000
0001
0000
0020
0000
0030
;

//--------------- dance-single - ----------------
#NOTES:
     dance-single:
     :
     Medium:
     11:
     0,0,0,0,0:
0000
0000
0000
0000
,
0000
0000
0000
0000
,
1000
0000
0000
0001
0000
0001
0000
0000
0100
0000
0100
0000
0000
0010
0000
0010
,
0000
0000
1000
0000
0000
1000
0000
0000
0002
0000
0000
0000
1003
0000
0100
0000
,
1100
0000
0000
1000
0100
0000
0000
0000
0010
0000
0010
0000
0001
0100
0000
0100
,
0000
0000
0010
0000
1000
0010
0000
0000
0100
0000
0001
0000
1000
0002
0000
0000
,
0013
0000
0000
0100
0000
0100
0000
0000
1000
0000
0001
0000
1000
0010
0000
0010
,
0000
0000
0100
0000
0001
0010
0000
0000
0100
0000
1000
0002
0000
0000
0103
0000
,
0001
0000
0000
0010
0100
0010
0000
0000
0100
0000
0100
0000
1000
0001
0000
1000
,
0000
0000
0001
0000
0010
0100
0000
0000
1000
0000
1000
0000
0001
0200
0000
0000
,
0310
0000
0000
1000
0001
1000
0000
0000
0100
0000
0100
0000
0010
0100
0000
0010
,
0000
0000
0100
0000
1000
0001
0000
0000
1000
0000
0001
0100
0010
1000
0000
0000
,
1001
0001
1000
0001
0100
0010
0200
0000
,
0301
0100
1000
0100
0001
0100
0020
0000
,
1030
0100
1000
0100
0010
0001
0010
0001
,
2000
0000
0000
0000
0000
0000
3000
0001
,
1001
0000
1000
0000
0001
0100
0001
0100
0001
0010
0100
1000
0200
0000
0000
0000
,
1300
0000
0100
0000
0001
0000
0100
0000
1000
0000
0001
0100
0002
0000
0000
0000
,
0103
0000
0010
0000
0100
0001
0100
0010
1000
0100
0010
0001
2000
0000
0000
0000
,
3001
0000
0100
0000
1000
0000
0100
0000
0010
0000
1000
0001
1000
0000
0010
0000
,
1010
0000
1000
0000
0001
0010
0100
1000
0001
0100
0010
1000
0002
0000
0000
0000
,
1003
0000
0100
0000
0001
0000
0100
0000
0010
0000
0001
0100
0002
0000
0000
0000
,
1003
0000
0010
0000
0100
0000
0001
0000
0010
0000
0100
1000
0200
0000
0000
0000
,
1300
0000
0100
0000
0001
0000
0100
0000
0010
0000
0100
1000
0100
0000
0010
0000
,
0011
0000
0000
0001
0000
0000
0100
0000
0010
1000
0010
1000
0100
0010
0001
0000
,
1000
0010
0100
0010
1000
0001
0000
0000
0100
0000
0010
1000
0001
0100
0001
0000
,
0000
0010
0100
1000
0001
0000
1001
0000
1000
0100
0010
0001
0010
0100
0000
0000
,
1000
0000
0001
0100
0001
0010
0100
0000
1000
0001
0000
0000
1000
0000
0001
1000
,
0010
0000
0100
0000
0010
0000
0100
0000
0001
0000
1000
0000
0000
0001
0000
0100
,
0000
0000
0001
0000
0000
0010
0000
0000
0100
0000
0010
0000
0000
0002
0000
0000
,
1003
0100
1000
0100
0010
0001
0100
0010
,
0200
0000
0000
0000
0000
0000
0300
0010
,
1000
0000
0001
0000
1000
0100
0010
0001
1000
0010
0100
0001
2000
0000
0000
0000
,
3001
0000
0100
0000
1000
0000
0100
0000
0001
0000
0100
0010
0200
0000
0000
0000
,
0301
0000
0010
0000
0100
1000
0100
1000
0001
0100
0010
1000
0002
0000
0000
0000
,
1003
0000
0100
0000
0001
0000
0100
0000
1000
0000
0100
0010
0001
0000
1000
0010
,
0100
0000
0001
0000
1000
0100
0010
0001
1000
0010
0100
0001
2000
0000
0000
0000
,
3001
0010
0100
1000
0001
0100
0010
1000
0001
0000
0100
0010
0200
0000
0000
0000
,
0301
0000
0010
0000
0100
0010
0001
1000
0010
0100
0001
0010
0002
0000
0000
0003
,
1000
0000
0100
0000
0001
0000
0100
0000
0010
0000
0001
1000
0001
0100
0010
1000
,
0001
0010
0011
0000
0000
0001
0100
0010
0000
0000
1000
0000
1000
0000
0001
0100
,
0000
0100
0000
0000
0010
0000
1000
0001
0000
0000
1000
0000
1000
0100
0010
0001
,
0000
0000
1001
0000
0000
1000
0010
0100
0000
0000
0001
0000
0001
0000
0010
0100
,
0000
1000
0000
0000
0001
0000
1000
0100
0000
0000
2000
0000
3100
0001
0100
0000
;

//--------------- dance-single - BU JA XO SJ ----------------
#NOTES:
     dance-single:
     BU JA XO SJ:
     Hard:
     15:
     0,0,0,0,0:
0000
0000
0000
0000
,
0000
0000
0000
0000
,
1000
0000
0000
0001
0000
0001
0000
0000
0100
0000
0100
0000
0000
0010
0000
0010
,
0000
0000
0000
0000
1000
0000
0000
0000
0000
0000
0001
0000
0000
0000
0000
0000
0200
0000
0000
0000
0000
0000
0000
0000
0310
0000
1000
0001
1000
0000
0001
0000
,
0101
0000
0000
0001
0100
1000
0000
0000
0100
0000
0100
0000
0010
1000
0000
1000
,
0100
0010
0001
0100
1000
0100
0000
0000
0001
0000
1000
0000
1000
0010
0001
0000
,
0010
0000
0000
0100
0001
1000
0000
0000
0010
0000
0010
0000
0100
0010
0000
0001
,
0010
0000
0000
0000
0100
0000
0010
0000
1000
0000
0001
0000
0000
0000
0000
0000
0010
0000
0000
0000
0010
0000
0200
0000
0000
0000
1300
0001
1000
0000
0000
0000
,
0001
0100
0010
0100
1000
0100
0000
0000
0001
0000
0001
0000
1000
0010
0000
0100
,
0001
0010
0100
1000
0001
0100
0000
0000
0100
0000
0010
0000
1000
0200
0000
0000
,
1300
0000
0000
0100
0001
0100
0000
0000
0010
0000
0010
0000
0001
1000
0000
0100
,
0010
0000
0001
0000
1000
0000
0010
0000
0001
0000
0010
0000
0000
0000
0000
0000
0100
0000
0000
0000
0001
0000
1000
0010
1000
0000
0002
0000
0000
0000
0003
0000
,
1001
1000
0001
0100
0010
1000
0002
1000
,
1003
0010
0001
0010
1000
0100
0020
0000
,
0031
1000
0001
1000
0010
0100
0010
1000
0100
0010
0001
1000
0010
0100
0001
0010
,
0004
0000
0000
0000
0000
0000
0003
1000
,
0001
0000
0100
0000
0010
0000
0100
0000
1000
0000
0100
0000
0001
0000
0100
0000
0010
0000
1000
0000
0001
0100
0001
0100
0001
0000
0010
0000
0100
0000
1000
0000
,
0001
0000
0100
0000
0001
0000
0100
0000
2000
0000
0000
0000
3100
0000
0010
0000
0100
0000
0001
0000
1000
0000
0001
0100
0001
0000
1000
0000
0001
0000
1000
0000
,
0001
0000
0100
0000
0010
0000
0100
0000
1000
0000
0100
0000
0001
0000
1000
0000
0001
0000
0010
0000
0100
1000
0100
1000
0100
0000
0010
0000
0001
0000
1000
0000
,
0001
0000
1000
0000
0100
0000
0010
0000
1000
0000
0010
0000
0100
0000
1000
0000
0001
0000
0100
0000
0010
0000
1000
0001
1000
0000
0000
0000
0100
0000
0010
0000
,
0011
0000
0001
0000
0100
0000
0010
0000
0001
0000
0010
0000
0100
0000
0001
0000
1000
0000
0001
0000
1000
0100
0010
0001
1000
0000
0100
0000
1000
0000
0100
0000
,
0010
0000
0001
0000
1000
0000
0100
0000
0001
0000
0100
0000
0010
0000
0001
0000
1000
0000
0010
0000
0100
0000
0001
1000
0100
0000
0010
0000
0100
0000
0010
0000
,
0001
0000
0100
0000
0010
0000
0100
0000
1000
0000
0100
0000
0010
0000
0100
0000
0001
0000
0010
0000
0100
1000
0100
1000
0001
0000
0100
0000
0001
0000
0100
0000
,
0001
0000
1000
0000
0010
0000
0100
0000
1000
0000
0100
0000
0001
0000
1000
0000
0001
0000
0100
0000
0010
0000
1000
0001
1000
0000
0000
0000
0002
0000
0000
0000
,
1003
0000
0000
0000
0000
0000
1001
0000
0000
0000
0000
0000
0110
0000
0000
0000
0010
0000
1000
0000
1000
0000
0001
0100
0001
0000
0100
0000
0020
0000
0000
0000
,
1030
0000
0001
0000
1000
0000
0001
0000
0100
0000
1000
0000
0100
0000
0010
0000
1000
0000
0000
0000
0001
0000
0100
0000
0010
0000
1000
0001
1000
0000
0000
0000
,
0000
0000
0001
0000
0100
0000
0100
0000
0110
0000
0000
0000
1010
0000
0010
0000
1000
0000
0100
0000
0010
0000
0010
0000
0001
0000
1000
0010
1000
0000
0000
0000
,
0001
1000
0010
0100
1000
0100
0010
0000
0110
0100
0000
0000
0001
0000
0000
1000
,
1001
0000
0200
0000
0301
0000
0010
0000
0200
0000
1300
0000
0001
0100
0000
0200
,
0000
0300
0020
0000
0000
0230
0000
0000
0302
0000
1000
0000
1003
0010
0100
0000
,
0001
0010
0100
1000
0001
0100
0010
1000
0001
0010
0100
0010
0001
1000
0010
0100
,
0020
0000
0000
0000
0000
0000
0030
1000
,
1001
0000
0001
0000
0010
0000
0100
0000
1000
0000
0010
0000
0010
0000
0010
0000
0100
0000
0001
0000
1000
0010
1000
0010
1000
0000
0100
0000
0010
0000
0001
0000
,
1001
0000
1000
0000
0010
0000
0100
0000
0002
0000
0000
0000
1003
0010
1000
0000
0001
0100
0001
0000
1000
0000
0001
0010
0100
0000
1000
0000
0010
0000
1000
0000
,
1001
0000
0001
0000
0100
0000
0010
0000
1000
0000
0100
0000
0100
0000
0100
0000
0010
0000
0001
0000
1000
0010
0100
0010
1000
0000
0001
0000
1000
0000
0001
0000
,
1001
0000
1000
0000
0001
0000
0100
0000
0010
0000
0100
0000
0001
0010
0100
0000
1000
0001
1000
0000
0001
0000
0100
0010
1000
0000
0001
0000
0100
0000
0001
0000
,
0101
0000
0100
0000
0001
0000
0100
0000
0010
0000
1000
0000
1000
0000
1000
0000
0001
0000
0010
0000
0100
1000
0001
1000
0010
0000
0100
0000
0010
0000
0100
0000
,
0001
0010
0100
1000
0001
0100
0010
1000
0001
0010
0100
1000
0001
0010
0001
0000
1000
0010
1000
0000
0001
0000
0100
0010
0100
0000
0001
0000
1000
0000
0001
0000
,
1000
0000
0100
0000
0010
0000
0001
0000
1000
0000
0010
0000
0010
0000
0010
0000
0100
0000
0001
0000
0010
0100
1000
0001
1000
0000
0010
0000
1000
0000
0010
0000
,
0100
0000
0001
0000
0100
0000
0010
0000
1000
0000
0001
0000
0010
0100
0010
0000
0001
1000
0001
0000
1000
0000
0001
0100
0010
0000
1000
0100
0010
0000
0001
0000
,
0100
0010
1010
0000
0000
1000
0100
0100
0000
0000
0010
0000
0001
0100
0010
0010
,
0000
1000
0100
0010
0001
0100
0010
0010
0000
0000
1000
0000
0001
0100
0100
0020
,
0030
0000
0000
0000
1010
0000
0000
0000
0000
0000
1000
0000
0001
0000
0001
0000
0000
0000
0000
0000
0100
0000
0000
0000
0100
0000
0010
1000
0010
0000
1000
0000
,
0000
0000
0001
0000
0100
0000
0010
0000
1000
0000
0100
0000
0100
0000
0010
0000
0000
0000
0000
0000
0002
0000
0000
0000
0013
0000
0100
0010
0100
0000
0000
0000
;

//--------------- dance-single - BU+ XO DS JA FS SJ ----------------
#NOTES:
     dance-single:
     BU+ XO DS JA FS SJ:
     Challenge:
     18:
     0,0,0,0,0:
0000
0000
0000
0000
,
0000
0000
0000
0000
,
1000
0000
0000
0001
0000
0001
0000
0000
0100
0000
0100
0000
0000
0010
0000
0010
,
0000
0000
0000
0000
1000
0000
0000
0000
0000
0000
0001
0000
0000
0000
2000
0000
3020
0000
0000
0000
0000
0000
0230
0000
0301
0000
1000
0100
0010
0000
0001
0000
,
1001
0000
1000
0000
0000
0000
0100
00M0
0100
0000
0001
0000
0000
0000
0000
0000
1000
0000
0000
0000
0001
0000
0000
0000
1001
0000
1000
0000
0100
0000
0010
000M
,
0010
0000
1000
0000
0001
0000
0100
00M0
0100
0000
1000
0000
0001
0000
0010
0000
0001
0000
0000
0000
1000
0000
0000
0000
0011
0000
0010
0000
0100
M000
0100
0000
,
0001
0000
1000
0000
0000
0000
0100
00M0
0100
0000
0001
0000
0010
0000
0100
0000
1000
0000
0000
0000
1000
0000
0000
0000
1001
0000
1000
0000
0100
0000
0010
000M
,
0010
0000
1000
0000
0001
0000
1000
0000
1001
0000
0001
0000
0100
0000
0010
0000
1000
0000
0000
0000
0001
0000
2000
0000
0000
0000
3001
0010
0001
0000
0000
0000
,
1000
0000
0001
0000
0010
0000
0100
M000
0100
0000
0001
0000
0100
0000
0010
0000
1000
0000
0000
0000
0001
0000
0000
0000
1001
0000
1000
0000
0001
0000
0100
00M0
,
0100
0000
1000
0000
0001
0000
0010
0M00
0010
0000
1000
0000
0001
0000
1000
0000
0001
0000
0000
0000
0001
0000
0000
0000
1100
0000
0100
0000
0010
000M
0010
0000
,
1000
0000
0100
0000
0000
0000
0010
000M
0010
0000
1000
0000
0001
0000
0010
0000
0100
0000
0000
0000
0100
0000
0000
0000
1001
0000
0001
0000
0010
0000
0100
0000
,
1000
0000
0100
00M0
0100
0000
0001
0000
1001
0000
1000
0000
0100
0000
0010
0000
0001
0000
0000
0000
1000
0000
0001
0010
0001
0000
2000
0000
0000
0000
0000
0000
,
3001
0100
0010
1000
0010
0100
0001
1000
0100
1000
0100
0000
0001
0000
0100
0000
,
0010
0001
1000
0100
0001
0000
0100
1000
0001
0100
0010
0000
2000
0000
3001
0000
,
1000
0100
1000
0100
0010
0001
0010
0100
1000
0001
1000
0100
0001
0100
0010
0001
,
1000
0010
0100
0001
1000
0100
0010
0001
1000
0010
0100
0001
1000
0100
0010
0001
1000
0000
0100
0000
1000
0000
0100
0000
0010
0000
0001
0000
1000
0100
1000
0100
,
1000
0001
0010
0001
1000
0000
0001
0000
1000
0000
0001
0000
0001
0000
1000
0010
1000
0010
0100
0001
1000
0010
0100
1000
0200
0000
0301
0010
0200
0000
1300
0001
,
1000
0010
0100
0001
1000
0000
0001
0000
2000
0000
0000
0000
3001
0010
0100
1000
0010
0100
0001
0010
0100
0000
1000
0001
0200
0000
0310
1000
0002
0000
2003
0000
,
3001
0010
0100
1000
0001
0000
0100
0000
0001
0000
0001
0000
0001
0000
1000
0100
0010
0001
1000
0001
0100
0010
0001
0010
0200
0000
0301
1000
0020
0000
0130
0001
,
1000
0100
0010
0001
1000
0000
0001
0000
0100
0000
0100
0000
0001
0010
0100
1000
0010
1000
0001
0010
0001
0000
0100
0001
1000
0000
0001
0100
0010
1000
0001
0000
,
1000
0100
0010
0001
1000
0000
0001
0000
0100
0000
0100
0000
0100
0000
0010
1000
0001
0010
0100
1000
0001
0100
0010
0001
0020
0000
0130
0001
2000
0000
3100
0010
,
0001
1000
0010
0100
0001
0000
1000
0000
0002
0000
0000
0000
1003
0001
1000
0100
0010
0001
0100
0010
1000
0000
0001
1000
0002
0000
0103
0001
1000
0000
0100
0010
,
0001
0010
0001
1000
0010
0000
0100
0000
0001
0000
0001
0000
0001
0000
1000
0001
1000
0010
0100
0001
0010
0100
0001
0100
2000
0000
3001
0010
0002
0000
1003
0001
,
0100
0001
0010
0100
0010
0000
0001
0000
1000
0000
1000
0000
0001
0010
0100
1000
0010
1000
0001
0100
0001
0000
1000
0001
2000
0000
3001
1000
0001
0010
0100
1000
,
0002
0000
0000
0000
0000
0000
0000
0000
0000
0000
0000
0000
0103
0000
0000
0000
0000
0000
0000
0000
0000
0000
0000
0000
0002
0000
0000
0000
0000
0000
0000
0000
1000
0000
0000
0000
0013
0000
0000
0000
0011
0000
0000
0000
0001
0000
0010
0000
0100
0000
0000
0000
1000
0000
0000
0000
0100
00M0
0100
0000
0001
0000
0000
0000
,
2000
0000
0100
0000
3001
0000
1000
0000
1010
0000
0010
0000
1000
0010
0100
0000
0002
0000
0100
0000
1003
0000
0001
0000
0101
0000
0100
0010
1000
0000
0000
0000
,
0000
0000
0000
0000
2000
0000
0000
0000
0100
0000
0000
0000
3001
0000
0000
0000
0010
0000
0000
0000
0001
0000
0000
0000
1001
0000
0000
0000
0001
0000
0000
0000
0100
0000
00M0
0000
0100
0000
0000
0000
1000
0000
0000
0000
0010
0000
0M00
0000
0010
0000
0000
0000
0001
0000
0100
00M0
0100
0000
0000
0000
0000
0000
0000
0000
,
2000
0100
3001
1000
1100
0100
0010
0000
0011
0010
0000
0000
0110
0000
0100
1000
,
2100
0000
0001
0000
0100
0000
3001
0000
0200
0000
0001
0000
0310
1000
0100
0010
,
0002
0000
0100
0000
1003
0100
0010
0100
2000
0000
0001
0000
3001
0200
0010
0000
,
0301
0010
0001
0010
0001
0010
0001
0010
0100
1000
0100
1000
0100
1000
0100
1000
,
0001
0100
0010
1000
0001
0010
0100
1000
0001
0100
0010
1000
0001
0010
0100
1000
0001
0000
0010
0000
0001
0000
0010
0000
0001
0000
1000
0000
0001
0100
0010
1000
,
0001
1000
0010
1000
0001
0000
1000
0000
0001
0000
1000
0000
1000
0000
0001
0010
0001
0010
0100
1000
0100
0010
1000
0010
0002
0000
1003
0010
0200
0000
0301
1000
,
0001
0010
0100
1000
0001
0000
1000
0000
0002
0000
0000
0000
0013
0100
1000
0100
0010
0001
1000
0010
0100
0000
0001
1000
0200
0000
0310
0001
2000
0000
3001
1000
,
0001
0010
0100
1000
0001
0000
0100
0000
0001
0000
0001
0000
0001
0000
1000
0100
0010
0001
1000
0001
0100
0010
0001
0010
0200
0000
0301
1000
0020
0000
0130
0001
,
1000
0100
0010
0001
1000
0000
0001
0000
1000
0000
1000
0000
0001
0010
0100
1000
0001
0100
0010
1000
0001
0000
0100
0001
1000
0000
0001
0100
0010
1000
0001
1000
,
0001
0010
0100
1000
0001
0000
1000
0000
0100
0000
0100
0000
0100
0000
0010
0001
1000
0010
0100
0001
1000
0100
0001
0100
0020
0000
0031
1000
0020
0000
0130
0010
,
1000
0001
0010
0100
1000
0001
0100
0001
1000
0100
0010
0001
1000
0010
0100
0001
0010
0100
1000
0001
1000
0000
0001
1000
0002
0000
0103
0001
2000
0000
3100
0010
,
0001
0010
0001
1000
0010
0000
0100
0000
0001
0000
0001
0000
0001
0000
1000
0001
1000
0010
0100
0001
1000
0010
0100
1000
0200
0000
0301
0010
0002
0000
1003
0001
,
0100
0001
0010
0100
0010
0000
0001
0000
2000
0000
0000
0000
3001
0010
0100
0010
0001
1000
0001
1000
0001
0000
1000
0010
2000
0000
3010
0100
0001
0000
1000
0000
,
0001
0010
0011
0001
1000
0001
0101
0100
0010
1000
0001
0000
1000
0001
1001
1000
,
0001
0000
1000
0000
0100
00M0
0100
0000
0001
0000
1000
0000
1100
0000
0100
0000
0000
0000
0000
0000
2000
0000
3000
0000
0001
0000
1000
0000
2001
0000
0001
0000
,
0001
0000
0000
0000
3001
0000
0000
0000
0011
0000
0000
0000
0010
0000
0000
0000
0000
0000
0000
0000
0001
0000
0000
0000
0011
0000
0000
0000
0010
0000
0000
0000
0000
0000
0000
0000
0000
0000
0000
0000
0100
0000
0000
0000
0000
0000
0000
0000
1000
0000
0000
0000
0010
M000
0010
0000
0100
0000
0000
0000
0010
0000
0000
0000
,
0001
0000
1000
0000
0100
00M0
0100
0000
0010
0000
1000
0000
1001
0000
0001
0000
0100
0000
0010
0000
2000
0000
0000
0000
3100
0000
1000
0100
0010
0000
0000
0000
;
