#TITLE:Integral;
#SUBTITLE:;
#ARTIST:Pet Shop Boys;
#TITLETRANSLIT:;
#SUBTITLETRANSLIT:;
#ARTISTTRANSLIT:;
#GENRE:;
#CREDIT:;
#MUSIC:Integral.ogg;
#BANNER:Integral ban.png;
#BACKGROUND:Integral bg.png;
#CDTITLE:;
#SAMPLESTART:0.000;
#SAMPLELENGTH:0.000;
#SELECTABLE:YES;
#OFFSET:-0.457;
#BPMS:0.000=127.734
,194.000=63.867
,210.000=127.734
;
#STOPS:145.000=1.409;
#BGCHANGES:;
#FGCHANGES:;

//--------------- dance-single - ----------------
#NOTES:
     dance-single:
     :
     Beginner:
     2:
     0,0,0,0,0:
0000
0000
0000
0000
,
0000
0000
0000
0000
,
0000
0000
0000
0000
,
0000
0000
0000
0000
,
0000
1001
0000
1000
,
0000
0000
0000
0001
,
0000
0000
0000
1000
,
0000
0000
0000
0010
,
0000
1001
0000
1000
,
0000
0000
0000
0001
,
0000
0000
0000
0100
,
0000
0000
0000
0010
,
0000
1001
0000
0000
,
0000
1000
0000
0000
,
0000
0001
0000
0000
,
0000
0100
0000
0000
,
0000
1001
0000
0000
,
0000
0100
0000
0000
,
0000
0010
0000
0000
,
0000
0100
0000
0010
,
0000
1001
0000
0000
,
0000
0001
0000
0000
,
0000
1001
0000
0000
,
0000
1000
0000
0000
,
0000
0002
0000
0003
,
0000
1001
0000
0000
,
0000
1000
0000
0000
,
0000
0010
0000
0000
,
0000
0100
0000
0000
,
0000
1001
0000
0000
,
0000
0001
0000
0000
,
0000
0100
0000
0000
,
0000
0010
0000
0000
,
0000
1000
0000
0000
,
0000
0001
0000
0000
,
0000
1000
0000
0000
,
0000
0001
1001
0000
,
0000
0000
1001
0000
,
0000
0000
0110
0000
,
0000
0000
1001
0000
,
0000
0000
1000
0000
,
0000
0000
0001
0000
,
0000
0000
0100
0000
,
0000
0000
0010
0000
,
0000
0000
1000
0000
,
0000
0000
0010
0000
,
0000
0000
0100
0000
,
0000
0000
0001
0000
,
0000
0000
1001
0000
,
2000
3000
0002
0003
,
0200
0300
0020
0030
,
2000
3000
0002
0003
,
1000
0000
1001
0000
,
1000
0000
0000
0001
,
0001
0000
0000
0100
,
0100
0000
0000
0010
,
0010
0000
0000
1000
,
1000
0000
0000
0001
,
0001
0000
0000
1000
,
1000
0000
0000
0001
,
0001
0000
1001
0000
,
1000
0000
0000
0000
,
0010
0000
0000
0000
,
0100
0000
0000
0000
,
0001
0000
0000
0000
,
1000
0000
0000
0000
,
0010
0000
0000
0000
,
0000
0000
0000
0000
,
0000
0000
0001
0000
;

//--------------- dance-single - ----------------
#NOTES:
     dance-single:
     :
     Easy:
     5:
     0,0,0,0,0:
0000
0000
0000
0000
,
0000
0000
0000
0000
,
0000
0000
0000
0000
,
0000
1000
0000
0001
,
1000
1001
0001
0100
,
1000
0000
0100
0001
,
0100
0000
0010
1000
,
0001
0000
1000
0100
,
0010
0011
0001
0100
,
0010
0000
1000
0001
,
1000
0000
0001
0100
,
0001
0000
0100
0010
,
1000
1001
0001
1000
,
0010
1000
0001
0100
,
0001
0020
0030
0001
,
0100
0020
0030
1000
,
0001
1001
1000
0001
,
1000
0100
0010
0001
,
0100
0002
1003
1000
,
0000
1000
0001
1000
,
0001
1001
1000
0010
,
0100
0001
0010
0010
,
0001
1001
1000
0010
,
0100
0001
0010
0010
,
0100
2000
0000
0000
,
3001
1001
1000
0010
,
1000
0200
0310
0001
,
0010
0002
1003
0010
,
1000
0002
0103
0010
,
0100
0101
0001
1000
,
0001
2000
3100
0010
,
0100
2000
3001
0100
,
0001
2000
3010
0100
,
0001
0101
0000
0100
,
0010
0100
0000
0001
,
1000
0001
0000
1000
,
0001
1000
1001
0000
,
0100
0000
1001
0000
,
0010
0000
1001
0000
,
0100
0000
1001
0000
,
0100
0000
1001
0001
,
0100
0000
0010
1000
,
0001
0000
0010
0010
,
0010
0000
0100
0100
,
0100
1000
1001
0001
,
0100
0100
0010
1000
,
0100
0010
0001
0100
,
0010
1000
0001
0010
,
0100
1000
1001
0001
,
0200
0310
2000
3001
,
0200
0310
0110
0010
,
2000
3100
2000
3010
,
0100
0000
0001
1000
0001
0000
0100
0000
,
1000
0100
0001
0010
,
1000
0000
0001
1000
,
0001
0100
0010
1000
,
0100
0010
0011
0001
,
1000
0001
0000
1000
,
1000
0100
0000
0010
,
0010
0001
1000
0001
,
0100
0001
0101
0100
,
0100
0010
1000
0100
,
0100
0010
0011
0001
,
0010
0001
0100
0010
,
1000
1000
1001
0001
,
0100
0010
1000
0001
,
0001
0100
1010
0010
,
0010
0100
0001
0001
,
1000
0001
1001
0000
;

//--------------- dance-single - ----------------
#NOTES:
     dance-single:
     :
     Medium:
     8:
     0,0,0,0,0:
0000
0000
0000
0000
,
0000
0000
0000
0000
,
0000
0000
0000
0000
,
0000
1000
0000
0001
,
1000
0001
2000
0000
0001
0000
0100
0000
,
3001
0200
0010
0010
,
0301
0020
0001
0100
,
0031
2000
0001
0100
,
3001
0000
1001
0000
0001
0001
0200
0000
,
0310
0000
2000
0000
3001
1000
0002
0000
,
0103
0000
0020
0000
1030
0001
0200
0000
,
0310
0000
0200
0000
0301
1000
0001
0000
,
1000
0000
1001
0000
0001
1000
0001
0000
,
0100
0000
0010
1000
0000
0010
1000
0000
,
0001
0000
1000
0010
0000
1000
0020
0000
,
0030
1000
0001
1000
0000
0001
0100
0000
,
0001
1000
2002
0000
3003
0001
0000
0100
,
0010
0000
1000
0001
0000
1000
0010
0000
,
0100
0001
0100
0000
0001
0100
0000
0010
,
0000
1000
0002
0000
0203
0000
0310
0000
,
1000
0001
1001
0000
2000
0000
3002
0000
,
0100
0000
0103
0000
0020
0000
1030
0001
,
0010
0000
0011
0000
0002
0000
1003
1000
,
0010
0000
0100
0000
0002
0000
1003
0010
,
1000
0002
0000
0003
,
1000
0001
1000
0010
1000
0001
0200
0000
,
0301
0010
0001
0010
0001
0100
0002
0000
,
0103
0010
0100
0010
0100
0020
0000
1030
,
0100
0010
0100
1000
0001
1000
0200
0000
,
1300
0000
1010
0000
0010
1000
0100
0000
,
0010
0001
0010
0000
0001
0100
0000
0001
,
0100
0010
2000
0000
3001
0001
0001
0000
,
1000
0010
1000
0000
0001
0100
0001
0000
,
0100
0220
0330
0010
,
1000
0001
1000
0000
0001
0000
0100
0000
,
0010
1000
0010
0000
1000
0000
0001
0000
,
1000
0001
1000
0000
1001
0000
0000
0000
,
0001
0100
0110
0000
,
0010
1000
1001
0000
,
0001
0100
0110
0010
,
1000
0000
0001
0000
1000
0010
1000
0010
,
1000
0000
0001
0100
0002
0000
0000
0023
,
0000
0130
1000
0001
1000
0000
0010
0000
,
0100
0001
0000
1000
0001
1000
0010
1000
,
0000
0001
0000
1000
1002
0000
0103
0001
,
0100
0000
0010
1000
0002
0000
1003
0020
,
0000
1030
0100
0010
0001
0000
0100
0001
,
0100
0000
0010
1000
0020
0000
0130
2000
,
0000
3100
0001
0000
0101
0001
0100
0010
,
1000
0001
1000
0010
1000
0100
0010
0001
,
1000
0010
1000
0001
1001
1000
0010
1000
,
0001
0010
0001
0100
0010
1000
0001
1000
,
0010
0000
0000
0000
1000
0000
0001
1000
0001
0000
0010
0000
0100
0000
1000
0000
,
0001
0000
1001
0000
1000
0100
0010
0001
,
0100
0000
0001
0000
0010
0001
0100
0001
,
0100
0000
1010
0000
0010
1000
0100
1000
,
0001
0000
1000
0000
1000
0010
1000
0010
,
1000
0000
1001
0000
0001
0100
0010
0100
,
0001
0000
1000
0000
0001
0100
0001
0010
,
0001
0000
0100
0000
0010
1000
0100
1000
,
0001
1000
1001
0002
,
0203
0310
1000
0002
,
2003
3001
1001
2000
,
3020
0130
0001
0200
,
0301
1000
0001
0000
1001
0000
2000
0000
,
3001
0001
0100
0000
0002
0000
2003
0000
,
3002
1003
1010
0010
,
0100
0001
0100
0000
0010
0000
1000
0000
,
0100
0100
0100
0100
1000
0000
0000
0000
;

//--------------- dance-single - XO+ JA ----------------
#NOTES:
     dance-single:
     XO+ JA:
     Hard:
     11:
     0,0,0,0,0:
0000
0000
0000
0000
,
0000
0000
0000
0000
,
0000
0000
0000
0000
,
0000
0000
0000
0000
0001
0000
0000
1000
0000
0000
0001
0000
1000
0000
0000
0000
,
0001
0100
0101
0000
0001
1000
0200
0000
,
0301
0100
1000
0000
0001
0010
2000
0000
,
3010
0001
0100
0000
0001
0100
2000
0000
,
3100
0010
1000
0000
0001
0010
2000
0000
,
3010
0001
0011
0000
0010
0100
1000
0100
,
0001
0100
2000
0000
3001
1000
0001
0010
,
1000
0010
0002
0000
1003
0100
0010
0100
,
0010
0001
2000
0000
3001
0010
0001
0100
,
0001
0010
0021
0000
0031
0100
0010
0000
,
1000
0000
0000
0000
0001
0000
1000
0000
0000
0000
0010
0000
0100
0000
0000
0001
,
0000
0000
0100
0000
0001
0000
1000
0000
0000
0000
0001
0000
1000
0000
0000
0010
,
0000
0000
0100
0000
0001
0000
0010
0000
0000
0000
0100
0000
1000
0000
0000
0001
,
0000
0000
1000
0001
0100
0000
0010
0000
1000
0000
0001
0000
0000
0000
0001
0000
,
1000
0010
0100
0001
0000
0100
0010
0000
,
1000
0010
0200
0000
0301
0010
0001
0100
,
0000
0000
0010
0000
1000
0000
0000
0000
0010
0000
0000
0000
1000
0010
0000
1000
,
0010
0100
0101
0000
0002
0100
0203
0000
,
0310
1000
0001
0000
2000
0000
3010
0010
,
0100
0001
1001
0000
2000
0000
3001
0001
,
1000
0100
1000
0000
0001
0000
1000
1000
,
0001
0100
0002
0000
0000
0000
0000
0000
,
1003
0001
1001
1000
0100
0001
0100
0000
,
1000
0001
1000
0001
0100
1000
0100
0000
,
0001
1000
0001
0100
1000
0100
0010
1000
,
0001
0100
0001
0100
0010
1000
0001
0000
,
1000
0010
2010
0000
3001
0100
0002
0000
,
1003
0010
0100
0000
0001
0010
0001
1000
,
0001
1000
0020
0000
0130
0001
2000
0000
,
3010
0100
0020
0000
1030
0100
0001
0100
,
1000
1010
0010
1000
,
0001
0100
0001
0000
0100
0000
0010
0000
,
1000
0100
1000
0000
0001
0000
0100
0000
,
0010
1000
0001
0000
1001
0000
0000
0000
,
0001
0100
0110
0000
,
0010
1000
1001
0000
,
0001
0100
0110
0010
,
1000
0000
0001
1000
0001
0100
1000
0100
,
0001
0000
1000
0010
0000
0000
0000
0000
1000
0000
0100
0000
0001
0000
0100
0000
,
1000
0000
0001
0100
0000
0000
0000
0000
0001
0000
0010
0000
1000
0000
0010
0000
,
0001
0000
1000
0010
0000
0000
0000
0000
1000
0000
0010
0000
0001
0000
0010
0000
,
1000
0000
0001
1000
0000
0000
0001
0000
2001
0000
0000
0000
3010
0000
0010
0000
,
0100
0000
0001
1000
0001
0000
1000
0000
0020
0000
0000
0000
0130
0000
0001
0000
,
0100
0000
0010
1000
0010
0000
1000
0000
0001
0000
1000
0000
0100
0000
0010
0000
,
0100
0000
1000
0001
1000
0000
0010
0000
0010
0000
0100
0000
0001
0000
0001
0000
,
1000
0000
0010
1000
2M10
3010
0100
0001
,
2000
3010
0100
0001
0200
0310
0100
0001
,
0020
0130
1000
0001
1001
1000
0010
0100
,
0002
1003
0100
1000
0020
0130
0001
0010
,
0002
0000
1003
0000
0010
0000
1000
0001
10M1
0000
1000
0000
0100
0000
0010
0000
,
0001
0000
0010
0100
1000
0000
0000
0000
0001
0000
1000
0000
0100
0000
0010
0000
,
0001
0000
1000
0010
1000
0000
0000
0000
0001
0000
0010
0000
0001
0000
0100
0000
,
0001
0000
1000
0010
1000
0000
0000
0000
0001
0000
0010
0000
0001
0000
0100
0000
,
0001
0000
1000
0010
1000
0000
0000
0000
1010
0000
0010
0000
1000
0000
0100
0000
,
0010
0000
0001
1000
0001
0000
0000
0000
0100
0000
0010
0000
0100
0000
0001
0000
,
0010
0000
0001
0010
0001
0000
0000
0000
0100
0000
0010
0000
0100
0000
0001
0000
,
1000
0000
0100
1000
0001
0000
0000
0000
0100
0000
0010
0000
0100
0000
1000
0000
,
0100
0000
0001
0100
0001
0000
0000
0000
0101
0000
0000
0000
0002
0000
0000
0000
,
0023
0000
0000
0000
0130
0000
0000
1000
0001
0000
0000
0000
0200
0000
0000
0000
,
0310
0000
1000
0001
1001
0000
2000
0000
,
3020
0000
0000
0000
1030
0000
0000
0001
0020
0000
0000
0000
0031
0000
0000
0000
,
0100
0100
0001
1000
1001
0000
0002
0000
,
0103
0100
0010
1000
0001
0000
2000
0000
,
3020
0000
1030
0100
1100
0000
2000
0000
,
3100
0010
0002
0000
0013
0100
1000
0001
,
1000
0010
1000
0000
0001
0100
0001
0000
1001
0000
0000
0000
0000
0000
0000
0000
;

//--------------- dance-single - XO FS- ----------------
#NOTES:
     dance-single:
     XO FS-:
     Challenge:
     14:
     0,0,0,0,0:
0000
0000
0000
0000
,
0000
0000
0000
0000
,
0000
0000
0000
0000
,
0000
0000
0000
0000
0001
0000
0000
0010
0000
0000
0001
0000
1000
0000
0001
0000
,
1000
0100
1000
0100
1000
0000
0100
0000
0010
0000
0001
1000
0001
0000
1000
0000
,
0010
0000
0100
0001
0100
0000
0010
0000
1000
0000
0100
0010
0100
0000
1000
0000
,
0001
0000
1000
0100
1000
0000
0010
0000
0001
0000
0010
1000
0010
0000
0100
0000
,
0001
0000
1000
0100
1000
0000
0100
0000
0001
0000
0100
1000
0001
0000
1000
0000
,
0100
0000
0010
0000
0011
0000
0000
0000
0001
0000
1000
0100
0020
0000
0000
0000
,
0031
0000
1000
0001
1000
0000
0000
0000
0001
0000
1000
0100
0020
0000
0000
0000
,
0031
0000
1000
0100
1000
0000
0000
0000
0001
0000
1000
0010
0200
0000
0000
0000
,
0301
0000
1000
0100
1000
0000
0000
0000
0100
0000
0010
0001
0010
0100
1000
0000
,
0001
0100
0010
1000
0001
0000
0100
0000
1000
0000
0100
0000
0001
0010
0000
0010
,
0000
0010
0001
0000
0100
0000
0010
0000
1000
0000
0010
0100
0010
0000
1000
0100
,
0000
0000
1000
0001
0010
0100
0010
0000
0001
0000
1000
0100
1000
0000
0001
0100
,
0000
0000
0001
0000
0010
0000
0100
0000
1000
0000
0001
1000
0001
0000
0001
0000
,
1000
0010
1000
0010
0100
0000
0001
0000
0100
0000
1000
0000
0100
0000
0001
0000
,
0100
0000
0001
1000
0001
0100
0010
1000
,
0001
0100
0010
1000
0010
0000
1000
0001
1000
0000
0001
0000
0010
0000
0100
0000
,
1000
0000
0001
0000
0101
0000
0000
0000
0110
0000
0000
0000
1000
0010
0000
0100
,
0001
0000
0010
0100
1000
0000
0100
0000
0002
0000
0000
0000
0103
0000
0000
1000
,
0010
0000
0100
0001
0010
0000
0000
0000
2000
0000
0000
0000
3010
0000
0001
0000
,
0100
0001
1001
0000
2000
0000
3010
0010
,
0100
0000
0001
1000
0001
0000
0000
0000
0200
0000
0000
0000
0310
0000
0010
0000
,
1000
0001
1000
0001
4000
0000
0000
0000
0000
0000
0000
0000
0000
0000
0000
0000
,
3001
0000
0010
0000
0011
0000
0001
0000
0100
0000
0010
0100
0002
0000
0000
0000
,
1003
0000
0100
0000
1000
0000
0010
0000
1000
0000
0001
1000
0002
0000
0000
0000
,
1003
0000
0001
0000
0100
0000
1000
0000
0100
0000
0001
0010
0001
0000
1000
0000
,
0001
0000
1000
0100
1000
0000
0010
0000
0001
0000
0010
0000
1000
0000
0001
0000
,
0010
0000
0100
0000
1200
0000
0000
0000
0310
0000
0001
1000
0002
0000
0000
0000
,
0013
0100
2100
0000
3001
1000
0100
0010
,
0001
0000
1000
0000
1200
0000
0000
0000
0310
0000
0001
0010
0001
0000
1000
0000
,
0001
0010
0200
0000
1300
0001
1000
0001
,
1000
0100
1000
0100
1000
0000
0000
0000
0100
0000
0000
0000
0010
0000
0000
0000
,
0001
0100
0001
0100
0001
0000
0000
0000
0010
0000
0000
0000
0100
0000
0000
0000
,
1000
0001
1000
0001
1000
0000
0000
0000
0100
0000
0000
0000
0010
0000
0000
0001
,
0010
0100
MMMM
0000
,
1000
0001
MMMM
0001
,
0001
1000
MMMM
0001
,
0010
0100
MMMM
0000
,
0001
0100
0001
0010
0100
1000
0010
1000
0001
0000
0100
0000
1000
0000
0100
0000
,
0001
0000
0010
0001
0200
0000
0000
0000
0301
0000
0100
0000
0010
0000
1000
0000
,
0001
0000
1000
0100
0010
0000
0001
0000
1000
0000
0100
0000
0001
0000
0100
0000
,
1000
0000
0001
0010
0100
0000
0000
0000
1000
0000
0001
0000
0010
0000
0100
0000
,
1000
0000
0010
0000
1000
0001
1000
0001
0010
0000
0001
0000
0100
0000
0010
0000
,
1000
0000
0010
0100
0002
0000
0000
0000
1003
0000
0100
0000
0010
0000
0100
0000
,
1000
0000
0100
0000
1000
0100
0010
0001
0010
0000
0001
0000
0100
0000
0010
0000
,
1000
0000
0001
0010
0001
0000
1000
0000
1000
0000
0000
0000
0100
0000
0100
0000
,
0010
0001
0010
0001
0010
0000
0100
1000
00M2
0000
1000
0000
1000
0000
1003
0000
,
MMMM
0010
1000
0010
MMMM
0100
0001
1000
,
MMMM
0001
0010
0001
1001
1000
0100
1000
,
MMMM
0001
0010
0001
MMMM
1000
0100
0010
,
0001
0000
0000
0010
0000
0000
0100
0000
0010
0000
0100
0000
1000
0000
0001
0000
10M0
0000
0000
0000
0010
0000
0000
0000
0001
0000
0000
0000
0010
0000
0000
0000
,
1000
0000
0000
0000
0001
0000
0010
0M00
0010
0000
0000
0000
1000
0000
0000
0000
0001
0000
0000
0000
1000
0000
0000
0000
0100
0000
0000
0000
0001
0000
0000
0000
,
0100
0000
1000
0100
0010
0000
0000
0000
0001
0000
0010
0000
1000
0000
0010
0000
,
0001
0000
0000
0000
0100
000M
0100
0000
0010
0000
0000
0000
0001
0000
0000
0000
1000
0000
0000
0000
0010
0000
0000
0000
0001
0000
0000
0000
0010
0000
0000
0000
,
1000
0000
0001
0010
0100
0000
1000
0000
1001
0000
0001
0000
1000
0000
0001
0010
,
0001
0010
0100
1000
0001
0100
0010
1000
0001
0000
0010
0000
0100
0000
1000
0000
,
0001
0100
0010
1000
0001
0100
0010
1000
0001
0000
0010
0000
0100
0000
1000
0000
,
0001
0000
0000
0000
0001
0000
0000
0000
1000
0000
0000
0000
0100
00M0
0100
0000
0001
0000
0000
0000
1000
0000
0000
0000
0001
0000
0100
0000
0010
0000
1000
0000
,
0001
0010
0100
1000
0001
0100
0001
0100
0001
0000
0010
0000
0200
0000
0000
0000
,
1300
0000
0000
0000
1000
0000
0001
1000
0100
0000
0000
0000
0020
0000
0000
0000
,
0031
0000
1000
0001
0011
0000
0020
0000
,
0130
0000
0000
0000
1000
0000
0001
0100
0001
0000
0000
0000
0020
0000
0000
0000
,
0130
0100
1000
0000
1001
0000
0001
0000
,
0010
0010
0200
0000
2300
0000
3001
0000
,
0010
0110
1100
1000
,
0002
0000
1003
0001
1000
0010
0100
0001
,
1000
0010
1000
0100
1000
0001
0010
0001
0100
0000
0000
0000
0000
0000
0000
0000
;

//--------------- dance-double - ----------------
#NOTES:
     dance-double:
     :
     Hard:
     12:
     0,0,0,0,0:
00000000
00000000
00000000
00000000
,
00000000
00000000
00000000
00000000
,
00000000
00000000
00000000
00000000
,
00000000
00000000
00000000
00000000
00001000
00000000
00000000
00010000
00000000
00000000
00001000
00000000
01000000
00000000
01000000
00000000
,
00100000
10000000
00100000
10000000
00010000
00000000
01000000
00000000
10000000
00000000
01000000
00000000
00010000
00000000
00100000
00000000
,
00001000
00000000
00010000
00001000
00010000
00000000
00000100
00000000
00000010
00000000
00000100
00000000
00010000
00000000
00000010
00000000
,
00000100
00000000
00000001
00001000
00000001
00000000
00000010
00000000
00000100
00000000
00000001
00000000
00000100
00000000
00001000
00000000
,
00000100
00000000
00010000
00001000
00010000
00000000
00001000
00000000
00010000
00000000
00100000
00000000
00010000
00000000
00001000
00000000
,
00100000
00010000
00110000
00000000
00100000
01000000
10000000
01000000
,
00010000
01000000
20000000
00000000
30010000
00100000
01000000
00010000
,
01000000
00100000
00020000
00000000
01030000
00001000
00100000
00001000
,
00010000
00001000
00020000
00000000
00030010
00000100
00001000
00000100
,
00000010
00000000
00001000
00000000
00001010
00000000
00000000
00000000
00000010
00000000
00001000
00000000
00000001
00000000
00000000
00000100
,
00000000
00000010
00001000
00000000
00000001
00000000
00000001
00000000
00000000
00000000
00001000
00000000
00000100
00000000
00000000
00001000
,
00000000
00000000
00000100
00001000
00000100
00000000
00001000
00000000
00000000
00000000
00000100
00000000
00010000
00000000
00000000
00010000
,
00000000
00000000
00001000
00000000
00100000
00000000
00001000
00000000
00000000
00000000
00100000
00000000
00010000
00000000
00000000
00010000
,
00000000
00100000
00101000
00001000
00010000
01000000
00100000
01000000
,
10000000
00000000
00010000
00000000
01000000
00000000
01000000
00000000
00000000
00000000
01000000
00000000
00100000
00000000
00000000
10000000
,
00000000
10000000
00020000
00000000
01030000
00001000
00000000
00010000
,
00000000
00001000
00011000
00000000
00010100
00000000
00001000
00001000
,
00000010
00000100
00000201
00000000
00001000
00000000
00000310
00000000
,
00010000
00001000
00010000
00000000
00002000
00000000
01000000
01000000
,
01003000
00000000
01010000
00000000
00020000
00000000
10000000
10000000
,
10030000
00000000
00010000
00000000
02000000
00000000
00001000
00001000
,
03001000
00040000
00000000
00000000
,
00031000
00010000
00011000
00001000
00100000
01000000
00100000
00000000
,
00010000
10000000
01000000
00010000
01000000
10000000
00010000
00000000
,
00100000
00010000
00000010
00010000
00100000
00001000
00010000
00000100
,
00000001
00000100
00000010
00000100
00010000
00000010
00001000
00000000
,
00000010
00001000
00001010
00000000
00001000
00000001
00000200
00000000
,
00000310
00001000
00000002
00000000
00001003
00000100
00000010
00000001
,
00001000
00000001
00000200
00000000
00000310
00001000
00010000
00000000
,
00001000
00000010
00010000
00000000
00001000
00100000
00010000
01000000
,
00001000
01001000
01000000
00010000
,
10000000
00010000
10000000
00010000
10000000
00000000
00000000
00000000
00010000
00000000
00000000
00000000
01000000
00000000
00000000
00000000
,
00001000
00010000
00001000
00010000
00001000
00000000
00000000
00000000
00010000
00000000
00000000
00000000
00000100
00000000
00000000
00000000
,
00000001
00001000
00000001
00001000
00000001
00000000
00000000
00000000
MMMMMMMM
00000000
00000000
00000000
00000010
00000000
00000000
00000000
,
00010000
00001000
MMMMMMMM
01000000
,
00010000
10000000
MMMMMMMM
00010000
,
01000000
00001000
MMMMMMMM
00010000
,
00001000
00010000
00000100
00001000
00000001
00000100
00001000
00000100
,
00000001
00000000
00001000
00000010
00001000
00000000
00000000
00000000
00000100
00000000
00010000
00000000
00001000
00000000
00000100
00000000
,
00001000
00000000
00010000
00000100
00010000
00000000
00000000
00000000
00001000
00000000
00100000
00000000
01000000
00000000
00010000
00000000
,
01000000
00000000
00100000
00010000
10000000
00000000
00000000
00000000
00010000
00000000
00100000
00000000
10000000
00000000
00100000
00000000
,
00010000
01000000
00010000
00100000
00101000
00001000
00010000
00100000
,
00010000
00000000
00001000
00100000
00001000
00000000
00000000
00000000
00010000
00000000
00000100
00000000
00000001
00000000
00000100
00000000
,
00000010
00000000
00001000
00000001
00000100
00000000
00000000
00000000
00000001
00000000
00000010
00000000
00000100
00000000
00000001
00000000
,
00000100
00000000
00000010
00000001
00001000
00000000
00000000
00000000
00000100
00000000
00010000
00000000
00001000
00000000
00010000
00000000
,
00000100
00010000
00000100
00010000
00010100
00010000
00000100
00010000
,
0000MMMM
00100000
00010000
10000000
MMMM0000
00100000
01000000
00001000
,
MMMM0000
00000100
00001000
00000001
00001001
00001000
00000010
00001000
,
0000MMMM
00000010
00010000
00001000
MMMM0000
00001000
00100000
00010000
,
10000000
00000000
00010000
01000000
01010000
00010000
10000000
00100000
,
10000000
00000000
00010000
10000000
00010000
00000000
00000000
00000000
00000000
00000000
01000000
00000000
00001000
00000000
00010000
00000000
,
00001000
00000000
00010000
00000100
00010000
00000000
00000000
00000000
00000010
00000000
00000100
00000000
00000001
00000000
00000100
00000000
,
00000010
00000100
00000001
00001000
00000100
00001000
00000100
00000001
,
00000100
00000010
00000001
00000100
00000101
00000001
00001000
00000010
,
00010000
00000000
00000100
00010000
00000100
00000000
00000000
00000000
00010000
00000000
00001000
00000000
01000000
00000000
00100000
00000000
,
01000000
00000000
00001000
01000000
00010000
00000000
00000000
00000000
10000000
00000000
00010000
00000000
10000000
00000000
00100000
00000000
,
10000000
00000000
00010000
00100000
00010000
00000000
00000000
00000000
00100000
00000000
00001000
00000000
00010000
00000000
00000100
00000000
,
00010000
00000010
00000100
00000001
00001002
00000000
00000100
00000000
,
00001003
00000010
00001000
00002100
,
00010000
00013000
00012000
00100000
,
00103000
00010000
10010000
20000000
,
00010000
00010000
30010000
00000000
01010000
00000000
02000000
00000000
,
03001000
00010000
00001000
00000000
00020000
00000000
00030020
00000000
,
00000130
00000000
00000001
00001000
00001001
00000000
00000001
00000000
,
00001000
00000010
00001000
00000000
00000001
00000000
00001000
00000000
,
00000001
00000100
00000010
00001000
00000100
00000000
00000000
00000000
;
