#TITLE:III;
#SUBTITLE:;
#ARTIST:Lv.4;
#TITLETRANSLIT:3;
#SUBTITLETRANSLIT:;
#ARTISTTRANSLIT:;
#GENRE:;
#CREDIT:;
#MUSIC:III.ogg;
#BANNER:;
#BACKGROUND:;
#CDTITLE:;
#SAMPLESTART:66.647;
#SAMPLELENGTH:10.626;
#SELECTABLE:YES;
#OFFSET:-0.036;
#BPMS:0.000=180.000
,96.000=90.000
,128.000=180.000
;
#STOPS:;
#BGCHANGES:;
#FGCHANGES:;

//--------------- dance-single - ----------------
#NOTES:
     dance-single:
     :
     Beginner:
     3:
     0.152628,0.22391,0.068929,0.025848,0,124,116,8,3,0,0,0.152628,0.22391,0.068929,0.025848,0,124,116,8,3,0,0:
0000
0000
0000
0000
,
0000
0000
0000
0000
,
0000
0000
0000
0000
,
0000
0000
0000
0000
,
1001
0000
1000
0000
,
0010
0000
0100
0000
,
0001
0000
0010
0000
,
0100
0000
0100
0000
,
1001
0000
0100
0000
,
0010
0000
1000
0000
,
0001
0000
0010
0000
,
0100
0000
1000
0000
,
1000
0000
0010
0000
,
0100
0000
0001
0000
,
0010
0000
0010
0000
,
0100
0000
1000
0000
,
1001
0000
0100
0000
,
0000
0000
0010
0000
,
0000
0000
0100
0000
,
0000
0000
0001
0000
,
0010
0000
0010
0000
,
0100
0000
0100
0000
,
1000
0000
0001
0000
,
0100
0000
0010
0000
,
2000
0000
0000
0000
,
3000
0000
0000
0000
,
0000
0002
0000
0000
0000
0000
0000
0000
,
0003
0000
0000
0000
,
1000
0000
0000
0000
,
0010
0000
0000
0000
,
0100
0000
0000
0000
,
0010
0000
0000
0000
,
1001
0000
0000
0000
,
1001
0000
0000
0000
,
0001
0000
0000
0000
,
1000
0000
0000
0000
,
0110
0000
0000
0000
,
0010
0000
0000
0000
,
1000
0000
0001
0000
,
0100
0100
0100
0000
,
0010
0000
0000
0000
,
1000
0000
0000
0000
,
0001
0000
1000
0000
,
0010
0000
0100
0000
,
0001
0000
0010
0000
,
0100
0000
1000
0000
,
0001
0000
0100
0000
,
0010
0000
1000
0000
,
0010
0000
0100
0000
,
0001
0001
0001
0000
,
1001
0000
1000
0000
,
0010
0000
0100
0000
,
0001
0000
0100
0000
,
0010
0000
1000
0000
,
0001
0000
0100
0000
,
0010
0000
1000
0000
,
0010
0000
0100
0000
,
0010
0000
1000
0000
,
1001
0000
0010
0000
,
0100
0000
0001
0000
,
0010
0000
0100
0000
,
1000
0000
0010
0000
,
0100
0000
0001
0000
,
0100
0000
0010
0000
,
1000
0000
0001
0000
,
0010
0000
0100
0000
,
0001
0000
0000
0000
,
0100
0000
0000
0000
,
0010
0000
0000
0000
,
1000
0000
0000
0000
,
0001
0000
0000
0000
,
0100
0000
0000
0000
,
0010
0000
1000
0000
,
0001
0000
0100
0000
,
0020
0030
0000
0000
;

//--------------- dance-single - ----------------
#NOTES:
     dance-single:
     :
     Easy:
     6:
     0.232634,0.287885,0.077545,0.086161,0,189,180,9,10,0,0,0.232634,0.287885,0.077545,0.086161,0,189,180,9,10,0,0:
0000
0000
0000
0000
,
0000
0000
0000
0000
,
0000
0000
0000
0000
,
0000
0000
0000
0000
,
1001
0000
0001
0000
,
0100
0000
0010
0000
,
1000
0001
0100
0000
,
0010
1000
0010
0000
,
0100
0000
0001
0000
,
0010
0000
0100
0000
,
1000
0000
0010
0000
,
0100
0000
0001
1000
,
0001
0000
0100
0000
,
0010
0000
1000
0001
,
1000
0000
0010
0000
,
0100
0000
0001
1000
,
0001
0000
0100
0000
,
0010
0000
1000
0000
,
0001
0000
0010
0000
,
0100
0000
1000
1000
,
1001
0000
0010
0000
,
0100
0000
0001
0000
,
0010
0000
0100
0000
,
1000
0001
0100
0010
,
2000
0000
0000
0000
,
0000
3002
0000
0000
0000
0000
0000
0000
,
0000
0203
0000
0000
0000
0000
0000
0000
,
0000
0320
0000
0000
0000
2030
0000
0000
,
3002
0000
0003
0000
,
0200
0000
0300
0000
,
0020
0000
0030
0000
,
1000
0000
0001
0000
,
1001
0000
0000
0000
,
1000
0000
0000
0000
,
1001
0000
0000
0000
,
0010
0000
1000
0000
,
1001
0000
0000
0000
,
1001
0000
0000
0000
,
1001
0000
1001
0000
,
0001
1000
0001
0100
,
0010
0000
0000
0000
,
1000
0000
0001
0100
,
0010
1000
0001
0000
,
0100
0010
1000
0000
,
0001
0010
0001
0000
,
1000
0001
1000
0000
,
0010
0100
0001
0000
,
0010
0010
0010
0000
,
0100
0000
1000
0000
,
0001
0100
0001
0100
,
0010
1000
0010
1000
,
0001
0100
0001
0100
,
0010
1000
0010
1000
,
0001
0100
0010
1000
,
0100
0010
0001
0010
,
0100
1000
0001
0100
,
0010
1000
0001
0010
,
0001
1000
0100
1000
,
0001
0100
0010
1000
,
0001
1000
0010
1000
,
0001
0010
0001
1000
,
0010
0100
0001
0100
,
0010
1000
0100
0010
,
0001
0100
0010
1000
,
0100
0010
0001
0100
,
0010
1000
0001
0100
,
0010
0000
1000
0000
,
0001
0000
0100
0000
,
0010
0000
1000
0000
,
0100
0000
0010
0000
,
0010
0000
0100
0000
,
0100
0000
1000
0000
,
1000
0000
0010
0000
,
0100
0000
0001
0000
,
2002
3003
0000
0000
;

//--------------- dance-single - ----------------
#NOTES:
     dance-single:
     :
     Medium:
     11:
     0.461576,0.549275,0.086161,0.094777,0.159398,375,365,10,11,0,0,0.461576,0.549275,0.086161,0.094777,0.159398,375,365,10,11,0,0:
0000
0000
0000
0000
,
0000
0000
0000
0000
,
0000
0000
0000
0000
,
0000
0000
0000
0000
0000
1000
0000
0001
,
1001
0010
1000
0010
,
0100
0001
0010
0001
,
1001
0010
0100
0001
,
0010
0000
0001
0000
1000
0001
1000
0000
,
1000
0010
0000
0100
0000
0001
0000
0010
,
0000
0100
0000
1000
0000
0001
0100
0010
,
1000
0001
0000
0100
0000
0010
0000
1000
,
0000
0001
0000
0100
0010
1000
0010
0100
,
0001
0100
0000
0010
0000
1000
0000
0010
,
0000
0100
0000
0001
0100
0010
1000
0001
,
0100
0001
0000
0010
0000
0100
0000
1000
,
0000
0010
0000
0100
0001
0100
0010
1000
,
0100
0010
0000
0010
0000
0001
0000
0100
,
0000
0010
0000
1000
0010
0100
0010
1000
,
0100
0010
0000
0001
0000
0010
0000
0100
,
0000
1000
0000
0001
0100
0010
1000
0010
,
0100
0001
0000
0010
0000
0100
0000
1000
,
0000
0001
0000
0100
0000
0010
1000
0010
,
0100
0001
0000
0100
0000
0001
0000
0100
,
0010
1000
0100
1000
0100
0010
0001
0010
,
0200
0000
0000
0000
,
0000
0320
0000
0000
0000
0000
0000
0000
,
0000
2030
0000
0000
0000
0000
0000
0000
,
0000
3002
0000
0000
0000
0203
0000
0000
,
0310
0000
0000
1000
0000
0000
0010
0000
0000
1000
0000
0000
0010
0000
0100
0000
0000
0000
0000
0000
0000
0000
0000
0000
0000
0000
0000
0000
0000
0000
0000
0000
,
0001
0000
0000
1000
0000
0000
0001
0000
0000
1000
0000
0000
0001
0000
0100
0000
0000
0000
0000
0000
0000
0000
0000
0000
0000
0000
0000
0000
0000
0000
0000
0000
,
0010
0000
0000
1000
0000
0000
0010
0000
0000
1000
0000
0000
0010
0000
1000
0000
0000
0000
0000
0000
0000
0000
0000
0000
0000
0000
0000
0000
0000
0000
0000
0000
,
0001
0000
0000
0100
0000
0000
0001
0000
0000
0000
0000
0000
0100
0000
0000
0000
0010
0000
0000
1000
0000
0000
0010
0000
0000
0000
0000
0000
0100
0000
0000
0000
,
0001
0000
0000
1000
0000
0000
0001
0000
0000
1000
0000
0000
0001
0000
0100
0000
,
0010
0000
0000
1000
0000
0000
0010
0000
0000
1000
0000
0000
0010
0000
0100
0000
,
0001
0000
0000
1000
0000
0000
0001
0000
0000
1000
0000
0000
0001
0000
0100
0000
,
0010
0000
0000
1000
0000
0000
0010
0000
0000
1000
0000
0000
0010
0000
0100
0000
,
0202
0000
0000
0000
0000
0000
0000
0000
0303
0000
0000
0000
0000
0000
0010
1000
,
0010
0100
0101
0001
,
1001
1001
1001
1001
,
1000
0100
1000
0100
0020
0000
0032
0000
,
1003
0000
0100
0000
,
1000
0000
0010
0000
0100
0001
0100
0001
,
0100
0000
0000
0010
0000
0000
1000
0000
0000
0001
0000
0000
0100
0000
0000
0000
,
0010
0000
0000
1000
0000
0000
0010
0000
0000
1000
0000
0000
0010
0000
0000
0000
,
0100
0000
0000
0001
0000
0000
0100
0000
0000
0001
0000
0000
0100
0000
0000
0000
,
0010
0000
0000
1000
0000
0000
0010
0000
0000
1000
0000
0000
0010
0000
0000
0000
,
0100
0001
0010
0100
,
1000
0001
0100
0010
,
1000
0000
0000
0010
0000
0000
0100
0000
0000
0001
0000
0000
0100
0000
0000
0000
,
0010
0000
0000
1000
0000
0000
0100
0000
0000
0010
0000
0000
0001
0000
0000
0000
,
0100
0010
1000
0001
,
0100
0010
0100
0010
1000
0010
1000
0000
,
0010
0100
0001
0010
,
0001
1000
0001
1000
0001
0100
0001
0000
,
0010
0100
1000
0001
,
0100
0010
1000
0010
0100
0001
0010
0000
,
0100
1000
0001
0100
,
0010
1000
0010
0100
0001
0010
0001
0000
,
1001
0000
0010
0000
0100
0010
1000
0000
,
0001
0010
0100
1000
0001
0100
0001
0000
,
1000
0000
0010
0000
0100
0001
0010
0000
,
0001
0100
0001
0010
0001
0100
0001
0000
,
1000
0100
1000
0100
1000
0100
1000
0100
,
0010
0001
0010
0001
0010
0001
0010
0001
,
0100
0010
0100
0010
1000
0001
1000
0001
,
1000
0100
0010
0001
0010
0100
1000
0001
,
0100
0010
1000
0001
,
0100
0010
1000
0100
,
0010
0001
0100
0010
,
1000
0000
0001
0000
0100
0010
0100
0010
,
0100
0001
0010
0100
,
1000
0000
0001
0000
0100
0000
0010
1000
,
0010
0100
0001
0010
,
0100
1000
0100
1000
0001
0100
0010
1000
,
2002
0000
0000
0000
,
3003
0000
0000
0000
;

//--------------- dance-single - XMOD XO ----------------
#NOTES:
     dance-single:
     XMOD XO:
     Hard:
     15:
     0.710212,0.933876,0.051697,0.068929,0.659131,577,571,6,8,0,0,0.710212,0.933876,0.051697,0.068929,0.659131,577,571,6,8,0,0:
0000
0000
0000
0000
,
0000
0000
0000
0000
,
0000
0000
0000
0000
,
0000
0000
0000
0000
0000
1000
0000
0010
,
1001
0011
0001
1001
,
1000
0000
1010
0000
0010
0000
0100
0001
,
0100
1010
1000
1001
,
0001
0000
0000
0000
1000
0000
0000
0000
0001
1000
0001
0000
1000
0010
1000
0000
,
0100
0000
0010
0001
0000
0000
0001
0100
0000
0000
0100
0010
0000
0000
0010
1000
,
0000
0000
1000
0001
0000
0000
0001
0100
0000
0000
0100
0010
1000
0000
0010
0000
,
1000
0000
0001
0100
0000
0000
0100
0010
0000
0000
0010
1000
0000
0000
1000
0001
,
0000
0000
0001
0100
0000
0000
0100
0000
0010
1000
0010
0000
0100
0001
0100
0000
,
0010
1000
0000
0001
0000
0100
0000
0010
,
0000
1000
0000
0001
0010
0100
1000
0001
,
0100
0010
0000
1000
0000
0001
0000
0100
,
0000
0000
0010
0000
0000
0000
1000
0000
0001
0100
0010
1000
0001
0000
0010
0000
,
0001
0100
0001
0100
0010
1000
0001
0000
,
0100
0010
0100
0001
1000
0010
1000
0000
,
1000
0010
0000
0010
1000
0000
0001
0100
0000
0100
0001
0000
1000
0000
0010
0000
,
0100
0001
0000
0100
0010
0000
1000
0000
0010
1000
0010
0000
0100
0001
0100
0000
,
0010
1000
0000
1000
0010
0000
0010
0100
0000
0100
0001
0000
1000
0000
0010
0000
,
0100
0001
0000
0100
0001
0000
1000
0010
0000
1000
0010
0000
1000
0000
0010
0000
,
0100
0001
0000
1000
0100
0000
0010
0001
0000
1000
0010
0000
1000
0000
0100
0000
,
0010
0000
0001
0000
0010
0000
0100
0000
1000
0001
1000
0010
0100
0000
0001
0000
,
0020
0000
0000
0000
,
0000
0032
0000
0000
0000
0000
0000
0000
,
0000
0023
0000
0000
0000
0000
0000
0000
,
0000
0230
0000
0000
0000
2300
0000
0000
,
3001
0000
0000
1000
0000
0000
0100
0000
0000
0010
0000
0000
0001
0000
0010
0000
0000
0000
0000
0000
0000
0000
0000
0000
0000
0000
0000
0000
0000
0000
0000
0000
,
0100
0000
0000
1000
0000
0000
0100
0000
0000
0010
0000
0000
0001
0000
1000
0000
0000
0000
0000
0000
0000
0000
0000
0000
0000
0000
0000
0000
0000
0000
0000
0000
,
0001
0000
0000
0100
0000
0000
0010
0000
0000
1000
0000
0000
0100
0000
0010
0000
0000
0000
0000
0000
0000
0000
0000
0000
0000
0000
0000
0000
0000
0000
0000
0000
,
0001
0000
0000
0100
0000
0000
0010
0000
0000
0100
0000
0000
0001
0000
1000
0000
0100
0000
0000
0010
0000
0000
0001
0000
0000
1000
0000
0000
0100
0000
0010
0000
,
0001
0100
0000
0010
1000
0000
0010
0100
0000
0001
1000
0000
0100
0000
1000
0000
,
0100
1000
0000
0100
1000
0000
0001
0010
0000
0100
1000
0000
0100
0000
1000
0000
,
0100
1000
0000
0100
1000
0000
0001
0010
0000
0100
1000
0000
0001
0000
0100
0000
,
0010
1000
0000
1000
0010
0000
0100
0001
0000
0001
0100
0000
0010
0000
1000
0000
,
0010
0100
0000
0001
0100
0000
0010
1000
0000
0010
1000
0000
0001
0000
1000
0001
,
1000
0000
0000
0010
0000
0000
0100
0000
0001
0000
0010
0000
0100
0000
0000
0000
,
1000
0001
1000
0001
,
1000
0000
0100
0000
1000
0000
0100
0000
0010
0001
0010
0001
2000
0000
0000
0000
,
3001
0010
0000
0010
0100
0000
0100
1000
0000
0100
0010
0000
0001
1000
0001
0000
,
0010
0100
0000
0100
1000
0000
0100
0010
0000
0010
0001
0000
1000
0000
0001
0000
,
1000
0000
0000
0010
0000
0000
0100
0000
0000
0001
0000
0000
1000
0001
1000
0000
,
0001
0000
0000
0010
0000
0000
0100
0000
0000
1000
0000
0000
0100
0010
0100
0000
,
1000
0000
0000
0100
0000
0000
0010
0000
0000
0001
0000
0000
1000
0001
1000
0000
,
0100
0000
0000
0010
0000
0000
0001
0000
0000
1000
0000
0000
0100
0010
0100
0000
,
1000
0100
0000
0100
1000
0000
0001
0010
0000
0010
0001
0000
1000
0000
0100
0000
,
0010
0001
0000
0001
0010
0000
0010
0100
0000
0100
1000
0000
0100
0010
0100
0000
,
1000
0010
0000
0010
1000
0000
1000
0001
0000
0001
1000
0000
0001
0000
1000
0000
,
0001
0100
0001
0100
0010
1000
0010
1000
,
0001
0010
0100
1000
0010
1000
0001
0100
,
0010
0100
0001
1000
0100
0010
0001
0100
,
0010
1000
0010
0100
0001
1000
0100
0010
,
0001
0100
0010
1000
0100
0010
0001
1000
,
0010
0100
0001
0100
0010
1000
0001
0100
,
0001
1000
0100
0010
0001
0100
0001
1000
,
0100
0010
0001
0100
0010
1000
0010
0100
,
0001
1000
0100
0010
0001
0100
0010
1000
,
0001
0100
1000
0100
0001
1000
0100
0010
,
0001
1000
0100
0001
0100
1000
0100
0010
,
0001
0100
1000
0100
0001
1000
0010
0100
,
0001
1000
0010
0001
0010
0100
0001
1000
,
0100
0010
0001
0100
1000
0100
0010
1000
,
0100
0010
0001
1000
0010
0100
0001
0100
,
1000
0100
0001
1000
0100
0010
0001
0100
,
0010
1000
0010
1000
0010
0000
0100
0000
0001
0100
0001
0100
0010
1000
0010
1000
,
0001
0010
0000
0010
0001
0000
1000
0100
0000
0100
1000
0000
0100
0000
0010
0000
,
0001
0010
0000
0010
0001
0000
1000
0000
0100
0000
0010
0000
0001
0000
1000
0000
,
0100
0010
0000
0010
0100
0000
1000
0000
0001
0000
1000
0000
0100
0000
0010
0000
,
0001
0100
0000
0100
0001
0000
1000
0000
0100
0010
0100
0000
1000
0001
1000
0000
,
0001
0100
0000
0100
0001
0000
1000
0000
0100
0000
0010
0000
0001
0000
0100
0000
,
0010
1000
0000
1000
0010
0000
0100
0000
0001
0000
1000
0000
0100
0000
0010
0000
,
0001
0100
0001
0100
0001
0100
0001
0100
0010
1000
0010
1000
0010
1000
0010
1000
,
0001
0000
0010
0000
0001
0000
1000
0000
0100
0010
0100
0010
0001
1000
0001
2000
,
0002
0000
0000
3003
;

//--------------- dance-single - STR 4/2/17/2 XMOD HS ----------------
#NOTES:
     dance-single:
     STR 4/2/17/2 XMOD HS:
     Challenge:
     18:
     1.084396,1.094889,0.017232,0.112009,1.770605,881,879,2,13,0,0,1.084396,1.094889,0.017232,0.112009,1.770605,881,879,2,13,0,0:
0000
0000
0000
0000
,
0000
0000
0000
0000
,
0000
0000
0000
0000
,
0000
0000
0000
0000
,
1000
0100
0010
0001
0010
0100
1000
0001
0100
0010
1000
0001
0100
0010
1000
0100
,
0010
0001
0010
0100
1000
0001
0100
0010
1000
0001
0010
0001
1000
0010
0100
0001
,
0010
0001
1000
0100
0010
0001
0010
0100
1000
0001
0100
0010
1000
0100
0010
0100
,
1000
0001
0100
0010
1000
0100
0010
0001
0010
0100
1000
0001
0100
0010
1000
0010
,
0200
0000
0001
1000
0000
0000
1000
0001
0300
0000
0001
0010
0100
0000
1000
0100
,
0020
0000
0001
0100
0000
0000
1000
0100
0030
0001
0010
0100
1000
0000
0001
1000
,
0200
0000
0010
0001
0000
0000
0001
1000
0300
0010
0001
1000
0001
0000
1000
0001
,
1000
0100
0010
0001
1000
0010
0100
0001
1000
0001
1000
0000
0001
0100
0001
0000
,
0020
0000
0001
1000
0000
0000
1000
0001
0030
0001
0100
0010
1000
0100
1000
0010
,
0200
0000
0001
0010
0000
0000
1000
0010
0000
0301
0100
0010
1000
0000
0001
0000
,
0020
0000
0001
0100
0000
0000
1000
0100
0030
0001
1000
0000
0001
0000
1000
0100
,
0010
0001
0010
0100
1000
0010
1000
0100
1000
0010
0100
0001
1000
0100
0010
0001
,
0010
0100
0010
0100
1000
0010
1000
0010
0100
0001
1000
0000
0010
0000
1000
0000
,
0001
0010
0100
1000
0010
1000
0001
0100
0010
0100
0001
1000
0100
0000
0010
0000
,
0001
0010
0000
0010
0001
0000
1000
0100
0000
0100
1000
0000
0001
0000
0010
0000
,
0100
1000
0000
0100
0010
0001
1000
0100
0010
0001
0010
0000
0100
1000
0100
0000
,
0010
0001
0000
0001
0010
0000
0010
0100
0000
0100
1000
0000
0001
0000
0010
0000
,
0100
1000
0000
0100
0010
0001
1000
0100
0000
0010
0001
0000
1000
0000
0010
0000
,
0100
0001
0000
1000
0100
0010
0001
1000
0000
1000
0010
0000
0001
0000
0100
0000
,
0010
1000
0000
0010
0100
0001
1000
0100
0010
0001
0010
0100
1000
0000
0100
0000
,
M020
0000
0000
0000
,
0000
0032
0000
0000
0000
0000
0000
0000
,
0000
0023
0000
0000
0000
0000
0000
0000
,
0000
0230
0000
0000
0000
2300
0000
0000
,
3001
0100
0000
0010
1000
0000
0100
0010
0000
0001
0010
0000
0100
1000
0100
0000
0000
0000
0000
0000
0000
0000
0000
0000
0000
0000
0000
0000
0000
0000
0000
0000
,
0010
0001
0000
0010
0100
0000
1000
0100
0000
0010
0001
0000
1000
0100
0010
0000
0000
0000
0000
0000
0000
0000
0000
0000
0000
0000
0000
0000
0000
0000
0000
0000
,
0001
0100
0000
0010
1000
0000
0010
0100
0000
0001
0010
0000
0100
1000
0100
0000
0000
0000
0000
0000
0000
0000
0000
0000
0000
0000
0000
0000
0000
0000
0000
0000
,
0001
0100
0000
0010
1000
0000
0010
0100
0000
0001
1000
0000
0100
0010
0100
0000
1000
0010
0000
0100
0001
0000
0010
0100
0000
1000
0100
0000
0010
0001
0010
0000
,
1001
0100
0000
0010
1000
0000
0010
0100
0000
0001
1000
0000
0100
0010
0100
0000
,
1000
0100
0000
0100
1000
0000
0001
0010
0000
0100
1000
0000
0100
0010
0100
0000
,
1000
0100
0000
0100
1000
0000
0001
0010
0000
0100
1000
0000
0001
0100
0001
0000
,
1000
0100
0000
0010
0001
0000
1000
0100
0000
0010
0001
0000
1000
0001
1000
0000
,
2000
3001
0000
1000
0100
0000
0010
0001
0000
1000
0010
0000
0100
0001
0100
0010
,
1000
0100
0000
0100
0010
0000
0010
0001
0000
0001
1000
0000
0001
0010
0100
1000
,
0100
0000
0010
0001
0000
0001
0010
0000
0010
0100
0000
0100
1000
0000
0100
0010
,
0100
0000
0000
0000
0000
0000
0010
0000
0000
0000
0000
0000
0001
0000
0000
0000
0000
0000
1000
0000
0000
0000
0000
0000
0100
0000
0000
0010
0000
0000
0100
0000
0000
1000
0000
0000
0001
0000
1000
0000
0001
0000
1000
0000
0001
0000
1000
0000
,
0001
0010
0000
0010
0100
0000
0100
1000
0000
0100
0010
0000
0001
1000
0001
0000
,
0010
0100
0000
0100
1000
0000
0100
0010
0000
0010
0001
0100
0010
1000
0001
0100
,
0001
0010
0000
0010
0100
0000
0100
1000
0000
1000
0100
0000
0010
0001
0010
0000
,
0100
1000
0000
0100
0010
0000
0001
0100
0000
0001
1000
0000
0001
0010
0100
0000
,
1000
0010
0000
0010
0100
0000
0100
0001
0000
0001
1000
0000
0100
0010
0100
0000
,
1000
0001
0000
0001
0010
0000
0010
0100
0000
0100
1000
0000
0001
0010
0001
0000
,
1000
0100
0000
0100
1000
0000
1000
0001
0000
0001
0010
0000
0100
1000
0100
0000
,
0010
0100
0000
0100
0010
0000
0100
1000
0000
0001
1000
0000
0100
0010
0001
0000
,
1000
0010
0000
1000
0001
0000
1000
0010
0000
0100
0001
0000
1000
0010
1000
0000
,
0001
0100
0010
1000
0010
0100
0001
1000
0100
0010
0001
0100
0010
1000
0100
0010
,
0001
0100
0010
1000
0010
0100
0001
1000
0100
0010
0001
1000
0010
0100
0001
0100
,
0001
1000
0100
0010
0001
1000
0001
0010
0001
0100
0010
1000
0010
0100
0001
1000
,
0001
0010
0100
1000
0010
0100
0001
0100
0010
1000
0100
0010
0001
1000
0010
0100
,
0001
1000
0010
0100
0010
1000
0001
0010
0100
1000
0100
0010
0001
0100
0010
0100
,
0001
1000
0100
0010
0001
0100
0010
0100
0001
1000
0100
0010
0001
0100
0010
1000
,
0010
0100
0001
1000
0100
0010
0001
0100
0001
1000
0010
1000
0001
0010
0100
1000
,
0001
0010
0001
1000
0010
0100
0001
0100
0010
1000
0100
0010
0001
1000
0010
0100
,
0001
0100
0010
1000
0100
0010
0001
1000
0100
0010
0001
1000
0010
0100
0001
1000
,
0010
1000
0100
0010
0001
1000
0010
0100
0001
0100
0010
1000
0100
0010
0001
1000
,
0010
0100
0001
0100
0010
1000
0100
0010
0001
1000
0010
0100
0001
0100
0010
1000
,
0100
0010
0001
1000
0001
0010
0001
1000
0100
0010
0100
1000
0010
0100
0001
0100
,
0010
1000
0100
0010
0001
1000
0001
0100
0010
1000
0010
0100
0001
1000
0100
0010
,
0001
0100
0010
1000
0010
0100
0001
1000
0100
0010
0001
0100
0010
1000
0010
0100
,
0001
1000
0100
0010
0100
1000
0010
0100
0001
1000
0100
0010
0001
1000
0010
0100
,
0001
1000
0100
0010
0001
1000
0010
0100
0001
1000
0001
0010
0001
1000
0100
0010
,
0001
1000
0010
1000
0100
0010
0001
1000
0001
0010
0001
0100
0010
1000
0100
0010
,
0001
0010
0000
0010
0001
0000
1000
0100
0000
0100
0010
0000
0002
0000
2003
0000
,
3100
0010
0000
0010
0001
0010
0100
1000
0000
0100
0010
0000
0002
0000
2003
0000
,
3100
0010
0000
0001
0100
0010
0100
0001
0000
1000
0100
0000
0020
0000
0032
0000
,
1003
0100
0000
0100
0010
0001
1000
0010
0100
0001
0100
0000
0010
1000
0010
0000
,
1000
0000
0001
1000
0001
0000
0010
0001
0010
0000
0001
0100
0010
0000
1000
0010
,
0100
0000
0001
1000
0100
0000
0010
0001
0100
0000
0010
1000
0010
0000
0100
0001
,
1000
0100
0010
0001
0100
0010
1000
0010
0100
0001
1000
0100
0010
0001
0100
0010
,
1000
0010
0100
0001
1000
0100
0010
0001
0100
0010
1000
0010
0100
0001
0010
0001
,
0020
0030
0000
0000
;

//--------------- dance-double - STR XO ST- ----------------
#NOTES:
     dance-double:
     STR XO ST-:
     Hard:
     16:
     0,0,0,0,0:
00000000
00000000
00000000
00000000
,
00000000
00000000
00000000
00000000
,
00000000
00000000
00000000
00000000
,
00000000
00000000
00000000
00000000
,
00011000
00001000
00100000
00001000
,
00100000
00000000
00000010
00000000
00010000
00000000
00000010
00001000
,
00000010
00001000
00000001
00001000
,
00000010
00000000
00000000
00000000
00001000
00000000
00000000
00000000
00000001
00001000
00000001
00000000
00000100
00000000
00000010
00000000
,
00001000
00000100
00000000
01000000
00000000
00010000
00000000
10000000
,
00000000
00010000
00000000
01000000
00000000
00010000
01000000
00100000
,
10000000
00001000
00000000
00010000
00000000
00000100
00000000
00001000
,
00000000
00000000
00000001
00000000
00000000
00000000
00001000
00000000
00000001
00000100
00000001
00000000
00001000
00000100
00001000
00000000
,
00000010
00010000
00000100
00001000
00000010
00010000
00000100
00001000
,
00000010
00001000
00000100
00000010
00000100
00001000
00000100
00010000
,
00001000
01000000
00010000
01000000
00100000
00010000
00100000
01000000
,
00100000
00000000
01000000
00000000
00010000
00000000
00000000
00000000
10000000
00010000
10000000
00010000
10000000
00000000
00010000
00000000
,
10010000
00000000
00000000
00000000
10000000
00000000
00010000
01000000
00000000
00010000
01000000
00000000
00001000
00000000
00010000
00000000
,
00000010
00000000
00001000
00000000
00000010
00000000
00001000
00000100
00000000
00001000
00000100
00000000
00000010
00000000
00000010
00000000
,
00000001
00000000
00001000
00000000
00000010
00000000
00010000
00001000
00000000
00010000
00001000
00000000
00010000
00000000
00001000
00000000
,
01000000
00000000
00100000
00000000
10000000
00000000
01000000
00000000
00100000
00010000
00100000
00000000
01000000
10000000
01000000
00000000
,
10000000
00010000
00000000
10000000
00100000
00000000
01000000
00010000
00000000
01000000
00001000
00000000
00010000
00000000
00010000
00000000
,
00001000
00010000
00000000
00001000
00010000
00000000
00000100
00001000
00000000
00000100
00001000
00000000
00000010
00000000
00000010
00000000
,
00001000
00000100
00000000
00000010
00000001
00000000
00000010
00000100
00000000
00001000
00000001
00000000
00010000
00000000
00001000
00000000
,
00010000
00001000
00000000
00010000
00001000
00000000
00100000
00000000
00010000
01000000
00100000
01000000
00010000
00000000
10000000
00000000
,
0002M000
00000000
00000000
00000000
,
00030000
02000000
00000000
00000000
00000000
00000000
00000000
00000000
,
00000000
03002000
00000000
00000000
00000000
00000000
00000000
00000000
,
00000000
00023000
00000000
00000000
00000000
00000020
00030000
00000000
,
00001030
00000000
00000000
00000000
00000001
00000000
00000000
00001000
00000000
00000000
00000010
00000000
00001000
00000000
00000001
00000000
00000000
00000000
00000000
00000000
00000000
00000000
00000000
00000000
00000000
00000000
00000000
00000000
00000000
00000000
00000000
00000000
,
00010000
00000000
00000000
00000000
00001000
00000000
00000000
00010000
00000000
00000000
00001000
00000000
01000000
00000000
00100000
00000000
00000000
00000000
00000000
00000000
00000000
00000000
00000000
00000000
00000000
00000000
00000000
00000000
00000000
00000000
00000000
00000000
,
10000000
00000000
00000000
00000000
01000000
00000000
00000000
00100000
00000000
00000000
00010000
00000000
00100000
00000000
01000000
00000000
00000000
00000000
00000000
00000000
00000000
00000000
00000000
00000000
00000000
00000000
00000000
00000000
00000000
00000000
00000000
00000000
,
00100000
00000000
00000000
00000000
00001000
00000000
00000000
00010000
00000000
00000000
00000100
00000000
00001000
00000000
00000010
00000000
00001000
00000000
00000000
00000000
00000100
00000000
00000000
00000010
00000000
00000000
00000001
00000000
00001000
00000000
00000001
00000000
,
00M01000
00000000
00000000
00000010
00000000
00000000
00000100
00000000
00000000
00001000
00000000
00000000
00000100
00000010
00001000
00000000
,
00000001
00000000
00000000
00001000
00000000
00000000
00000100
00000000
00000000
00010000
00000000
00000000
00001000
00010000
00001000
00000000
,
01000000
00000000
00000000
00100000
00000000
00000000
00010000
00000000
00000000
00100000
00000000
00000000
01000000
00010000
01000000
00000000
,
00010000
00000000
00000000
10000000
00000000
00000000
01000000
00000000
00000000
00010000
00000000
00000000
01000000
00100000
00010000
00000000
,
01010000
00000000
00000000
00000000
01000000
00000000
00000000
00010000
00000000
00000000
01000000
00000000
00000000
00000000
00001000
00010000
,
00001000
00000000
00000000
00000000
00010000
00000000
00000000
00000100
00001000
00000000
00000100
00000000
00001000
00000000
00000001
00000000
,
00001001
00001000
00000100
00000010
,
00000001
00000000
00001000
00000000
00000001
00000000
00001000
00000000
00000001
00000010
00000100
00001000
00000020
00000000
00000000
00000000
,
00010030
00000000
00000000
00000000
00001000
00000000
00000000
00010000
00000000
00000000
00001000
00000000
00010000
00001000
00010000
00000000
,
00001000
00000000
00000000
00000000
01000000
00000000
00000000
00100000
00000000
00000000
01000000
00000000
00010000
10000000
00010000
00000000
,
10000000
01000000
00000000
00100000
00010000
00000000
00100000
00001000
00000000
00100000
00010000
00000000
00100000
01000000
10000000
00000000
,
00010000
01000000
00000000
00001000
00010000
00000000
00000100
00010000
00000000
00001000
00010000
00000000
00000010
00000100
00000010
00000000
,
00001000
00000100
00000000
00000010
00000001
00000000
00000010
00000100
00000000
00001000
00000001
00000000
00010000
00001000
00010000
00000000
,
00001000
00100000
00000000
00001000
00010000
00000000
00001000
00100000
00000000
00010000
01000000
00000000
00010000
10000000
00100000
00000000
,
10000000
01000000
00000000
00100000
00010000
00000000
00100000
01000000
00000000
10000000
00010000
00000000
01000000
00001000
01000000
00000000
,
00001000
00010000
00000000
00000100
00001000
00000000
00000010
00000100
00000000
00000001
00000010
00000000
00000100
00001000
00000001
00000000
,
00001000
00000100
00000000
00010000
00000100
00000000
00001000
00000100
00000000
00010000
00000010
00000000
00001000
00000001
00001000
00000000
,
00000001
00000010
00000100
00001000
00000001
00000100
00000010
00001000
00000100
00000010
00000001
00001000
00000010
00000100
00000001
00001000
,
00000001
00000100
00000010
00001000
00010000
00001000
00000010
00001000
,
00000100
00010000
00001000
00100000
00010000
10000000
00010000
10000000
,
00010000
01000000
10000000
01000000
00100000
10000000
00010000
01000000
,
00010000
00001000
00010000
01000000
00010000
00100000
00001000
00010000
,
00001000
00000100
00001000
00010000
00000010
00000100
00001000
00000100
,
00000010
00001000
00000001
00000100
00000010
00001000
00000100
00000010
,
00000001
00001000
00000010
00000100
00001000
00000100
00000010
00001000
,
00000010
00010000
00001000
00100000
00010000
00100000
01000000
10000000
,
00010000
01000000
00010000
00000100
00010000
01000000
00010000
00100000
,
00010000
00100000
00001000
00010000
00000010
00000100
00000001
00001000
,
00000001
00000100
00001000
01000000
00001000
00000100
00000010
00000100
,
00000001
00001000
00000010
00001000
00000100
00010000
00001000
01000000
,
00010000
01000000
00100000
00001000
00100000
01000000
00010000
00100000
,
00001000
00010000
00000100
00010000
00001000
00000010
00001000
00010000
,
00000010
00000100
00001000
00000100
00000001
00000100
00000010
00001000
,
00000100
00010000
00001000
00010000
00000100
00000000
00010000
00000000
00001000
00010000
00001000
00010000
00001000
00100000
00010000
00000000
,
10000000
01000000
00000000
00000100
00000000
01000000
00000000
00000100
,
00000000
01000000
00000000
00000100
00000000
00100000
00001000
00001000
,
00010000
00000010
00000000
00100000
00000000
00000001
00000000
00010000
,
00000000
00000000
00001000
00000000
00000000
00000000
00010000
00000000
00001000
00010000
00001000
00000000
00010000
00000100
00010000
00000000
,
00000100
01000000
00000000
00000100
00000000
00010000
00000000
00000001
,
00000000
00010000
00000000
00000001
00000000
00100000
00001000
00010000
,
00001000
00100000
00001000
00100000
00010000
01000000
00100000
10000000
00010000
00100000
01000000
10000000
00100000
01000000
00010000
10000000
,
01000000
00100000
00010000
10000000
00100000
01000000
00010000
10000000
01000000
00100000
00010000
10000000
00100000
10000000
00010000
00100000
,
00002000
00000000
00003000
00000000
;
