#TITLE:I Need Your Touch;
#SUBTITLE:;
#ARTIST:Tik n' Tak;
#TITLETRANSLIT:;
#SUBTITLETRANSLIT:;
#ARTISTTRANSLIT:;
#GENRE:;
#CREDIT:Braeden;
#MUSIC:I Need Your Touch.ogg;
#BANNER:;
#BACKGROUND:;
#CDTITLE:;
#SAMPLESTART:35.902;
#SAMPLELENGTH:16.000;
#SELECTABLE:YES;
#OFFSET:-0.362;
#BPMS:0.000=120.000;
#STOPS:;
#MUSICBYTES:0;
#MUSICLENGTH:116.819;
#BGCHANGES:;
#FGCHANGES:;

//--------------- dance-single - ----------------
#NOTES:
     dance-single:
     :
     Beginner:
     2:
     0,0,0,0,0:
0000
0000
0000
0000
,
0000
0000
0000
0000
,
0000
0000
0000
0000
,
0000
0000
0000
0000
,
0000
0000
0000
0000
,
1001
0000
0000
0000
,
0001
0000
0000
0000
,
0100
0000
0010
0000
,
1000
0000
0000
0000
,
0002
0000
0003
0000
,
0200
0000
0300
0000
,
0001
0000
1000
0000
,
0001
0000
0000
0000
,
1001
0000
0000
0000
,
1000
0000
0000
0000
,
0010
0000
0000
0000
,
1001
0000
0000
0000
,
1001
0000
0000
0000
,
1001
0000
0000
0000
,
1000
0000
0000
0000
,
0010
0000
0000
0100
,
0000
0100
0000
0010
,
0010
0000
0000
0000
,
1000
0000
0000
0000
,
0001
0000
0000
0000
,
0000
0100
0000
0010
,
0010
0000
0000
0000
,
0100
0000
0000
0000
,
0001
0000
0000
0000
,
0000
0010
0000
0100
,
0100
0000
0000
0000
,
0010
0000
0000
0000
,
0001
0000
0000
1000
,
0000
0010
0000
0100
,
0100
0000
0000
0000
,
0001
0000
0000
0000
,
1000
0000
0100
0000
,
1000
0000
0000
0000
,
0002
0000
0003
0000
,
0001
0000
0000
0000
,
0100
0000
0010
0000
,
1000
0000
0000
0000
,
1001
0000
0000
0000
,
0001
0000
0000
0000
,
0100
0000
0000
0000
,
1001
0000
0000
0000
,
1001
0000
0000
0000
,
1001
0000
0000
0000
,
0001
0000
0000
0000
,
0100
0000
0000
0010
,
0000
1000
0000
0001
,
0001
0000
0000
0000
,
0100
0000
0000
0000
,
0001
0000
0000
0000
,
0100
0100
0000
0010
,
0010
0000
0000
0000
,
1000
0000
0000
0000
,
1001
0000
0000
0000
;

//--------------- dance-single - ----------------
#NOTES:
     dance-single:
     :
     Easy:
     5:
     0,0,0,0,0:
0000
0000
0000
0000
,
0000
0000
0000
0000
,
0000
0000
0000
0000
,
0000
0000
0000
0000
,
0000
0000
0000
0000
,
1001
0001
1000
0000
,
0010
0100
0001
0000
,
0010
0100
1000
0001
,
1000
0010
0100
0001
,
2000
0001
3100
1000
,
0001
0100
0010
1000
,
0100
0010
0001
1000
,
0001
0100
0010
1000
,
1001
0001
2000
0000
,
3020
0000
0130
0001
,
2000
0000
3010
0100
,
2002
3003
0220
0330
,
2002
3003
1000
0001
,
1001
1000
0010
0000
,
0100
0001
0010
0100
,
1000
0001
1000
1001
,
0001
1001
1000
1100
,
0100
0010
0001
0100
,
0010
0000
1000
0001
,
0010
0100
1000
0001
,
0100
0110
0010
0110
,
0100
0001
0010
0200
,
0000
0000
0000
0320
0000
0000
0000
0000
,
0031
1000
0001
0200
,
0300
0110
0000
1001
,
0001
0100
0010
2000
,
0000
0000
0000
3020
0000
0000
0000
0000
,
0130
0001
0010
0110
,
0100
1100
1000
1001
,
0002
0000
1003
0100
,
0020
0000
0031
0100
,
0001
0010
0001
0010
,
0100
1000
0001
1000
,
0002
0000
0013
0001
,
0100
0001
1000
0001
,
0010
0100
1000
0100
,
0010
0001
1000
0001
,
1001
1000
0010
0000
,
1000
0001
0010
0100
,
0200
0000
0310
0001
,
2002
3003
0220
0330
,
2020
3030
0100
0001
,
1001
1000
0001
0010
,
0200
0300
2000
3000
,
0001
0100
0001
1001
,
1000
1001
0001
1001
,
1000
0010
0100
0001
,
0010
0000
0100
1000
,
0001
1000
0010
0100
,
0001
1001
1000
1010
,
0010
0100
0001
2000
,
0000
3001
0001
0010
,
0022
0000
0033
0000
;

//--------------- dance-single - ----------------
#NOTES:
     dance-single:
     :
     Medium:
     8:
     0,0,0,0,0:
0000
0000
0000
0000
,
0000
0000
0000
0000
,
0000
0000
0000
0000
,
0000
0000
0000
0000
,
0000
0000
0000
0000
,
2001
0000
3001
0100
0010
0000
1000
0000
,
0001
0010
0001
0010
0000
0000
0100
0000
,
1000
0001
1000
0000
0010
0100
0010
0100
,
0000
0002
0000
1003
0010
0000
1000
0000
,
0002
0000
0103
0010
0000
1000
0001
0000
,
0010
0100
0000
2000
0000
0000
3001
0000
,
0010
0100
0010
0000
0001
1000
0001
2000
,
0000
3020
0000
0000
0130
0000
0001
0000
,
1001
0000
1000
0000
0001
0020
0000
0032
,
0000
0203
0000
0320
0000
2030
0000
3001
,
2000
3000
0001
0010
,
0011
0000
0000
0000
1001
0000
0000
1000
,
2002
3003
0100
0010
,
1010
0000
1000
0001
0000
0000
0010
0100
,
0010
0100
0000
1000
0000
0001
0000
0100
,
0001
0010
0100
1000
0000
0000
1001
0001
,
0000
0100
0010
0100
0000
0001
1000
0000
,
0001
0010
0100
2000
0000
3000
0001
0010
,
0001
0100
0000
0010
0000
1000
0000
0001
,
1000
0010
1000
0100
0000
0000
0010
0002
,
0000
1003
1001
0000
0001
0000
0101
0000
,
0100
0010
1000
0001
0010
0000
0100
2000
,
0000
0000
0000
3002
0000
0000
0000
0000
,
1003
0100
0010
0100
0010
0000
0001
0000
,
1000
1001
0001
0101
,
0100
0010
1000
0001
0010
0000
0100
0020
,
0000
0000
0030
0200
0000
0000
0000
0000
,
0310
0001
1000
0010
0000
0000
1001
0000
,
1000
0000
1010
0000
0010
0100
0001
0010
,
0002
0000
1003
0100
0000
0010
0001
0100
,
0002
0000
1003
0010
1000
0000
0001
0000
,
1000
0100
1000
0000
0001
0100
0001
0200
,
0000
0301
0010
0000
0100
0000
1000
0000
,
2001
0000
0000
3010
0100
0000
0001
0010
,
0100
0000
1000
0001
1000
0000
0010
0000
,
1000
0001
1000
0000
0001
0010
0100
1000
,
0001
0000
0100
0010
0100
0000
0001
0000
,
0201
0000
0310
0000
1000
0200
0000
0320
,
0000
0032
0000
0203
0000
0320
0000
1030
,
0002
0000
1003
0100
0010
0000
0001
0000
,
1001
0000
0000
0000
0101
0000
0000
0100
,
0110
0000
0000
0000
0020
0000
1030
0001
,
1000
0100
0010
0001
0000
0000
0100
0001
,
0100
0010
0000
1000
0000
0100
0000
0010
,
0001
0010
0001
1000
0000
0000
1001
0000
,
0100
1001
0010
1001
,
1000
0100
0010
0001
0000
0000
0100
0010
,
0100
0001
0000
0010
0000
0100
0000
1000
,
0001
0100
0010
0100
0000
0000
0001
2000
,
0000
3001
1001
0000
1000
0000
1010
0000
,
0010
0100
0001
0100
0010
0000
1000
0100
,
0020
0031
1000
0001
,
0220
0000
0330
0000
;

//--------------- dance-single - ----------------
#NOTES:
     dance-single:
     :
     Hard:
     9:
     0.483,0.443,0.394,0.154,0:
0000
0000
0000
0000
,
0000
0000
0000
0000
,
0000
0000
0000
0000
,
0000
0000
0000
0000
,
0000
0000
0000
0000
0000
1000
0010
0100
,
0002
0000
0013
0100
1000
0000
0010
0100
,
0010
1000
0010
0100
0010
0000
1000
0100
,
0010
0001
0010
0001
1000
0010
0100
0001
,
0100
0000
0010
1000
0010
1000
0100
0010
,
0002
0000
1003
0010
1000
0100
0010
0001
,
1000
0010
0100
0001
1000
0000
1100
0000
,
0100
0010
0001
0010
0100
1000
0001
0100
,
0001
0000
1000
0001
1000
0000
0001
0000
,
1001
0000
2000
0000
3001
0010
0100
0010
,
0001
0010
0100
1000
0001
0100
0010
1000
,
0002
0000
1003
0100
0010
0000
0001
0000
,
0101
0000
0000
0000
0110
0000
0000
0010
,
2000
0000
0000
0000
3001
0000
1000
0001
,
2000
0000
3100
0010
0001
0000
1000
0001
,
1000
0010
0100
0000
0001
1000
0001
0010
,
0200
0000
1300
0010
0100
0000
0101
0000
,
0001
0000
1001
0000
1000
0010
0100
0000
,
0001
0010
0100
1000
0001
0000
1000
0010
,
0100
0010
1000
0001
0010
0100
1000
0000
,
0001
0100
0010
0100
0001
0000
1000
0100
,
0010
0000
0011
0000
0001
1000
0010
0000
,
1000
0100
0010
0001
0100
0000
0010
1000
,
0020
0000
0130
0001
1000
0100
0010
0000
,
0001
0100
0001
0010
0001
0000
0010
0100
,
1000
1001
0001
0101
,
0100
0010
1000
0010
0100
0000
0001
0010
,
0200
0000
1300
0001
1000
0010
1000
0000
,
0001
0010
0100
1000
0001
0000
0101
0000
,
0100
0000
0110
0000
0010
1000
0001
0010
,
0200
0000
1300
0001
1000
0100
0010
0001
,
2000
0000
3001
0100
0020
0000
0130
0001
,
0010
0100
1000
0100
0010
0001
1000
0001
,
0200
0000
0301
0010
0100
0000
0010
0000
,
0012
0000
1003
0010
0100
0000
0001
0000
,
0020
0130
1000
0001
,
1000
0100
0010
0000
0001
0010
0100
1000
,
0001
0100
0010
1000
,
1001
0000
1000
0100
1000
0000
0001
0100
,
0020
0000
1030
0100
0010
0000
0001
1000
,
0002
0000
0103
0010
1000
0000
0001
0000
,
0101
0000
0000
0000
0110
0000
0000
0010
,
2000
0000
3001
1000
,
1002
0000
1003
0100
0010
0001
0010
0100
,
1000
0001
1000
0000
0010
0100
0010
0000
,
1000
0100
0010
0001
0010
0000
0011
0000
,
0001
0000
1001
0000
1000
0010
0100
0000
,
0001
0010
0100
1000
0001
0000
0100
0010
,
0100
0001
0010
0000
0100
1000
0100
0000
,
0010
0001
1000
0010
1000
0000
0001
0100
,
0010
1010
1000
1001
,
0001
0100
0010
1000
0001
0000
1000
0100
,
0010
0001
0100
0000
0001
0000
1000
0000
,
2002
0000
0000
0000
,
3003
0000
0000
0000
;

//--------------- dance-single - XO FS ----------------
#NOTES:
     dance-single:
     XO FS:
     Challenge:
     12:
     0.341,0.343,0.128,0,0:
0000
0000
0000
0000
,
0000
0000
0000
0000
,
0000
0000
0000
0000
,
0000
0000
0000
0000
,
0000
0000
0000
0000
0000
0001
1000
0001
,
2001
0000
0000
0000
3001
0000
0100
0000
0010
0000
1000
0001
1000
0000
0100
0000
,
1000
0000
0010
0100
0010
0000
1000
0000
0001
0000
0000
1000
0100
0000
0010
0000
,
0001
0000
0100
0000
1000
0000
0100
0000
0001
0000
0010
0100
0010
0000
0001
0000
,
1000
0000
0100
1000
0100
0000
1000
0000
0010
0000
0100
0001
1000
0000
0100
0000
,
1000
0000
0100
0010
0100
0000
1000
0000
0010
0000
0100
0001
0100
0000
0010
0000
,
1000
0000
0001
0010
0100
0000
1000
0000
0100
0000
0010
0000
1000
0000
0010
0000
,
0100
0000
1000
0001
0100
0000
0010
0000
1000
0000
0100
0000
0001
0000
0100
0000
,
0010
0000
0001
1000
0001
0000
1000
0000
0010
0000
0100
0001
1000
0000
0001
1000
,
0001
0000
2000
0000
3001
0100
0010
0100
,
1000
0100
0010
0100
0001
0100
0010
0100
,
0002
0000
0000
0000
0103
0000
0010
0000
1000
0000
0000
1000
0001
0000
1000
0000
,
1002
0000
1003
0000
0102
0000
1003
0001
,
2200
0000
0000
0000
3300
0000
0000
0000
0001
0100
0010
0000
1000
0000
0100
0000
,
2100
0000
0000
0000
3001
0000
1000
0000
0100
000M
0100
0000
0010
0000
0100
0000
,
0010
1000
0100
1000
0010
1000
0100
1000
,
0001
0100
1000
0100
0010
0001
0011
1000
,
0001
1000
1100
0100
0010
0001
0011
1000
,
1000
0100
0001
0100
1000
0010
0100
0001
,
0100
00M0
0100
0000
1000
0000
0001
0000
0010
0000
0100
0000
1000
0000
0001
0000
,
1000
0100
0001
0100
0010
0001
0100
0020
,
1000
1030
1010
0010
0100
0001
0011
0010
,
0001
0100
1000
0100
0010
0100
0001
0010
,
0100
M000
0100
0000
0001
0000
1000
0000
0010
0M00
0010
0000
0001
0000
0100
0000
,
0001
0100
0010
0001
0010
0100
0001
2000
,
0001
3001
1001
1000
0100
0010
0011
0001
,
1000
0100
0001
0100
0010
0001
1000
0010
,
0100
000M
0100
0000
1000
0000
0001
0000
0010
0M00
0010
0000
1000
0000
0001
0000
,
0100
0010
0001
0010
0100
0001
1010
0001
,
0010
0000
0100
0000
1100
0000
1000
0000
0100
0000
0010
0000
0001
1000
0001
0000
,
2000
0000
0000
0000
3100
0000
0010
0000
0100
0000
1000
0001
1000
0000
0001
0000
,
0020
0000
0000
0130
1000
0000
0010
0000
0100
0000
0001
1000
0001
0000
0000
0000
,
1000
0100
0010
0001
0100
0010
1000
0100
,
0010
0000
0001
1000
0001
0000
1000
0000
0010
0000
0000
0100
0001
0000
1000
0000
,
1002
0000
1003
0100
0010
0001
0100
0010
,
2000
0000
0000
3100
1000
0000
0010
0000
0100
0000
0001
1000
0001
0000
0010
0000
,
0100
0010
0001
0100
0001
1000
0100
0010
,
0001
0000
0100
0010
1000
0000
0010
0000
0100
0000
0001
1000
0001
0000
1000
0001
,
1000
0000
0100
0010
0001
0001
1000
0001
,
0100
0001
0010
0001
0100
0001
1000
0001
,
2000
0000
0000
0000
3100
0000
0010
0000
0100
0000
1000
0001
1000
0000
0001
0000
,
2001
0000
0000
0000
3001
0000
1000
0000
1001
0000
0000
0001
0010
0000
0100
0000
,
2002
0000
0000
0000
0000
0000
3003
0000
0000
1000
0100
1000
0100
0000
0000
0010
0000
0000
0001
0000
0000
1000
0000
0000
,
0102
0000
1003
0100
0010
1000
0010
0100
,
1000
0010
1000
0010
0100
0001
0100
0010
,
1000
0100
0001
0100
1000
0001
1001
1000
,
0001
0010
0011
0001
1000
0001
0101
0100
,
0001
0010
0100
0010
0001
0100
0010
1000
,
0100
00M0
0100
0000
0001
0000
1000
0000
0100
0000
1000
0000
0010
0000
1000
0000
,
0100
0010
1000
0010
0100
1000
0001
1000
,
0100
0000
0010
0000
0011
0000
0001
0000
0100
0010
0100
0000
0101
0000
0001
0000
,
1000
0100
0010
0001
1000
0000
0010
0100
,
0001
0010
0100
1000
0010
0100
0001
1000
,
0020
0000
0000
0000
,
0030
0000
0000
0000
;

//--------------- dance-double - ----------------
#NOTES:
     dance-double:
     :
     Hard:
     9:
     0,0,0,0,0:
00000000
00000000
00000000
00000000
,
00000000
00000000
00000000
00000000
,
00000000
00000000
00000000
00000000
,
00000000
00000000
00000000
00000000
,
00000000
00000000
00000000
00000000
,
00021000
00000000
00031000
01000000
00100000
00000000
10000000
01000000
,
00100000
00010000
00100000
01000000
10000000
00000000
00010000
00000000
,
00100000
00001000
00100000
00010000
00100000
00001000
00010000
00001000
,
00000000
00010000
00000000
00000100
00001000
00000000
00000001
00001000
,
00000002
00000000
00001003
00000010
00000100
00000000
00000001
00000010
,
00000100
00001000
00000000
00000002
00000000
00000000
00001003
00000000
,
00000010
00001000
00000010
00001000
00000100
00010000
00000100
00010000
,
00000000
00002000
00000000
00000000
00103000
00000000
00010000
00000000
,
10010000
00000000
20000000
00000000
30010000
01000000
00000000
00010000
,
00000000
00100000
00000000
00010000
00000000
01000000
00000000
00010000
,
00200000
00000000
00301000
00010000
00001000
00000000
00010000
00000000
,
00010100
00000000
00000000
00000000
00001010
00000000
00000000
00000001
,
00002000
00003000
00000002
00001003
,
00000002
00000000
00001003
00000100
00001000
00000001
00000010
00000100
,
00001000
00000200
00000000
00000320
00000000
00000032
00000000
00001003
,
00000010
00010000
00001000
00010000
00000010
00000000
00010010
00000000
,
00010000
00011000
00001000
00101000
,
00100000
00010000
00100000
00010000
01000000
00000000
00100000
10000000
,
01000000
20000000
00000000
30200000
00000000
02300000
00000000
03020000
,
10000000
01030000
00100000
00010000
00100000
00000000
00010000
00100000
,
00001000
00101000
00100000
00110000
,
00100000
00001000
00010000
00001000
00010000
00000000
00000010
00000200
,
00000000
00000000
00000000
00000302
00000000
00000000
00000000
00001003
,
00000001
00000010
00000100
00001000
00000100
00000010
00000001
00001000
,
00000100
00001100
00001000
00001001
,
00000001
00000010
00000100
00010000
00001000
00000000
00010000
00002000
,
00000000
00000000
00000000
02003000
00000000
00000000
00000000
03100000
,
10000000
01000000
00100000
00010000
10000000
00000000
10010000
00000000
,
00100000
00000000
01100000
00000000
01000000
00010000
00100000
00001000
,
00200000
00000000
00301000
00010000
00001000
00000000
00010000
00000000
,
00000200
00000000
00001300
00000010
00001000
00000000
00000001
00000000
,
00000010
00000100
00001000
00000100
00000010
00000001
00000010
00000200
,
00000000
00001300
00000010
00000000
00010000
00000000
00001000
00000000
,
00011000
00000000
00010000
00001000
00010000
00001000
00100000
00010000
,
00200000
00000000
00000000
00310000
00100000
00000000
01000000
10000000
,
01000000
00100000
00010000
00000000
10000000
00100000
01000000
00020000
,
00000000
00230000
00000000
00300000
00001000
00000000
00010000
00000000
,
00011000
00000000
00001000
00000000
00010000
00000200
00000000
00002300
,
00000000
00003002
00000000
00000023
00000000
00000230
00000000
00001300
,
00000001
00000000
00001000
00000100
00000010
00000000
00000100
00001000
,
00020000
00030000
00110000
00000000
,
20020000
30030000
10000000
00010000
,
20000000
00000000
30010000
00100000
01000000
10000000
00010000
01000000
,
00010000
00200000
00000000
00302000
00000000
00023000
00000000
00031000
,
00010000
00000100
00010000
00000100
00010000
00000000
00011000
00000000
,
00001000
00011000
00010000
00010100
,
00000100
00001000
00000010
00001000
00000100
00000000
00000010
00000001
,
00000010
00000002
00000000
00002003
00000000
00003002
00000000
00001003
,
00000010
00010000
00001000
00010000
00000010
00010000
00001000
00000000
,
00010000
00011000
00001000
00101000
,
00100000
00010000
01000000
00100000
10000000
00000000
00010000
10000000
,
01000000
00100000
00010000
01000000
00100000
10000000
00010000
00100000
,
00002000
00000000
00003000
00000000
;
