#TITLE:Have Yourself a Merry Little Christmas;
#SUBTITLE:;
#ARTIST:Dance Nation feat. Sean & Kim;
#TITLETRANSLIT:;
#SUBTITLETRANSLIT:;
#ARTISTTRANSLIT:;
#GENRE:;
#CREDIT:;
#MUSIC:HAVE YOURSELF A MERRY LITTLE CHRISTMAS.ogg;
#BANNER:;
#BACKGROUND:;
#CDTITLE:;
#SAMPLESTART:30.082;
#SAMPLELENGTH:14.132;
#SELECTABLE:YES;
#OFFSET:-0.123;
#BPMS:0.000=136.000
,224.000=68.000
;
#STOPS:;
#BGCHANGES:;
#FGCHANGES:;

//--------------- dance-single - ----------------
#NOTES:
     dance-single:
     :
     Beginner:
     2:
     0,0,0,0,0:
0000
0000
0000
0000
,
1001
0000
0000
0000
,
0100
0000
0000
0000
,
0010
0000
0000
0000
,
2000
0000
3000
0000
,
0001
0000
0000
0000
,
0100
0000
0000
0000
,
0002
0000
0003
0000
,
1000
0000
1000
0000
,
2002
0000
3003
0000
,
0002
0000
0003
0000
,
0200
0000
0300
0000
,
0002
0000
0003
0000
,
2000
0000
3000
0000
,
0020
0000
0030
0000
,
0200
0000
0300
0000
,
0001
0001
0001
0000
,
1001
0000
1000
0000
,
0001
0000
0100
0000
,
0000
0000
0010
0000
,
2000
0000
3000
0000
,
0001
0000
1000
0000
,
0001
0000
0100
0000
,
0002
0000
0000
0000
,
0000
0000
0003
0000
,
1001
0000
1000
0000
,
0001
0000
0100
0000
,
0010
0000
1000
0000
,
0010
0000
1000
0000
,
0001
0001
0001
0000
,
0100
0000
0010
0000
,
2000
0000
0000
0000
,
0000
0000
3000
0000
,
0001
0000
0100
0000
,
0010
0000
0000
0000
,
0100
0000
0000
0000
,
0001
0000
0000
0000
,
1000
0000
0001
0000
,
1000
0000
0000
0000
,
0001
0000
0000
0100
,
0200
0000
0300
0000
,
1001
0000
1000
0000
,
0001
0000
0100
0000
,
0000
0000
0001
0000
,
2000
0000
3000
0000
,
0001
0000
0100
0000
,
0010
0000
1000
0000
,
0002
0000
0000
0000
,
0000
0000
0003
0000
,
1000
0000
0000
0000
,
0010
0000
0100
0000
,
0002
0000
0000
0000
,
0000
0000
0003
0000
,
1000
0000
0010
0000
,
0100
0000
0001
0000
,
2000
0000
0000
3000
,
0000
0000
0001
0000
,
0100
0000
0010
0000
,
1000
0000
0001
0000
;

//--------------- dance-single - ----------------
#NOTES:
     dance-single:
     :
     Easy:
     5:
     0,0,0,0,0:
0000
0000
0000
0000
,
2002
0000
3003
0000
,
1000
0001
0100
0010
,
0000
1000
0001
0100
,
0020
0000
0000
0030
,
1000
0001
2000
3000
,
0001
0100
0001
1000
,
0002
0000
0000
0000
,
1003
0010
1000
0001
,
1001
0000
0000
0001
0000
0000
1000
0000
,
2000
0000
3000
0001
,
0001
0000
0000
0100
0000
0000
0010
0000
,
2000
0000
3001
1000
,
0010
0000
0000
1000
0000
0000
0001
0000
,
2000
0000
3000
0001
,
1000
0000
0000
0010
0000
0000
0100
0000
,
1001
0001
1000
0010
,
1001
1000
0010
0100
,
0001
1000
0010
1000
,
0001
0100
0010
1000
,
0002
1000
1000
1003
,
0001
0100
0020
1030
,
0001
1000
0001
0100
,
0002
1000
0100
1000
,
0010
0013
0100
0000
,
1001
0001
1000
0010
,
0100
0001
0010
0001
,
0100
0010
1000
0001
,
2000
0001
0100
3001
,
0100
0010
2000
3000
,
0001
0100
0001
0010
,
0002
1000
0010
1003
,
0200
0010
0010
0310
,
1001
0001
1000
0010
,
0100
0001
0000
1000
,
0010
2000
3000
0001
,
1000
0001
0100
0010
,
1000
0001
1000
0010
,
0100
0001
0000
1000
,
0100
0010
0000
0001
,
2000
0000
3000
0000
,
1001
0001
1000
0000
,
0001
0100
0010
1000
,
0000
0001
0100
0001
,
1000
0010
0100
0001
,
1000
0100
0010
0000
,
0001
1000
0010
0100
,
0002
1000
0000
1000
,
0013
0100
0000
0001
,
1000
0010
0100
0001
,
1000
0100
0001
0100
,
2000
0000
0000
0000
0000
0000
0000
3002
,
0000
0003
0000
0000
,
1000
0001
0100
0010
,
1000
0100
0010
0001
,
2000
0000
0000
3000
,
0000
0000
1000
0000
,
0001
0100
0010
0100
0001
0000
1000
0000
,
0010
0010
1001
0000
;

//--------------- dance-single - ----------------
#NOTES:
     dance-single:
     :
     Medium:
     7:
     0,0,0,0,0:
0000
0000
0000
0000
,
2001
0001
3000
0001
,
0100
0010
0100
0010
0100
0000
0001
0000
,
1000
0000
0001
0100
0001
0000
1000
0000
,
0200
0000
0000
0300
,
0010
0000
0001
0000
2000
0000
0000
3000
,
0001
0100
0001
0000
1000
0000
0100
0000
,
0020
0001
0100
0031
,
0101
0110
1010
0101
,
1000
0000
0000
0001
0000
0000
0001
0000
0000
0001
0000
0000
0010
0000
0000
0000
,
0200
0300
1000
0100
,
0010
0000
0000
0001
0000
0000
0010
0000
0000
0001
0000
0000
0100
0000
0000
0000
,
0020
0030
1000
0001
,
1000
0000
0000
0001
0000
0000
0010
0000
0000
0001
0000
0000
1000
0000
0000
0000
,
0020
0030
0100
0001
,
1000
0000
0000
0010
0000
0000
0100
0000
0000
0001
0000
0000
0100
0000
0000
0000
,
0110
1010
1100
1001
,
0001
1000
0010
1000
,
0001
0010
0001
0010
0001
0000
0100
0000
,
0010
0000
1000
0100
1000
0000
0001
0000
,
0200
0001
0001
0301
,
1000
0001
2000
3001
,
0100
0010
0100
0010
0100
0000
0002
0000
,
0203
0001
0001
0010
,
0010
0000
0000
0000
0001
0000
0000
0000
0301
0000
1000
0000
0000
0001
0000
0000
,
2000
3001
0100
0010
,
1000
0001
1000
0001
0010
0000
0010
0000
,
0100
0000
1000
0001
1000
0000
0010
0000
,
0200
0001
1000
0301
,
0010
0001
0200
0310
,
1000
0001
1000
0010
0100
0000
0001
0000
,
2000
3001
0100
0010
,
1000
0100
0010
0001
,
1001
0000
1000
0000
0001
0000
0100
0010
,
0100
0010
0100
0000
0000
0000
0001
1000
,
0001
1000
0001
0000
0000
0000
0001
0000
,
0200
0300
0000
0000
,
0010
0000
1000
0000
0001
0000
0100
0010
,
0100
0010
0100
0000
0000
0000
0001
1000
,
0001
0100
0010
0000
0000
0000
1000
0000
,
0002
0000
0000
0003
,
1001
1000
0001
0100
,
0001
0010
0001
0010
0001
0000
0100
0000
,
0010
0000
1000
0001
1000
0000
0010
0000
,
0200
0001
0310
0000
,
0100
0100
0100
0000
,
0010
1000
0010
1000
0010
0000
0100
0000
,
0002
0000
0000
1003
,
0002
0000
0000
0103
0000
0000
0010
0000
,
1000
0000
0001
0100
0000
0000
0010
0000
,
1000
0001
1000
0001
1000
0000
0010
0000
,
0200
0010
0010
0310
,
1000
0001
1000
0010
,
0100
0000
0001
1000
0000
0000
0000
0000
,
0001
1000
0001
1000
0001
0000
0100
0000
,
0020
0000
0000
0030
,
0000
0000
0000
0000
0000
0000
0000
0000
0001
0000
0000
1000
0000
0010
0000
0000
,
0100
0001
0100
0010
1000
0001
0100
0001
,
1000
0100
1000
0001
1001
0000
0000
0000
;

//--------------- dance-single - ----------------
#NOTES:
     dance-single:
     :
     Hard:
     8:
     289,274,15,40,0,0,0,0,0:
0000
0000
0000
0000
,
1001
0000
0000
0010
0000
1000
0000
0001
,
0100
0001
1000
0001
0100
0000
0010
0000
,
0000
0000
1000
0010
0200
0000
0302
0000
,
0023
0000
0000
0000
,
0130
0000
1000
0000
0001
0000
0000
0100
,
0010
0100
0010
1000
0020
0000
0230
0000
,
0302
1003
0100
0010
,
1001
0000
1001
0000
0200
0000
0310
0001
,
1001
0000
0000
1000
0000
0000
0001
0000
0000
0100
0000
0000
0010
0000
1000
0000
,
0010
0000
0000
0100
0000
0000
0001
0000
0000
0000
0010
0000
0001
0000
0010
0000
,
0001
0000
0000
0001
0000
0000
0100
0000
0000
0100
0000
0000
0010
0000
1000
0000
,
0010
0000
0000
0100
0000
0000
0100
0000
0001
0000
1000
0000
0001
0000
1000
0000
,
0001
0000
0000
0100
0000
0000
0010
0000
0000
1000
0000
0000
0010
0000
0100
0000
,
0010
0000
0000
1000
0000
0000
0010
0000
0100
0001
0100
0000
0001
0000
1000
0000
,
0001
0000
0000
1000
0000
0000
0010
0000
0000
0000
0100
0000
0001
0000
1000
0000
,
1001
0000
1010
0000
0101
0000
0001
1000
,
1001
0010
0100
0010
,
1000
0100
0010
0001
0200
0000
0320
0000
,
1000
0030
0000
0000
0000
0000
0000
0000
0000
0000
0000
0000
0000
0000
0000
0000
0000
0000
0000
0000
0000
0000
0000
0000
0000
0000
0000
0000
0000
0000
0000
0000
0000
0000
0000
0000
0000
0000
0000
0000
0000
0000
0000
0000
0000
0000
0000
0000
1000
0000
0000
0000
0000
0000
0000
0000
0000
0000
0000
0000
0000
0000
0000
0000
0000
0000
0000
0000
0000
0000
0000
0000
0001
0000
0000
0000
0000
0000
0000
0000
0000
0000
0000
0000
0000
0000
0000
0000
0000
0000
0000
0000
0000
0000
0000
0000
0100
0000
0000
0000
0000
0000
0000
0000
0000
0000
0000
0000
0000
0000
0000
0000
0000
0000
0000
0000
0000
0000
0000
0000
0000
0000
0000
0000
0000
0000
0000
0000
0000
0000
0000
0000
0000
0000
0000
0000
0000
0000
0000
0000
0000
0000
0000
0000
0020
0000
0000
0000
0000
0000
0000
0000
0000
0000
0000
0000
0000
0000
0000
0000
0000
0000
0000
0000
0000
0000
0000
0000
0000
0000
0000
0000
0000
0000
0000
0000
0000
0000
0000
0000
0000
0000
0000
0000
0000
0000
0000
0000
0000
0000
0000
0000
,
1030
0002
0103
0010
,
1001
0000
0110
0000
1001
0000
0000
1000
,
0100
0010
0001
0100
0020
0000
2030
0000
,
0002
0000
0000
0000
,
0000
0000
0000
0000
3003
0000
0000
0000
0000
0000
0001
0000
0000
0100
0000
0000
,
0101
1000
0001
0100
,
0010
1000
0010
0100
0020
0000
1030
0000
,
0001
0000
0010
0100
2000
0000
3002
0000
,
0203
0010
0000
0310
,
1000
0000
0001
0000
0200
0000
0000
0310
,
1000
0010
0100
0010
2000
0000
3001
0000
,
0200
0010
0000
0301
,
1000
0000
0000
0000
0010
0000
0000
0010
1000
0000
0000
1000
0001
0000
1000
0000
,
1001
0000
0010
0000
0100
0000
0001
0010
,
0001
0010
0002
0000
0000
0000
1003
0010
,
1000
0010
2000
0000
0000
0000
3001
0000
,
0100
0010
1000
0001
,
0010
0000
0001
0000
1000
0000
0010
0100
,
0010
0100
0020
0000
0000
0000
1030
0001
,
1000
0001
2000
0000
0000
0000
3010
0000
,
0200
0000
0000
0301
,
0001
0000
1000
0000
0000
0010
0000
0000
1000
0000
0000
0000
0010
0000
0000
0000
,
1000
0100
0001
0100
0020
0000
0031
0000
,
1000
0000
0000
0000
1000
0000
0100
0000
2000
0000
0000
0000
3002
0000
0000
0003
,
0100
0010
1000
0001
,
0100
0000
0100
0000
0020
0000
0000
1030
,
0001
0100
0010
1000
0002
0000
0023
0000
,
0230
0000
1000
0000
,
0310
0000
0001
0000
1000
0000
0010
0100
,
0110
1000
0001
0010
,
0100
1000
0001
0100
0000
0000
2000
0000
,
3002
0000
0000
0000
0000
0000
0000
0020
,
0000
0000
0000
0000
0000
0000
0000
0000
0033
0000
0001
0000
0000
1000
0000
0000
,
0001
0000
0100
0001
0100
0000
0001
0010
,
0100
1000
0010
0100
0002
0000
2003
0000
,
3020
0100
1000
0130
,
1001
0000
0000
0000
0000
0000
0000
0000
0001
0000
0000
1000
0000
0010
0000
0100
,
0001
0100
0001
0100
0001
0000
1000
0000
0010
0000
0010
0000
0100
0000
0100
0000
,
0001
1000
0010
0100
0002
0000
0000
0000
,
0000
0000
0000
0000
,
0003
0000
0000
0000
;

//--------------- dance-single - 2 BU ----------------
#NOTES:
     dance-single:
     2 BU:
     Challenge:
     15:
     510,491,19,24,3,0,0,0,0:
0000
0000
0000
0000
,
1100
0000
1000
0100
0000
0010
0100
0010
,
0001
0010
0001
1000
0002
0000
0203
0000
,
0000
0000
0310
1000
0020
0000
0230
0000
,
0302
1000
0000
1003
,
0020
0000
0230
0000
0302
0000
0000
1003
,
0010
0100
0010
0100
0002
0000
0023
0000
,
0130
1000
0100
1000
0001
0010
0001
0010
0100
1000
0100
1000
0001
0100
0001
0100
,
0010
0000
0000
1000
0000
0000
0010
0000
0000
1000
0000
0000
0001
0000
0000
0010
0000
0000
0100
0000
0000
1000
0000
0000
0001
0000
1000
0000
0001
0000
1000
0000
0001
0000
1000
0000
0001
0000
0000
0000
0000
0000
0100
0000
0000
0000
0000
0000
,
0010
0000
1000
0010
0000
0010
1000
0000
0000
0001
0000
0000
1000
0000
0001
0000
,
0100
0000
0010
1000
0000
0000
1000
0000
0000
0001
0100
0001
1000
0000
1000
0000
,
0001
0000
1000
0010
0000
0000
0100
0000
0001
1000
0000
0000
1001
0000
1000
0000
,
0001
0000
0000
0000
0100
0000
0010
0000
0000
0000
0010
0000
0100
0000
0000
0000
0001
1000
0001
0000
1000
0000
0010
0000
1000
0000
0000
0000
0001
0000
0100
0000
,
0001
0000
1000
0010
0000
0000
1000
0000
0001
0100
0000
0000
0010
0000
1000
0000
,
0001
0000
0000
0000
0010
0000
0001
0000
0000
0000
0000
0000
1000
0000
0000
0000
0001
1000
0001
0000
1000
0000
0010
0000
0100
0000
0001
0000
0100
0000
0001
0000
,
1000
0000
0010
0100
0000
0000
0010
0000
1000
0100
1000
0100
0010
0001
1000
0000
,
1001
0000
0000
0001
0000
0000
0101
0000
0000
0100
0000
0000
0110
0000
0000
0010
0000
0000
1000
0001
1000
0001
1000
0001
,
1000
0000
0010
0000
1010
0000
1000
0001
1000
0000
0001
0100
0001
0000
1000
0010
,
1000
0000
0001
0100
0001
0000
1000
0100
0010
0000
0001
0010
0100
0000
1000
0001
,
1000
0000
0001
0100
0001
0000
0010
0001
0010
0000
0001
0100
0001
0000
1000
0001
,
1000
0000
0010
1000
0010
0000
1000
0100
1000
0000
0010
1000
0010
0000
1000
0001
,
1000
0000
0100
0010
0001
0000
0010
0100
1000
0000
0001
1000
0001
0000
0010
0000
,
0001
0100
0010
1000
0002
0000
0203
0000
,
0320
1000
1000
0000
0100
0100
0100
0000
,
1000
0000
1000
0000
1030
0000
0000
0000
1001
0000
0001
0100
0000
0010
1000
0000
,
1010
0000
1000
0001
1000
0000
0001
0100
0001
0000
0010
0001
0010
0000
0001
0100
,
0001
0000
1000
0010
1000
0000
0100
1000
0100
0000
1000
0010
1000
0000
0001
0010
,
0100
0000
1000
0100
0010
0000
0001
0100
0010
0000
1000
0010
0100
0000
0001
0100
,
0001
0000
1000
0010
1000
0000
0001
0100
0001
0000
1000
0010
1000
0000
0001
0000
,
1001
0001
0101
0100
0110
0010
1010
1000
,
0001
0000
0100
0000
1000
0000
0100
0000
0001
0000
1000
0100
0010
0000
0001
0010
,
0200
1000
1000
0000
0010
0010
0010
0000
,
0001
0000
0000
0000
0000
0000
0001
0000
0000
0000
0000
0000
0301
0000
0000
0000
0000
0000
0000
0000
0000
0001
0000
0000
0100
0000
0000
0000
0000
0000
0000
0000
0000
0100
0000
0000
1000
0000
0001
0000
1000
0000
0001
0000
1000
0000
0001
0000
,
1000
0000
0001
0000
0100
0000
0010
1000
,
0010
1000
0010
0000
0100
0000
0001
0010
,
0001
0010
0002
0000
0100
0000
1000
0000
,
0103
0010
0100
0010
1000
0100
0010
0001
,
2000
0000
3020
0000
0230
0000
0301
0001
,
1000
0001
0100
0000
1010
0000
1000
0010
,
0100
0010
1000
0000
1001
0000
0002
0000
,
2000
0000
0000
0000
0000
0000
3003
0000
0000
0000
0000
0000
1000
0001
1000
0001
0100
0001
0100
0010
1000
0010
0100
0001
,
1000
0100
0010
0001
0100
0010
1000
0010
,
0100
0010
1000
0100
0010
0001
0100
0010
,
1000
0010
1000
0010
0100
0001
0010
0100
,
1000
0001
0100
0010
1000
0010
0100
0010
,
1010
1000
1001
0001
0101
1000
0001
0100
,
0010
1000
0010
0100
0010
1000
0100
0010
,
0002
1000
1000
0000
0100
0100
0100
0000
,
0010
0010
0010
0000
1000
1000
1003
0010
,
0100
0001
1000
0100
0010
0001
0100
0010
,
1000
0100
1000
0001
0010
0001
0100
0010
,
2000
0001
0001
0000
0100
0100
0100
0000
,
0010
0010
3010
0000
0100
0001
0010
0100
,
1000
0001
0100
0010
1000
0100
0010
0001
,
0100
0100
0010
0010
1000
0100
0010
0001
,
0100
0010
0100
0010
1000
0001
1000
0001
,
1001
0000
0M00
0000
00M0
0000
0M00
0000
1000
0000
0000
0001
0000
0100
0000
0010
,
1000
0010
0100
0010
1000
0000
0100
0000
0010
0000
0001
0000
0100
0000
0001
0000
,
0001
1000
0010
0100
2002
0000
0000
0000
,
0000
3003
0000
0000
;

//--------------- dance-double - ----------------
#NOTES:
     dance-double:
     :
     Hard:
     8:
     0,0,0,0,0:
00000000
00000000
00000000
00000000
,
00011000
00000000
00001000
01000000
00000000
00010000
00000000
00000000
,
10000000
01000000
10000000
01000000
10000000
00000000
00010000
00000000
,
01000000
00000000
00001000
00010000
00001000
00000000
00010000
00000000
,
00000020
00000100
00000000
00001030
,
00000001
00000000
00001000
00000000
00000020
00000000
00000000
00001030
,
00000100
00000010
00000001
00001000
00000010
00000000
00001000
00000000
,
00000002
00000000
00000000
00000003
,
00001001
00000000
00001010
00000000
00001000
00000100
00010000
00001000
,
00100000
00000000
00000000
00010000
00000000
00000000
00100000
00000000
00000000
00010000
00000000
00000000
00100000
00000000
01000000
00000000
,
10000000
00000000
00000000
00100000
00000000
00000000
10000000
00000000
00000000
00000000
00010000
00000000
01000000
00000000
00010000
00000000
,
00100000
00000000
00000000
00001000
00000000
00000000
00100000
00000000
00000000
00010000
00000000
00000000
00100000
00000000
00001000
00000000
,
00010000
00000000
00000000
00000100
00000000
00000000
00001000
00000000
00000002
00000000
00000000
00000000
00001003
00000000
00000010
00000000
,
00001000
00000000
00000000
00000001
00000000
00000000
00000010
00000000
00000000
00000001
00000000
00000000
00001000
00000000
00000010
00000000
,
00001000
00000000
00000000
00000001
00000000
00000000
00000100
00000000
00000020
00000000
00000000
00000000
00010030
00000000
00000100
00000000
,
00010000
00000000
00000000
00000100
00000000
00000000
00010000
00000000
00000000
00000000
00001000
00000000
00100000
00000000
00000000
00000000
,
00110000
00010000
10000000
00010000
,
10010000
00000000
10000000
00100000
00000000
01000000
00000000
00010000
,
00100000
01000000
10000000
01000000
00100000
00000000
00010000
00000000
,
00001000
00000000
00000100
00000010
00000001
00000000
00001000
00000000
,
00000002
00001000
00000100
00001003
,
00000001
00001000
00000010
00000000
00001000
00000100
00001000
00000000
,
00000001
00000100
00000001
00000100
00000001
00000000
00001000
00000000
,
00000200
00010000
00000000
00010000
,
00000000
00000000
00000000
00000000
00010300
00000000
00000000
00000000
00000000
00000000
00001000
00000000
00000000
00100000
00000000
00000000
,
00102000
00000000
01003000
00100000
10000000
01000000
00000000
00100000
,
00010000
00100000
00010000
10000000
00010000
00000000
10000000
00000000
,
00100000
00000000
01000000
00001000
01000000
00000000
00001000
00000000
,
00020000
00001000
00031000
00010000
,
00010100
00000000
00000100
00000000
00002000
00000000
00000000
00003001
,
00000100
00000010
00000100
00000001
00001000
00000000
00000100
00000000
,
00020000
00000000
00001000
00000000
,
00031000
00100000
00010000
00100000
,
00110000
00000000
00010000
00000000
10000000
00000000
01000000
00100000
,
01000000
00100000
01000000
00000000
10000000
00000000
00010000
01000000
,
00010000
01000000
00010000
00000000
00100000
00000000
00001000
00000000
,
00020000
00000000
00030000
00000000
,
00001000
00000000
00010000
00000000
00000100
00000000
00001000
00000100
,
00001000
00000100
00001000
00000000
00000001
00000000
00000100
00000010
,
00000100
00000010
00000100
00000000
00000001
00000000
00000010
00000000
,
00000200
00000000
00001300
00000100
,
00010100
00000000
00010000
00001000
00010000
00000000
00001000
00000000
,
01000000
00100000
01000000
00010000
01000000
00000000
00010000
00000000
,
10000000
00000000
01000000
00100000
00010000
00000000
00100000
00000000
,
02000000
10000000
13000000
00010000
,
01000000
00000000
00001000
00000000
00010000
00000000
00000000
00001000
,
00010000
00001000
00100000
00001000
00010000
00000000
00000100
00000000
,
00002000
00000000
00000000
00000000
00000000
00000000
00003001
00000100
,
00000001
00000000
00001000
00000100
00000000
00000000
00001000
00000001
,
00001000
00000000
00000010
00010000
00000010
00000000
00010000
00000000
,
00001000
00010000
00001000
00010000
00001000
00000000
00010000
00000000
,
00000200
00000000
00001000
00000000
00001000
00000000
00001300
00000200
,
00000000
00000000
00010300
00000000
00001000
01000000
00010000
00000000
,
10000000
00000000
00010000
01000000
00010000
00000000
01000000
00000000
,
00001000
00010000
00001000
00010000
00001000
00000000
00100000
00000000
,
00002000
00010000
00010000
00013000
,
00M01000
00000000
00000000
00000000
00000000
00000000
00000000
00000000
00010000
00000000
00000000
00000100
00000000
00001000
00000000
00000000
,
00000001
00001000
00000010
00001000
00000001
00000000
00001000
00000000
00000100
00000000
00010000
00000000
00001000
00000000
00100000
00000000
,
00010000
01000000
00001000
00100000
00102000
00000000
00000000
00000000
,
00003000
00000000
00000000
00000000
;
