#TITLE:Gotta Tell You;
#SUBTITLE:;
#ARTIST:Samantha Mumba;
#TITLETRANSLIT:;
#SUBTITLETRANSLIT:;
#ARTISTTRANSLIT:;
#GENRE:;
#CREDIT:;
#MUSIC:Gotta Tell You.ogg;
#BANNER:;
#BACKGROUND:;
#CDTITLE:;
#SAMPLESTART:68.213;
#SAMPLELENGTH:12.000;
#SELECTABLE:YES;
#OFFSET:-0.020;
#BPMS:0.000=110.012;
#STOPS:;
#BGCHANGES:;
#FGCHANGES:;

//--------------- dance-single - ----------------
#NOTES:
     dance-single:
     :
     Beginner:
     1:
     0,0,0,0,0:
0000
0000
0000
0000
,
0000
0000
0000
0000
,
1001
0000
0000
0000
,
0001
0000
0000
0000
,
1000
0000
0000
0000
,
0010
0000
0000
0000
,
0100
0000
0000
0000
,
0001
0000
0000
0000
,
1000
0000
0000
0000
,
0001
0000
1000
0000
,
1001
0000
0001
0000
,
0100
0000
0000
0000
,
0010
0000
1000
0000
,
0001
0000
0000
0000
,
1000
0000
0000
0000
,
0010
0000
0000
0000
,
0100
0000
0000
0000
,
0001
0000
1000
0000
,
1001
0000
0000
0000
,
0001
0000
0000
0000
,
0100
0000
0000
0000
,
0010
0000
0000
0000
,
1001
0000
0000
0000
,
1000
0000
0000
0000
,
0001
0000
0000
0000
,
0100
0000
0010
0000
,
1001
0000
0000
0000
,
1000
0000
0000
0000
,
0001
0000
0000
0000
,
0100
0000
0000
0000
,
0001
0000
0000
0000
,
1000
0000
0000
0000
,
0001
0000
0000
0000
,
1000
0000
0000
0000
,
1001
0000
0000
0000
,
0001
0000
0000
0000
,
0100
0000
0000
0000
,
0001
0000
0000
0000
,
1001
0000
0000
0000
,
0100
0000
0000
0000
,
0010
0000
0000
0000
,
1000
0000
0000
0000
,
0001
0000
1000
0000
,
1001
0000
0000
0000
,
0010
0000
0000
0000
,
1000
0000
0000
0000
,
0001
0000
0000
0000
,
1001
0000
0000
0000
,
0100
0000
0000
0000
,
0010
0000
0000
0000
,
1000
0000
0001
0000
,
1001
0000
0000
0000
,
0100
0000
0000
0000
,
0001
0000
0000
0000
,
0010
0000
0000
0000
,
0100
0000
0000
0000
,
0010
0000
0000
0000
,
1000
0000
0000
0000
,
0001
0000
1000
0000
;

//--------------- dance-single - ----------------
#NOTES:
     dance-single:
     :
     Easy:
     3:
     0.162,0.16,0.04,0.008,0:
0000
0000
0000
0000
,
0000
0000
0000
0000
,
1001
0001
0000
1000
,
0000
0002
0000
1003
,
0000
0010
0000
0100
,
0000
0002
0000
0003
,
0000
1000
1000
0000
,
0000
0001
0001
0000
,
0100
0010
0000
0100
,
0001
1000
0001
1000
,
1001
0001
0000
0100
,
0000
0020
0000
1030
,
0000
0001
0000
0010
,
0000
0200
0000
0310
,
0000
0001
0001
0000
,
0000
1000
1000
0000
,
0001
0001
0000
0000
,
1000
0001
0100
0001
,
1001
1000
0000
0001
,
0000
0100
0010
0100
,
0000
0001
0000
0010
,
0000
0100
0000
1000
,
1001
0001
0000
0200
,
0300
0010
0000
1000
,
0000
0002
0000
1003
,
0001
0100
0010
1000
,
1001
0001
0000
0010
,
0000
0100
1000
0001
,
0000
0010
0000
0100
,
0000
1000
0001
1000
,
1001
0001
0000
0100
,
0000
0010
0000
2000
,
3000
0002
0003
0000
,
1000
0001
1000
0000
,
1001
0000
0000
0000
,
0001
0000
0000
0000
,
0200
0000
0300
0000
,
0010
0000
1000
0000
,
1001
0000
0001
0000
,
0010
0000
0100
0000
,
1000
0000
0001
0000
,
1000
1000
0000
0000
,
0010
0010
0100
0001
,
1001
1000
0000
0001
,
0000
0100
0001
1000
,
0000
0001
0000
0010
,
0000
0100
0000
1000
,
1001
0001
0000
2000
,
3000
0100
0000
1000
,
0000
0001
0000
0000
,
0010
0100
1000
0000
,
1001
0002
0003
1000
,
0000
0010
0100
0001
,
0000
1000
0000
0100
,
0000
0010
0000
0001
,
1001
1000
0000
0010
,
0000
0100
0000
0002
,
0003
0020
0030
0100
,
0010
0001
1000
0010
;

//--------------- dance-single - ----------------
#NOTES:
     dance-single:
     :
     Medium:
     6:
     0.275,0.275,0.024,0.096,0:
0000
0000
0000
0000
,
0000
0000
0000
0000
,
1001
0000
1000
0000
0001
0100
0001
0000
,
0100
0010
2000
0000
0000
0000
3001
0000
,
1000
0000
0001
0100
0001
0000
0100
0000
,
0020
1030
0001
0100
,
0010
0000
1000
0001
2000
0000
3001
0000
,
0100
0000
0010
1000
0010
0000
1000
0000
,
0001
0100
0010
0000
1000
0000
0100
0000
,
1100
2000
3002
0103
,
0110
0000
0010
1000
0010
0000
1000
0001
,
1000
0002
0103
0010
,
1000
0001
0100
0000
0010
1000
0010
0000
,
1000
0001
0010
0100
,
1000
0000
0100
0010
0002
0000
1003
0000
,
0001
0000
0100
0010
2000
0000
3001
0000
,
1000
0001
0100
0001
,
1001
0100
1001
0010
,
1001
0000
1000
0000
0001
0100
0001
0000
,
0100
0020
0230
0301
,
0010
0100
0010
0000
0001
0000
1000
0000
,
0010
0000
0100
0000
0001
0010
0001
0000
,
1001
1000
0010
0100
,
0001
1000
0001
0000
0100
0000
0001
0002
,
0000
0003
1000
0002
0000
0003
1000
0000
,
0001
0100
0010
1000
,
2001
0000
3001
0000
0100
0010
0100
0000
,
0001
0020
0032
1003
,
0010
0100
0001
0000
1000
0000
0001
0000
,
0020
0130
1000
0001
,
0101
0000
0100
0000
0010
1000
0002
0000
,
1003
0000
0100
0000
0010
0000
0001
0002
,
0000
0003
0100
0020
0000
0030
0100
0000
,
0001
1000
0001
1000
,
2002
0000
0000
3003
0001
0000
1000
0010
,
0000
0100
0000
0001
0000
0010
0000
0200
,
0000
0000
0300
0000
,
2000
3001
0100
0010
,
1010
0000
0000
1000
0001
0000
0000
0000
,
2000
0000
3000
0001
0020
0000
0030
0000
,
0002
0000
0003
1000
0010
0000
0100
0000
,
0101
0001
1000
0010
,
0110
0100
0001
0010
,
1001
1000
0010
0100
,
0001
0000
0010
0100
0010
0000
0001
0000
,
2000
3010
0100
0001
,
0010
0100
1000
0000
0001
0000
0100
0000
,
0110
0010
1000
0001
,
0100
0010
0100
0000
0001
0000
1000
0020
,
0000
0000
1030
0002
0000
0003
1000
0000
,
0001
0100
0010
1000
,
1001
0001
2000
3010
,
1000
0000
0001
0100
0010
0000
1000
0000
,
0200
0310
0100
1000
,
0010
0100
0001
1000
,
1001
0000
0001
0000
0100
0010
0100
0000
,
0002
0000
1003
0000
0010
0100
0010
0000
,
0200
0000
0301
0000
0010
0100
0010
0000
,
0001
1000
0001
0100
;

//--------------- dance-single - SJ ----------------
#NOTES:
     dance-single:
     SJ:
     Hard:
     10:
     0.396,0.389,0.064,0.273,0.02:
0000
0000
0000
0000
,
0000
0000
0000
0000
,
1010
1000
0001
0001
0100
0010
1000
1000
,
0001
0100
0010
0000
1000
0000
1001
0000
,
0001
1000
0100
0001
0100
1000
0010
0100
,
0100
0100
0001
0000
1000
0001
1001
0000
,
1000
0001
0100
0001
0100
0010
1010
0000
,
1000
0000
0100
1000
0001
0000
1000
0000
0010
0000
0100
0000
0100
0000
0001
0000
,
1000
1000
1001
0000
0001
0010
0001
1000
,
0001
0100
0010
0000
0100
0000
0000
0000
0010
0000
1000
0000
0001
0000
0010
0000
,
1100
1000
0001
0010
1000
0010
0001
0100
,
0010
1000
1000
0001
0100
0000
1001
0000
,
0001
0000
1000
0001
0010
0000
0100
0000
1000
0000
1000
0000
0001
0000
0100
0000
,
0100
0000
0010
0000
1000
0000
0001
0100
0001
0000
1000
0000
0001
0000
0000
0000
,
1000
0001
0100
1000
0100
0001
0100
0000
,
0010
1000
0001
0100
0001
0100
0010
1000
,
0001
0100
0001
0010
0001
0100
0001
0100
,
0110
0000
1001
1000
1010
0010
0110
0100
,
0101
0001
0100
0010
1000
1000
0001
0000
,
1000
0010
0100
0001
0010
1000
0010
0001
,
0100
0100
0010
1000
0000
0001
0001
0100
,
0000
0010
0010
1000
0000
0001
0010
0100
,
0110
0010
0001
0100
0000
0010
1000
0001
,
0000
0100
0010
1000
0000
0001
0100
0010
,
1000
0000
0001
0100
0001
0000
1000
0000
,
1001
0000
0001
0000
0100
0000
0001
0000
0001
0000
1000
0100
1000
0000
0010
0000
,
1010
1000
0001
0100
0000
0010
1000
0100
,
0000
0010
0001
0100
0010
1000
0100
0001
,
0100
1000
0010
0100
0000
0001
0010
1000
,
0000
0010
0001
0100
0000
0010
1000
0100
,
1100
1000
0001
0100
0000
0001
0100
1000
,
0000
0100
0001
0100
0000
0010
1000
0100
,
0010
0000
0001
1000
0010
0000
0100
0000
,
0001
1000
0010
1000
0001
0000
1000
0001
,
1001
0000
0000
0000
1000
0001
0100
0010
,
0010
1000
0000
0100
0010
0001
0100
0010
,
1000
0000
0001
0100
1000
0000
0100
0001
,
0100
0000
0010
1000
1010
0010
0110
0100
,
0101
0001
1000
0010
0100
0001
0001
0000
,
1000
0010
0100
0001
1000
0100
0010
0001
,
1000
0100
1000
0010
0000
1000
0001
0000
,
1001
0000
1010
0000
0001
0100
0010
0100
,
0101
0000
1001
0000
1100
0000
0110
0010
,
0011
0001
0100
1000
0000
0100
0001
0010
,
0000
1000
0010
0001
0100
0010
1000
0100
,
0001
0100
1000
0010
0000
0100
0001
0100
,
0000
0010
1000
0100
0010
0001
0100
0010
,
1010
1000
0100
0001
0000
0100
1000
0001
,
0000
0010
1000
0010
0000
0001
0100
0010
,
0100
0000
0001
1000
0010
0000
0100
0000
,
1001
0110
1001
1010
,
1001
0001
0100
1000
0100
0001
0100
0010
,
1000
0100
0001
0010
1000
0010
0001
0100
,
0010
1000
0100
1000
0001
1000
0100
0001
,
0100
1000
0010
0100
0001
0010
0100
1000
,
1100
0100
0010
0001
0000
0100
0010
1000
,
0000
0001
0100
0010
0000
1000
0100
0010
,
0001
0000
0100
0010
1000
0000
0001
0000
,
1001
0000
1010
0000
0110
0000
0101
0001
,
1000
0000
0000
0000
;

//--------------- dance-double - XO BU- ----------------
#NOTES:
     dance-double:
     XO BU-:
     Hard:
     11:
     0,0,0,0,0:
00000000
00000000
00000000
00000000
,
00010000
00001000
01000000
00100000
01000000
00001000
00010000
00001000
,
01001000
01000000
00100000
00010000
00100000
01000000
00010000
10000000
,
01000000
00100000
00010000
00200000
00001000
00300000
00101000
00000000
,
00100000
00001000
00010000
00100000
00010000
00001000
00010000
00000100
,
00001000
00000010
00001000
00000000
00000001
00001000
00000020
00000100
,
00001030
00000100
00010000
00001000
00100000
00010000
10000000
00000000
,
01000000
00000000
00100000
00010000
00100000
00000000
01000000
00000000
20000000
00000000
00010000
00000000
31000000
00000000
10000000
00000000
,
00010000
00100000
00001000
00000000
00010000
00000100
00001000
00000010
,
00000100
00000001
00000100
00000000
00000002
00000000
00000000
00000000
00010003
00000000
00001000
00000000
00100000
00000000
00010000
00000000
,
00110000
00010000
01000000
00100000
00010000
00100000
01000000
00010000
,
00100000
00001000
00020000
00000000
00030020
00001000
00001030
00000001
,
00000100
00000000
00000001
00001000
00000001
00000000
00010000
00000000
00001000
00000000
00000010
00000000
00001000
00000000
00010000
00000000
,
00001000
00000000
00100000
00000000
00010000
00000000
10000000
01000000
00100000
00000000
01000000
00000000
00200000
00000000
00000000
00000000
,
00310000
00100000
00001000
00010000
00000100
00001000
00001000
00000000
,
00000010
00000100
00001000
00000100
00000010
00001000
00000001
00000010
,
00000100
00001000
00000100
00001000
00000100
00001000
00000001
00001000
,
00001001
00000000
00000000
00000000
00000000
00000000
00000101
00000000
00000000
00000001
00000100
00000010
00001000
00000000
00000000
00000100
00000000
00000000
00010000
00000000
00000000
00001000
00000000
00000000
,
00011000
00010000
00001000
01000000
00100000
00010000
00100000
01000000
,
00010000
10000000
01000000
00010000
01000000
10000000
00001000
00010000
,
00002000
01000000
01003000
00010000
00100000
00010000
00001000
00010000
,
00100000
00001000
00010000
00000010
00001000
00000001
00000010
00000100
,
00001100
00001000
00000001
00000100
00001000
00000100
00000010
00002000
,
00000000
00003001
00000010
00000100
00001000
00010000
00100000
02000000
,
00000000
00000000
13000000
00010000
01000000
00010000
00100000
00010000
,
10000000
01000000
00100000
00010000
10000000
00010000
01000000
00100000
,
10100000
10000000
01000000
00010000
00001000
00000010
00000001
00001000
,
00000010
00000100
00000001
00000010
00000001
00000100
00000010
00000100
,
00000001
00000010
00001000
00010000
01000000
10000000
00010000
01000000
,
00100000
10000000
01000000
00100000
00010000
01000000
00001000
00010000
,
00011000
00001000
00010000
00000100
00000010
00000100
00010000
00001000
,
01000000
00100000
01000000
00010000
10000000
01000000
00100000
00100000
,
00010000
10000000
00100000
00100000
01000000
00001000
00010000
00001000
,
00010000
00000010
00001000
00000100
00001000
00000001
00000010
00000100
,
00002100
00000000
00000000
00003001
00000001
00001000
00000100
00010000
,
00002000
00000000
00000000
01000000
01003000
00000000
00010000
00000000
,
20000000
00000000
00000000
00010000
30010000
00000000
01000000
00001000
,
00010000
00000000
00001000
00010000
00000100
00010000
00000010
00001000
,
00001001
00000000
00000001
00000010
00000100
00001000
00000100
00000010
,
00000002
00000000
00001003
00000010
00000100
00000001
00000010
00000100
,
00001000
00000000
00000100
00010000
00001000
00010000
00001000
00000000
,
00011000
00001000
00101000
00000000
00100000
00010000
01000000
00100000
,
10100000
10000000
10010000
00000000
01010000
00010000
01000000
00100000
,
10100000
10000000
01000000
00010000
00001000
00000100
00000001
00001000
,
00000010
00000100
00001000
00000100
00000010
00001000
00000001
00001000
,
00000001
00000010
00001000
00010000
01000000
10000000
01000000
00100000
,
00010000
01000000
00100000
10000000
00010000
00100000
00010000
10000000
,
10100000
00100000
01000000
00010000
00100000
01000000
00100000
00010000
,
10000000
01000000
00100000
00010000
00001000
00000100
00000010
00000010
,
00000100
00001000
00000010
00000010
00001000
00000001
00000010
00000100
,
00001000
00000000
00000000
00000001
00000000
00000000
00001000
00000000
00000000
00000001
00000100
00000010
00000100
00000000
00000000
00000001
00000000
00000000
00001000
00000000
00000000
00000001
00000000
00000000
,
00001001
00001000
00000100
00000001
00000100
00001000
00000010
00010000
,
00001000
01000000
00100000
01000000
00010000
10000000
01000000
00100000
,
00010000
01000000
10000000
01000000
00100000
10000000
00010000
00100000
,
00001000
00010000
00100000
00010000
00001000
00100000
00001000
00010000
,
00011000
00001000
00010000
00000010
00000100
00000010
00001000
00000100
,
00000010
00000001
00000010
00000100
00001000
00010000
00100000
00020000
,
00000000
00000000
10030000
01000000
00100000
00010000
10000000
00100000
,
10000000
00010000
01000000
00010000
00100000
00000000
00000010
00100000
;
