#TITLE:Future Downloader;
#SUBTITLE:;
#ARTIST:Kobaryo;
#TITLETRANSLIT:;
#SUBTITLETRANSLIT:;
#ARTISTTRANSLIT:;
#GENRE:;
#CREDIT:Braeden;
#MUSIC:Future Downloader.ogg;
#BANNER:Future Downloader-ban.png;
#BACKGROUND:Future Downloader-bg.png;
#CDTITLE:;
#SAMPLESTART:0.000;
#SAMPLELENGTH:0.000;
#SELECTABLE:YES;
#OFFSET:-0.011;
#BPMS:0.000=225.000;
#STOPS:;
#BGCHANGES:;
#FGCHANGES:;

//--------------- dance-single - ----------------
#NOTES:
     dance-single:
     :
     Beginner:
     4:
     0,0,0,0,0:
0000
0000
0000
0000
,
0000
0000
0000
0000
,
0000
0000
0000
0000
,
0000
0000
0000
0000
,
0000
0000
0000
0000
,
0001
0000
0000
0000
,
0010
0000
0000
0000
,
0001
0000
0000
0000
,
1000
0000
0000
0000
,
1001
0000
0001
0000
,
0000
0000
0010
0000
,
0000
0000
0100
0000
,
0000
0000
1000
0000
,
0000
0000
0001
0000
,
0000
0000
0100
0000
,
0000
0000
0010
0000
,
0000
0000
1000
0000
,
1001
0000
0000
0000
,
0000
0000
0000
0000
,
0001
0000
1000
0000
,
0100
0000
0010
0000
,
0001
0000
0001
0000
,
1000
0000
1000
0000
,
0100
0000
0100
0000
,
0010
0000
0010
0000
,
1001
0000
1000
0000
,
0001
0000
0010
0000
,
0100
0000
1000
0000
,
0001
0000
0000
0000
,
0000
1001
0000
1000
,
0000
0001
0000
1000
,
0000
0100
0000
0010
,
0000
0001
0000
0000
,
1001
0000
0000
0001
,
0000
1000
0000
0100
,
0100
0000
0010
0000
,
0001
0000
1000
0000
,
1001
0000
0000
0000
,
1000
0000
0000
0000
,
0001
0000
0000
0000
,
0010
0000
0000
0000
,
0100
0000
0000
0000
,
1000
0000
0000
0000
,
0001
0000
0000
0000
,
1000
0000
0000
0000
,
1001
0000
0000
0000
,
0001
0000
0000
0000
,
1000
0000
0000
0000
,
0100
0000
0000
0000
,
0010
0000
0100
0000
,
1000
0000
0001
0000
,
1000
0000
0000
0000
,
0001
0000
0000
0000
,
1001
0000
0000
0000
,
1000
0000
0000
0000
,
0001
0000
0000
0000
,
0010
0000
0000
0000
,
0100
0000
0000
0000
,
1000
0000
0000
0000
,
0010
0000
0000
0000
,
0100
0000
0000
0000
,
1001
0000
0000
0000
,
1000
0000
0000
0000
,
0100
0000
0000
0000
,
0010
0000
0000
0000
,
0001
0000
0000
0000
,
1000
0000
0000
0000
,
0010
0000
0000
0000
,
0100
0000
0000
0000
,
0001
0000
0000
0000
,
1000
0000
0000
0000
,
0001
0000
0000
0000
,
1000
0000
0000
0000
,
1001
0000
1000
0000
,
0001
0000
1000
0000
,
0100
0000
1000
0000
,
0010
0000
1000
0000
,
0100
0000
0010
0000
,
0001
0000
1000
0000
,
0010
0000
0100
0000
,
0001
0000
0000
0000
,
1001
0000
1000
0000
,
0000
0001
0000
0000
,
0000
1000
0000
0000
,
0001
0000
1000
0000
,
0110
0000
0010
0000
,
1001
0000
0000
0000
,
0001
0000
1000
0000
,
0001
0000
1000
0000
,
1001
0000
0000
0000
;

//--------------- dance-single - ----------------
#NOTES:
     dance-single:
     :
     Easy:
     10:
     0,0,0,0,0:
0000
0000
0000
0000
,
0000
0000
0000
0000
,
0000
0000
0000
0000
,
0000
0000
0000
0000
,
0000
0000
0000
0000
,
1000
0000
0001
0000
,
0100
0000
0010
0000
,
1000
0000
0001
0000
,
0100
0000
0001
0000
,
1001
1000
0002
0000
,
1003
0010
1000
0001
,
0100
0001
2000
0000
,
3001
0100
0010
0100
,
0001
0010
0200
0000
,
1300
0100
0010
0001
,
1000
0010
0200
0000
,
0302
0000
1003
0000
,
1001
0000
0001
0000
,
1000
0000
0001
0000
,
0100
0010
1000
0001
,
0010
0100
1000
0001
,
1001
1000
0001
0001
,
0100
0010
1000
0001
,
0010
0100
1000
1000
,
0001
0100
0010
1000
,
1001
0001
1000
1000
,
0100
0010
0001
0100
,
0010
0100
0001
0001
,
1000
0010
1000
0001
,
0000
1001
1000
0001
,
1000
1000
0010
0100
,
0001
0100
0010
0010
,
1000
0000
1000
0001
,
0101
0010
1000
0001
,
0100
0010
1000
0001
,
0010
0100
1000
0001
,
0100
0001
0010
0001
,
1001
1000
0001
1000
,
0100
0010
0001
1000
,
0010
1000
0000
0000
0010
0000
0000
1000
,
0000
0001
0000
0000
0100
0000
0000
0001
,
0000
1000
0000
0000
0010
0000
0000
1000
,
0000
0001
0000
0000
0100
0000
0000
0001
,
0000
1000
0000
0000
0100
0000
0000
1000
,
0000
0001
0100
0010
,
1010
1000
0010
0100
,
0001
0010
0001
0100
,
0001
1000
0010
1000
,
0001
0010
0100
1000
,
0001
0100
0001
0100
,
0010
1000
0010
1000
,
0001
0000
0000
0000
,
0100
0100
0100
0000
,
0001
1000
0000
0020
0000
0000
1030
0000
,
1001
0000
0001
0020
0000
0000
0031
0000
,
2000
3010
1000
0001
,
0100
0010
1000
0001
,
2000
0000
0000
3010
0000
0000
1000
0000
,
1001
0000
0001
0200
0000
0000
0301
0000
,
1000
0000
0001
1000
,
0001
0000
0100
0010
,
1010
0000
0000
0000
0000
1000
0001
1000
,
0000
0001
0100
0001
0000
0000
0100
0000
,
0000
0000
0010
1000
,
0000
0001
0100
0001
1000
0000
0010
0000
,
1010
0000
0000
0001
0000
1000
0010
1000
,
0000
0001
0100
0010
1000
0000
0000
1010
,
0000
0000
0010
0000
1000
0001
1000
0001
,
0000
1000
0100
1000
0001
0010
0001
0000
,
2000
0000
0000
0000
,
3020
0000
0030
0000
,
0110
0000
0010
0000
,
1000
0000
0001
1000
,
0001
0000
0100
0000
0010
0000
1000
0001
,
1000
0000
0001
0000
0100
0000
0001
1000
,
0001
0000
1000
0000
0010
0000
1000
0100
,
1000
0001
0100
0010
,
1000
0000
1000
0000
0001
0000
0100
0010
,
0100
0000
0001
0000
0010
0000
0100
1000
,
0100
1000
0002
1003
,
0001
0000
0000
1000
0000
0000
0001
0000
0100
0000
0000
0000
0010
0000
0000
0000
,
1010
0000
0000
0000
0100
0000
0000
0000
1000
0000
0000
0001
0000
0000
1000
0000
,
0000
0000
0001
0000
0000
0010
0000
0000
0001
0000
0000
0100
0000
0000
0001
0000
,
0000
1000
0000
0000
0100
0000
0000
1000
,
0001
1000
0010
1000
,
0001
0000
0000
0000
0100
0000
0000
0000
0010
0000
0000
1000
0000
0000
0010
0000
,
0000
0000
1000
0000
0000
0100
0000
0000
1000
0000
0000
0001
0000
0000
1000
0000
,
0010
0100
0001
0100
,
1010
0100
0001
1000
,
1001
0000
0000
0000
;

//--------------- dance-single - XO ----------------
#NOTES:
     dance-single:
     XO:
     Medium:
     14:
     0,0,0,0,0:
0000
0000
0000
0000
,
0000
0000
0000
0000
,
0000
0000
0000
0000
,
0000
0000
0000
0000
,
0000
0000
0000
0000
,
1000
0000
0010
0000
1000
0000
0000
0001
,
0100
0000
0001
0100
0000
0010
1000
0000
,
0001
0000
0010
0000
0100
1000
0000
0100
,
0010
0000
0001
0100
0000
0001
0100
0000
,
0110
0000
0010
0000
1000
0000
0000
0001
,
0100
0000
0010
0000
2000
0000
3000
0001
,
0100
0000
0010
0000
2000
0000
3000
0100
,
0010
0000
0001
0000
0200
0000
0300
0001
,
0010
0000
0001
0000
0200
0000
0300
0001
,
0010
0000
0100
0000
2000
0000
3000
0001
,
0100
0000
0010
0000
2000
0000
3000
0010
,
1000
0001
0100
0010
,
1010
0000
1000
0000
0001
0000
0000
1000
,
0100
0000
1000
0100
0000
1000
0100
0000
,
0010
0001
0010
0000
0001
1000
0001
0000
,
1000
0010
0100
0001
0100
0000
0010
0000
,
1010
0000
1000
0100
0010
0001
0010
0100
,
1000
0010
0100
0001
0010
0100
1000
0001
,
1000
0100
1000
0000
1001
0000
0101
0000
,
0001
0010
0001
0100
0002
0000
1003
0000
,
0010
1000
0010
0000
1010
0000
0010
0100
,
0001
0100
0010
1000
0001
0010
0100
1000
,
0100
0010
0001
0100
0001
0010
0001
1000
,
0002
0203
0320
1030
,
0000
0000
0001
0100
1000
0000
0100
0000
,
0010
0000
1000
0000
0001
0000
0100
0010
,
0100
0001
0100
0010
1000
0000
0100
0000
,
0010
0001
0010
0100
1000
0010
1000
0000
,
0001
0100
1000
0100
0010
0000
1000
0000
,
0001
0000
0100
0000
0010
1000
0010
1000
,
0001
0010
0001
1000
0010
1000
0001
0100
,
0001
0010
0100
1000
0001
0100
0010
1000
,
0002
1000
0100
1003
,
0020
1000
0100
1030
,
1000
0000
0000
0000
0001
0000
0000
0000
0100
0000
0000
0010
0000
0000
0100
0000
,
0000
0000
0001
0000
0000
0100
0000
0000
0010
0000
0000
1000
0000
0000
0100
0000
,
0000
0000
1000
0000
0000
0001
0000
0000
0100
0000
0000
0001
0000
0000
0100
0000
,
0000
0000
0010
0000
0000
1000
0000
0000
0100
0000
0000
1000
0000
0000
0001
0000
,
0000
0000
0010
0000
0000
0100
0000
0000
1000
0000
0000
0001
0000
0000
0100
0000
,
0000
0000
0010
0000
0000
1000
0000
0000
0100
0000
1000
0000
0001
0000
0100
0000
,
0101
0001
1000
0010
,
1000
0001
0100
0001
,
0100
0010
1000
0100
,
1000
0001
0010
0100
,
1000
0001
0100
0001
1000
0010
1000
0010
,
0100
0001
0100
0010
1000
0100
0010
0001
,
1000
0000
0010
0000
,
1000
0001
1000
0001
,
1000
0100
00M0
0200
0000
0301
0010
0000
,
0011
0000
0001
0100
00M0
0100
1000
0001
,
1000
0000
0001
0010
0100
1000
0001
0100
,
0001
0000
0010
0000
0001
1000
0001
1000
,
0001
0100
0001
1000
0000
0100
0010
0000
,
0011
0000
0001
0100
00M0
0100
1000
0001
,
1000
0000
0000
0010
0000
0000
1000
0000
0001
0000
0010
0000
0001
0000
0010
0000
,
0100
0000
0000
1000
0000
0000
0100
0000
1000
0000
0001
0000
1000
0000
0001
0000
,
1000
0010
0000
0100
0000
0001
1000
0010
,
000M
0010
0100
1000
0001
0010
0100
1000
,
0000
0000
0000
0000
0001
1000
0010
0100
,
0001
0010
0100
1000
0001
0100
0002
0000
,
0103
0010
1000
0010
0000
0100
0001
0100
,
00M0
0100
1000
0100
1000
0001
1000
0020
,
0000
1030
0100
0010
0001
0010
0100
1000
,
0000
0001
0100
0001
0010
0001
0100
0000
,
0020
0000
0000
0000
,
1030
0001
1000
0100
,
1100
0010
0001
0100
,
0010
1000
0002
0103
,
0001
0010
0001
0010
0100
1000
0100
1000
,
0001
0100
0001
0010
0001
1000
0100
1000
,
0001
0010
0100
1000
0001
0100
0010
0100
,
0001
0100
0010
1000
,
0001
0010
0001
0010
0100
1000
0001
0100
,
0010
1000
0100
0010
0001
0010
0100
1000
,
0001
0100
0001
0100
0010
1000
0010
1000
,
0001
0000
0000
1000
0000
0000
0010
0000
1000
0000
0001
0000
0100
0000
0010
0000
,
1000
0100
1000
0100
0010
0001
1000
0100
,
1000
0010
1000
0001
0100
0010
1000
0001
,
1000
0100
0010
0001
0010
0100
1000
0001
,
1000
0000
0100
0000
0010
0001
0010
0000
,
0001
0010
1000
0010
0001
0100
0010
0100
,
0001
0100
1000
0100
0010
1000
0001
0100
,
0010
0000
1010
0000
1000
0010
0100
0001
,
0010
0001
1000
0001
,
1001
0000
0000
0000
;

//--------------- dance-single - BU XO FS ----------------
#NOTES:
     dance-single:
     BU XO FS:
     Hard:
     17:
     0,0,0,0,0:
0000
0000
0000
0000
,
0000
0000
0000
0000
,
0000
0000
0000
0000
,
0000
0000
0000
0000
,
0000
0000
0000
0000
,
0001
0100
0010
0000
1000
0100
0000
0010
,
0001
0000
1000
0010
0000
0100
0001
0100
,
0001
0010
0100
0000
1000
0100
0000
0010
,
0001
0000
0100
0010
0000
0100
0001
1000
,
0002
0000
0100
0000
1003
0010
0000
1000
,
0100
0000
1000
0010
0000
1000
0001
1000
,
0002
0000
1000
0000
0013
0100
0000
0010
,
0001
0000
0100
0001
0000
0010
0001
1000
,
0200
0000
1000
0000
0310
0100
0000
1000
,
0010
0000
0100
0001
0000
1000
0001
0010
,
0002
0000
0010
0000
1003
0100
0000
0010
,
0001
0000
1000
0010
0000
0100
0001
1000
,
1001
0000
0001
0000
0010
0001
0000
0100
,
0001
0000
1000
0001
0000
0010
0001
0000
,
1000
0100
0010
0001
1000
0010
0100
0001
,
1000
0100
0010
0001
1000
0100
0010
0000
,
0011
0000
0000
0000
0001
0000
1000
0100
1000
0000
0100
0000
0010
0000
0001
0000
,
1000
0010
1000
0000
0001
0000
1000
0010
1000
0000
0100
0000
0010
0001
0010
0001
,
0010
0000
0001
0000
0100
0000
0010
1000
0010
0000
0100
0000
0001
0000
1000
0000
,
0001
0010
1000
0010
0100
0010
0001
0000
,
0011
0000
0010
0000
0100
0000
1000
0001
1000
0000
0100
0000
0010
0000
0100
0000
,
1000
0001
1000
0000
0100
0000
1000
0000
0100
00M0
0100
0000
0001
0000
1000
0100
,
1000
0000
0100
0000
0010
0000
0001
0100
0010
0000
1000
0000
0001
0100
0010
1000
,
0001
0100
0001
0010
0001
1000
0100
0010
,
0000
0000
0000
0000
0011
0000
0001
1000
0100
0000
0010
0000
0001
0000
1000
0000
,
0001
0000
0010
0M00
0010
0000
1000
0000
0100
00M0
0100
0000
0001
0000
1000
0000
,
0001
0100
0001
0000
0011
0000
0110
0000
,
0100
0000
1000
0000
0001
0010
0001
1000
0100
0000
0010
0000
0100
0000
0000
0000
,
1000
0001
1000
0000
0001
0000
0100
0010
0100
0000
0001
0000
1000
0000
0001
0100
,
0001
0000
0010
0000
0100
0000
0001
0000
0100
0000
1000
0010
1000
0000
0001
0000
,
1000
0000
0100
00M0
0100
0000
0001
0000
0100
00M0
0100
0000
1000
0000
0010
0000
,
0100
0010
1000
0100
0010
0001
1000
0001
,
0100
0010
1000
0001
,
1000
0000
0100
0000
0010
0001
0010
0000
,
0001
0000
0000
0000
0100
0000
0000
0000
0010
0000
0000
1000
0000
0000
0001
0000
,
0000
0000
1000
0000
0000
0100
0000
0000
0010
0000
0000
0001
0000
0000
0010
0000
,
0000
0000
0100
0000
0000
1000
0000
0000
0001
0000
0000
1000
0000
0000
0010
0000
,
0000
0000
1000
0000
0000
0100
0000
0000
0010
0000
0000
0001
0000
0000
0010
0000
,
0000
0000
0100
0000
0000
1000
0000
0000
0010
0000
0000
0100
0000
0000
0001
0000
,
0000
0010
0100
1000
0010
0100
0001
0100
,
0110
1010
1000
1001
,
0001
0101
0100
0110
,
0010
1010
1000
1100
,
0100
0110
0010
0011
,
0001
1000
0001
1000
0010
0100
0010
0100
,
0001
0010
0100
1000
0001
0100
0010
1000
0001
0010
0100
1000
0001
0100
0010
1000
,
0001
0000
0001
0000
,
1000
1000
0001
1000
,
1001
0001
1000
0010
0M00
0010
0001
0000
,
0101
0000
0100
0010
0M00
0010
0001
1000
,
0002
0000
1003
0010
0100
0010
0100
0001
,
1000
0000
0001
0010
0001
0000
0010
0000
0100
0000
1000
0000
0100
0000
1000
0000
,
0001
0100
0001
0100
00M0
0100
1000
0000
,
1100
0000
0100
0010
M000
0010
0100
0001
,
1000
0000
0000
0100
0000
0000
0010
0000
0001
0000
0100
0000
0010
0000
1000
0000
,
0001
0000
0000
0010
0000
0000
0001
0000
1000
0010
0100
0001
1000
0100
0010
0001
,
1000
0000
0100
0000
0010
0000
0001
0000
0000
0000
1000
0100
1000
0100
1000
0000
,
0001
0000
1000
0010
0100
0001
1000
0000
0001
0100
0010
1000
0001
0000
1000
0000
,
0100
0000
0000
0000
0000
0000
0000
0000
1000
0010
0100
0000
0001
0100
0010
0000
,
1000
0000
0001
0010
0100
0010
0001
0000
1000
0010
0100
0001
2000
0000
0000
0000
,
3001
0000
0010
0000
0100
0000
1000
0000
0000
0000
0001
1000
0010
1000
0001
0000
,
0100
0000
0001
1000
0010
1000
0001
0000
1000
0001
0100
0010
1000
0000
0200
0000
,
0000
1300
0010
0001
1000
0100
0001
1000
,
0000
0000
0001
0100
0010
0100
0001
0000
1000
0010
0100
0010
1000
0000
0000
0000
,
0002
0000
0000
0000
,
0013
0000
0100
0000
1000
0100
1000
0000
,
1001
0000
0001
0010
0001
0010
0100
0000
,
1000
0010
0100
0000
0001
0000
0010
0000
,
0001
0000
0100
0000
0010
0000
1000
0000
0001
0000
0010
0000
0001
0000
1000
0100
,
1000
0000
0001
0000
0010
0000
0100
0000
1000
0000
0001
0000
0100
0000
0010
1000
,
0010
0000
0100
0000
0001
0000
1000
0000
0100
0000
1000
0000
0001
0000
0010
0100
,
0010
0001
0010
0100
1000
0010
0100
0001
,
1000
0000
0100
0000
0001
0000
0100
0000
1000
0000
0100
0000
0010
0000
0001
1000
,
0001
0000
1000
0000
0100
0000
0010
0000
1000
0000
0010
0000
0001
0000
1000
0100
,
1000
0000
0001
0000
0100
0000
0010
0000
4000
0000
0000
0000
3001
0010
0001
0010
,
0100
0000
0000
0100
0000
0000
0100
0000
1000
0000
0001
0000
1000
0000
0100
0000
,
1000
0010
1000
0000
0001
0000
1000
0010
1000
0000
0001
0000
1000
0100
1000
0000
,
0001
0100
0040
0000
0030
1000
0000
0000
0010
0000
0100
0001
1000
0000
0400
0000
,
0310
0000
0001
1000
0001
0000
0010
0000
0001
1000
0001
0000
0010
0000
0400
0000
,
1300
0010
0100
0001
1000
0100
0010
0001
,
1000
0010
1000
0000
0001
0100
0010
0100
0001
0000
1000
0100
1000
0100
0010
0000
,
0001
0010
0100
0000
1000
0100
0010
0100
1000
0000
0001
0100
0010
0000
0100
0000
,
0010
0000
1000
0000
1001
0000
0000
0000
0001
0000
0010
0000
0100
1000
0001
0000
,
1001
1000
0100
1000
,
1001
0000
0000
0000
;

//--------------- dance-single - BU+ XO FS JA ----------------
#NOTES:
     dance-single:
     BU+ XO FS JA:
     Challenge:
     19:
     0,0,0,0,0:
0000
0000
0000
0000
,
0000
0000
0000
0000
,
0000
0000
0000
0000
,
0000
0000
0000
0000
,
0000
0000
0000
0000
,
1000
0001
0100
0010
1000
0010
0000
1000
,
0100
1000
0001
0010
0000
0001
0100
0001
,
1000
0010
0100
0001
1000
0100
0000
0010
,
0001
0100
0001
1000
0010
0100
0001
0010
,
0001
1000
0001
0010
0001
1000
0100
0100
,
0010
0000
0001
0100
0010
1000
0100
0001
,
0100
1000
0010
0100
0001
0001
0010
0100
,
1000
0000
0100
1000
0100
1000
0100
0001
,
0100
0010
0001
0000
1000
1000
0000
0100
,
0100
0010
0001
0100
0010
1000
0001
0100
,
1000
0100
0001
1000
0010
1000
0000
0001
,
0010
0000
0001
1000
0000
0100
1000
0001
,
1001
0000
1000
0000
0001
0010
0000
0001
,
1000
0000
0001
0010
0000
0001
1000
0000
,
0001
0000
0000
1000
0001
0100
0010
1000
0001
0100
0001
1000
0001
0000
0100
0000
,
0001
0001
0100
0010
1000
0000
1100
0000
,
1001
0000
0000
0000
1000
0000
0001
0100
0001
0000
0010
0000
1000
0000
0010
0000
,
0001
1000
0001
0000
0100
0000
0010
1000
0010
0000
1000
0100
0010
0001
0010
0100
,
1000
0000
0100
0000
1000
0000
0001
0100
0010
0000
0000
0000
0110
0000
0000
0000
,
0100
0001
0100
0001
0100
0000
0001
0000
4000
0000
0000
0000
3001
0000
0000
0000
,
0101
0000
0100
0000
0001
0000
1000
0100
0010
0000
0001
0000
0010
0000
0100
1000
,
0001
0100
0001
0000
1000
0000
0100
0000
0001
0000
0100
0000
1000
0000
0010
0100
,
0001
0000
1000
0000
0001
0000
1000
0100
0010
0000
0001
0000
1000
0010
1000
0010
,
1000
0001
0010
0100
1000
0001
0100
0010
1000
0001
0010
0100
1000
0001
0100
0010
,
0000
0000
0000
0000
1010
0000
1000
0001
1000
0000
0001
0010
0100
0000
1000
0000
,
0001
0000
0010
0000
1000
0000
0010
0000
0001
0000
1000
0010
1000
0000
0001
0100
,
0010
0000
1000
0000
0001
0000
1000
0001
1000
0000
0010
0000
0100
0000
0010
1000
,
0010
0000
4000
0000
3001
0100
0010
1000
0001
0000
0100
0000
0101
0000
0000
0000
,
0001
1000
0001
0000
0100
0000
0001
0010
0100
0000
1000
0000
0001
0000
1000
0010
,
1000
0100
0010
0001
1000
0000
0001
0100
0010
1000
0001
0100
0001
0010
0100
1000
,
0001
0100
0010
0100
0001
1000
0001
0010
0001
0100
0010
1000
0001
0010
0100
1000
,
0100
0010
0001
1000
0001
0100
0010
0100
0001
1000
0100
0010
0001
0100
0010
1000
,
0001
0100
0001
0100
,
0010
1000
0100
1000
,
0001
0000
0000
0000
0010
0000
0000
0000
0100
0000
0000
1000
0000
0000
0100
0000
,
0000
0000
0010
0000
0000
0001
0000
0000
0100
0000
0000
0010
0000
0000
1000
0000
,
0000
0000
0001
0000
0000
0010
0000
0000
1000
0000
0000
0010
0000
0000
0001
0000
,
0000
0000
1000
0000
0000
0100
0000
0000
0001
0000
0000
0100
0000
0000
1000
0000
,
0000
0000
0001
0000
0000
0100
0000
0000
0010
0000
0000
0100
0000
0000
0001
0000
,
1000
0100
0010
0001
0010
0100
1000
0001
,
1001
1010
0010
0110
,
0100
0101
0001
0011
,
0001
0101
0100
0110
,
0010
1010
1000
1100
,
0100
0010
0100
0010
0001
1000
0001
1000
,
0010
0100
0001
0010
0100
1000
0001
0100
0010
1000
0001
0010
0001
1000
0100
1000
,
0001
0000
0100
0000
,
0010
1000
0001
0000
,
1010
0010
0M00
0020
0000
0031
0100
0000
,
0110
0000
0010
1000
0000
0001
0100
1000
,
0200
0000
0000
0000
0301
0000
1000
0000
0010
0M00
0010
0000
0001
0000
1000
0000
,
1001
0000
0001
0100
0010
0000
1000
0000
0100
0000
0010
0000
0001
0000
1000
0000
,
0001
0100
00M0
0200
0000
1300
0010
0000
,
0110
0000
0100
0001
0000
0001
0010
0100
,
1000
0010
1000
0001
0100
0001
1000
0100
0010
0001
0010
0001
1000
0000
0010
0000
,
0100
0000
0000
0001
0000
0000
1000
0000
0001
0010
0100
1000
0001
1000
0100
1000
,
0002
0000
0000
0000
0103
0000
0010
0000
0000
0000
1000
0010
1000
0010
1000
0000
,
0001
0000
1000
0100
0010
0001
1000
0000
0001
0010
0100
1000
0001
0000
0100
0000
,
0010
0000
0000
0000
0000
0000
0000
0000
1000
0100
1000
0000
0001
0010
0001
0000
,
0100
0000
0001
0010
0100
1000
0001
0000
1000
0010
1000
0010
0200
0000
0000
0000
,
0301
0000
1000
0000
0010
0000
0010
0000
0000
0000
1000
0001
0010
0100
1000
0000
,
0010
0000
1000
0100
0010
0001
1000
0000
0001
0100
0001
0010
0001
0000
0200
0000
,
0000
0301
0010
1000
0001
0100
1000
0001
,
0000
0000
1000
0100
0010
0001
1000
0000
0001
0100
0010
1000
0001
0000
0000
0000
,
0200
0000
0310
0000
1000
0100
1000
0001
,
1000
0010
0100
0001
0010
0100
1000
0001
,
0101
0000
0100
0000
0010
1000
0004
0000
,
1003
0010
0100
0001
4000
0000
3001
0000
,
1000
0000
0001
0010
0100
1000
0001
0000
1000
0100
0010
0001
1000
0010
0100
0001
,
0100
0000
0001
0010
0100
1000
0001
0000
1000
0100
1000
0001
0100
0001
1000
0010
,
0100
0000
0001
0010
0100
1000
0001
0000
1000
0100
0010
0001
1000
0010
0100
0001
,
1000
0100
1000
0010
0100
0001
0010
0001
1000
0100
0010
0001
1000
0000
0000
0000
,
1001
0000
0001
1000
0010
1000
0001
0010
0100
1000
0010
0100
0001
1000
0100
0010
,
0100
0000
1000
0001
1000
0010
0100
0001
1000
0100
0010
0001
1000
0010
0100
0001
,
1000
0000
0010
0100
0010
1000
0100
0010
0001
0100
0001
0100
0010
1000
0100
1000
,
0002
0000
0000
0000
1003
0010
0100
0001
,
1000
0100
1000
0000
0001
0000
1000
0100
1000
0000
0001
1000
0001
0010
0001
0000
,
0100
0010
0100
0010
1000
0100
0010
0000
0001
0000
1000
0010
1000
0000
0001
0100
,
0001
0000
1000
0100
0010
0001
1000
0000
0001
0010
0100
1000
0001
0000
0100
0010
,
0100
0010
1000
0001
0010
0100
1000
0001
1000
0100
0010
0001
1000
0000
0001
0000
,
1000
0010
0100
0000
0001
1000
0010
0100
0001
0010
0001
0100
0010
1000
0010
0100
,
0001
0010
0100
0000
1000
0010
1000
0001
2000
0000
3010
0100
0002
0000
0103
0000
,
0110
0000
0010
0000
1000
0001
0000
0000
1000
0000
0010
0000
0100
0001
0100
0001
,
1000
1010
0010
0010
,
0010
0000
0000
0000
;

//--------------- dance-double - XO BU ----------------
#NOTES:
     dance-double:
     XO BU:
     Hard:
     17:
     0,0,0,0,0:
00000000
00000000
00000000
00000000
,
00000000
00000000
00000000
00000000
,
00000000
00000000
00000000
00000000
,
00000000
00000000
00000000
00000000
,
00000000
00000000
00000000
00000000
,
00010000
00000000
00001000
00000000
00010000
00001000
00000000
00100000
,
00010000
00000000
10000000
00010000
00000000
10000000
00100000
01000000
,
00010000
00100000
01000000
10000000
01000000
00100000
00000000
00010000
,
01000000
00000000
00001000
00010000
00000000
00001000
00010000
00000010
,
00000200
00000000
00000301
00001000
00000001
00000100
00000000
00000010
,
00001000
00000000
00000001
00000000
00002000
00000000
00003010
00001000
,
00000100
00010000
00001000
00000000
00010000
00001000
00000000
00000000
,
00020000
00000000
00030020
00000030
,
00010000
00001000
00200000
00000000
,
00310000
10000000
01000000
00100000
,
00010000
00000000
01000000
00000000
00010000
01000000
00000000
00010000
,
01000000
00010000
01000000
00100000
,
20200000
00000000
00000000
00000000
,
00000000
00000000
00000000
30300000
,
10000000
00010000
10000000
00010000
01000000
00100000
01000000
00100000
,
01000000
00001000
00010000
00001000
00010000
00000000
00010100
00000000
,
00000100
00000000
00010000
00000010
00000100
00000010
00001000
00000000
,
00000001
00000010
00000001
00000000
00001000
00000000
00000010
00001000
00000010
00000000
00000100
00000000
00000001
00001000
00000001
00001000
,
00000001
00000100
00000010
00010000
00001000
00000000
00001000
00000000
,
00100000
00010000
00100000
00000000
00010000
00000000
10000000
00000000
00100000
00000000
10000000
00000000
11000000
00000000
00000000
00000000
,
01000000
00100000
00010000
00100000
00001000
00000000
00010000
00001000
,
00010000
00001000
00010000
00000000
00000100
00000000
00001000
00000000
00000010
00000000
00000100
00000000
00000010
00000000
00000100
00000001
,
00000100
00000000
00000001
00000000
00001000
00000000
00000000
00000000
00000001
00000000
00001000
00000000
00000001
00000010
00000100
00001000
,
00000001
00000100
00000001
00000100
00000010
00001000
00000010
00000000
,
00000000
00010010
00010000
00001000
,
01000000
00100000
00010000
00100000
10000000
01000000
00010000
01000000
,
00100000
00010000
01000000
00001000
00010000
00000000
00011000
00000000
,
00001000
00000000
00010000
00000000
00000100
00001000
00000100
00000000
00001000
00000000
00000001
00000000
00000100
00000000
00000000
00000000
,
00000001
00000100
00000001
00000000
00000100
00000000
00001000
00000000
00000100
00000000
00000000
00000000
00000010
00000000
00001000
00000000
,
00000001
00000100
00001000
00010000
00001000
00010000
00100000
10000000
,
00010000
01000000
00100000
00001000
00100000
01000000
00010000
00100000
,
00001000
00010000
00000100
00001000
00000001
00000010
00001000
00000010
,
00000001
00001000
00000010
00000100
,
00000001
00001000
00000010
00010000
,
00001000
00000000
01000000
00000000
00100000
00000000
10000000
00010000
,
00000000
00000000
10000000
00000000
00000000
00100000
00000000
00000000
01000000
00000000
00000000
00010000
00000000
00000000
00100000
00000000
,
00000000
00000000
00001000
00000000
00000000
00010000
00000000
00000000
00100000
00000000
00000000
00010000
00000000
00000000
00001000
00000000
,
00000000
00000000
00010000
00000000
00000000
00001000
00000000
00000000
00000010
00000000
00000000
00001000
00000000
00000000
00010000
00000000
,
00000000
00000000
00000010
00000000
00000000
00000100
00000000
00000000
00000001
00000000
00000000
00001000
00000000
00000000
00000100
00000000
,
00000000
00000010
00000001
00001000
,
00000001
00000101
00000100
00000110
,
00000010
00001010
00001000
00001100
,
00000100
00000000
00010000
00000000
00001000
00010000
00000000
00001000
,
00100000
00000000
00010000
00100000
00000000
00010000
01000000
00100000
,
10000000
01000000
00100000
00010000
01000000
00100000
01000000
00001000
,
00010000
00001000
00010000
00000000
00000100
00001000
00000100
00000000
00001000
00000010
00000100
00000000
00000001
00001000
00000010
00000000
,
00010000
00000000
00000000
00000000
,
00001000
00000000
00000000
00000000
,
01000000
00100000
00000000
10000000
00000000
00010000
10000000
00000000
,
10100000
00000000
00100000
01000000
00000000
10000000
01000000
00100000
,
10000000
00000000
00010000
01000000
00001000
00010000
00100000
00010000
,
00001000
00010000
00000100
00000010
00000100
00010000
00001000
00010000
,
00000100
00001000
00000000
00000001
00000000
00001000
00000010
00000000
,
00000110
00000000
00000100
00001000
00000000
00010000
00001000
00000100
,
00000010
00010000
00000100
00001000
00000001
00000010
00000100
00001000
,
00000010
00000000
00000000
00001000
00000000
00000000
00000001
00000000
00001000
00000000
00000100
00000000
00000010
00000000
00000100
00000000
,
00010000
00000000
00001000
00000000
00000000
00000000
00010000
00000000
00000000
00000000
00001000
00010000
00001000
00010000
00001000
00000000
,
01000000
00000000
00010000
00100000
01000000
10000000
00010000
00000000
10000000
01000000
00100000
00010000
10000000
00000000
00010000
00000000
,
01000000
00000000
00000000
00000000
00000000
00000000
00000000
00000000
00100000
10000000
00010000
00000000
10000000
00100000
10000000
00000000
,
00010000
00000000
01000000
00001000
01000000
00001000
01000000
00000000
00001000
00010000
00001000
00010000
00002000
00000000
00000000
00000000
,
00013000
00000000
00000010
00000000
00000100
00000000
00000001
00000000
00000000
00000000
00001000
00000100
00000010
00000100
00001000
00000000
,
00000001
00000000
00000100
00000010
00000100
00000001
00000100
00000000
00000001
00000010
00000100
00001000
00000001
00000000
00002000
00000000
,
00000000
00003100
00000010
00000001
00000100
00001000
00000100
00000010
,
00000000
00000000
00001000
00000100
00001000
00000100
00001000
00000000
00000100
00010000
00000100
00010000
00001000
00000000
00000000
00000000
,
00010000
00001000
01000000
00100000
,
10000000
00010000
10000000
00100000
,
10000000
00010000
10000000
00100000
,
10000000
01000000
00100000
00010000
,
10000000
00000000
00100000
00000000
01000000
00000000
00001000
00000000
00010000
00000000
00000100
00000000
00001000
00000000
00000001
00000100
,
00000010
00000000
00000100
00000000
00000001
00000000
00001000
00000000
00000100
00000000
00010000
00000000
00001000
00000000
01000000
00100000
,
01000000
00000000
00010000
00000000
10000000
00000000
01000000
00000000
00100000
00000000
00010000
00000000
00100000
00000000
01000000
10000000
,
00010000
01000000
00100000
10000000
00010000
00100000
01000000
10000000
,
00010000
00000000
01000000
00000000
10000000
00000000
01000000
00000000
00100000
00000000
10000000
00000000
00010000
00000000
01000000
00001000
,
01000000
00000000
00001000
00000000
00010000
00000000
00000010
00000000
00010000
00000000
00000100
00000000
00001000
00000000
00000010
00000100
,
00000001
00000000
00000100
00000000
00000010
00000000
00001000
00000000
00000001
00001000
00000001
00001000
00000010
00000100
00000010
00000100
,
00000001
00000100
00000010
00001000
00000100
00010000
00001000
00100000
,
00010000
00000000
10000000
00000000
00010000
00000000
01000000
00100000
01000000
00000000
00000000
00010000
00000000
00000000
10000000
00000000
,
00000000
00000000
00001000
00000000
00010000
00000000
00000100
00000000
00001000
00000000
00000000
00000010
00000000
00000000
00000100
00000001
,
00001000
00000001
00000010
00001000
00000010
00000100
00001000
00000001
,
00001000
00000100
00010000
00100000
00010000
00001000
01000000
00100000
,
00010000
00000000
00100000
00000000
01000000
00000000
00000000
00000000
00010000
01000000
00010000
00000000
10000000
00000000
00010000
00000000
,
01000000
00000000
00001000
00000000
00010000
00000000
00000000
00000000
00001000
00000100
00001000
00000000
00000010
00000000
00000100
00000000
,
00000001
00000000
00000000
00000000
00001000
00000000
00000000
00000000
00000010
00000000
00010000
00000000
00001000
00100000
00001000
00010000
,
00001000
00010000
00001000
00010000
,
00011000
00000000
00000000
00000000
;
