#TITLE:Feel Good Time;
#SUBTITLE:;
#ARTIST:Pink;
#TITLETRANSLIT:;
#SUBTITLETRANSLIT:;
#ARTISTTRANSLIT:;
#GENRE:;
#CREDIT:;
#MUSIC:Feel Good Time.ogg;
#BANNER:;
#BACKGROUND:;
#CDTITLE:;
#SAMPLESTART:68.213;
#SAMPLELENGTH:12.000;
#SELECTABLE:YES;
#OFFSET:-0.255;
#BPMS:0.000=138.320
,90.000=138.317
;
#STOPS:;
#BGCHANGES:;
#FGCHANGES:;

//--------------- dance-single - ----------------
#NOTES:
     dance-single:
     :
     Beginner:
     2:
     0.177,0.257,0.276,0.031,0:
0000
0000
0000
0000
,
0000
0000
0000
0000
,
1000
0000
0000
0001
,
0000
0000
0000
0000
,
0100
0000
0000
0010
,
0000
0000
0000
0000
,
1001
0000
0110
0000
,
1001
0000
0110
0000
,
0100
0100
0100
0000
,
0001
0001
0000
0100
,
0100
0000
0010
0000
,
1000
0000
0001
0001
,
0001
0000
1000
0000
,
0100
0000
0010
0010
,
0010
0000
0001
0000
,
0100
0000
0010
0000
,
1000
0000
0001
0000
,
1000
0000
0100
0100
,
0100
0000
0010
0000
,
0001
0000
0100
0100
,
0100
0000
0010
0000
,
1000
0000
0100
0100
,
0100
0000
0010
0000
,
0001
0000
1000
0000
,
1001
0000
0000
0110
,
0000
0000
0000
0000
,
1001
0000
0000
0110
,
0000
0000
0100
0000
,
1001
0000
0000
1001
,
0000
0000
1000
0000
,
1001
0000
0000
0110
,
0000
0000
0010
0000
,
1001
0000
0000
0110
,
0000
0000
0100
0000
,
1001
0000
0000
0110
,
0000
0000
0000
0000
,
2002
0000
0000
0000
,
0000
0000
0000
0000
,
3003
0000
0000
0000
,
0000
0000
0000
0000
,
1000
0000
0001
0000
,
1000
0000
0100
0000
,
1001
0000
0110
0000
,
1001
0000
0110
0000
,
0001
0001
0001
0000
,
1000
1000
0000
0100
,
0100
0000
0000
1001
,
0000
0000
0100
0100
,
0100
0000
0010
0000
,
0001
0000
0100
0100
,
0100
0000
0000
0000
,
0000
0000
1000
1000
,
1000
0000
0000
0001
,
0000
0000
0100
0100
,
0100
0000
0000
1001
,
0000
0000
0100
0100
,
0100
0000
0000
0010
,
0000
0000
0001
0001
,
0001
0000
0000
1000
,
0000
0000
0001
0000
,
1001
0000
0000
0110
,
0000
0000
0001
0000
,
1001
0000
0000
0110
,
0000
0000
1000
0000
,
1001
0000
0000
1001
,
0000
0000
0000
0000
,
0110
0000
0000
0110
,
0000
0000
0010
0000
,
1001
0000
0000
0110
,
0000
0000
1000
0000
,
1001
0000
0000
0110
,
0000
0000
0000
0000
,
2002
0000
0000
0000
,
0000
0000
0000
0000
,
0000
0000
3003
0000
;

//--------------- dance-single - ----------------
#NOTES:
     dance-single:
     :
     Easy:
     4:
     0.268,0.315,0.107,0.299,0:
0000
0000
0000
0000
,
0000
0000
0000
0000
,
1000
0100
1000
0001
,
1000
0001
0000
0000
,
0100
0000
0100
0000
,
1000
0000
0001
0000
,
1001
0000
0110
0000
,
1001
0000
0110
0000
,
1000
0100
1000
0100
,
0010
0100
0010
0001
,
0010
0001
0020
0000
,
0000
0000
0000
0030
0100
0000
1000
0000
,
0100
0010
0001
0001
,
0010
0100
1000
0001
,
0100
0001
1000
0000
,
1000
0000
1000
0100
,
0010
0001
0010
0100
,
1000
0001
0100
0001
,
1000
0100
0020
0000
,
0000
0000
0031
1000
,
0100
0010
0001
0010
,
0100
1000
0001
0010
,
0100
1000
0002
0000
,
0000
0000
1003
0000
,
1000
0000
0000
1000
0000
0000
1000
0000
,
0000
1000
0000
0000
0000
0000
0000
0000
,
1001
0000
0000
0001
0000
0000
0001
0000
,
0000
0001
0000
0000
0000
0000
0000
0000
,
0110
0000
0000
0110
0000
0000
0110
0000
,
0000
0110
0000
0000
0000
0000
0000
0000
,
1000
0000
0000
0100
0000
0000
0001
0000
,
0000
0100
0000
0000
0000
0000
0000
0000
,
1001
0000
0000
0010
0000
0000
0001
0000
,
0000
0010
0000
0000
0000
0000
0000
0000
,
1001
0000
0000
1000
0000
0000
0100
0000
,
0000
1000
0000
0000
0000
0000
0000
0000
,
2002
0000
0000
0000
,
0000
0000
0000
0000
,
3003
1000
1000
1000
,
1000
0000
0000
0000
,
1000
0001
0100
0001
,
1000
0100
0010
0001
,
1000
0000
1000
0000
,
1000
0000
1000
0000
,
1000
0100
0010
0001
,
0100
0001
0100
0001
,
0002
0000
0000
2003
0000
0000
3200
0000
,
0000
0320
0000
0000
0031
0000
1000
0000
,
0100
0010
0001
1000
,
0100
0100
0010
0001
,
2000
0000
0000
3200
0000
0000
0320
0000
,
0000
0032
0000
0000
1003
0000
0100
0000
,
0010
0010
0010
0001
,
0001
0001
2000
3001
,
0200
0000
0310
0000
0001
0000
0100
1000
,
0000
0100
1000
0000
0001
0000
1000
0000
,
2000
0000
0100
0000
0100
3000
0002
0000
,
0100
0103
1000
0100
,
0010
0001
1001
0000
,
1000
0000
1001
0000
,
1000
0000
0000
0100
0000
0000
1000
0000
,
0000
0100
0000
0000
0001
0000
0000
0000
,
0002
0000
0003
0200
0000
0300
2000
0000
,
0000
3200
0000
0000
0300
0000
0000
0000
,
0002
0000
0000
2003
0000
0000
3002
0000
,
0000
0203
0000
0000
0300
0000
0000
0000
,
0200
0000
0000
0320
0000
0000
0230
0000
,
0000
2300
0000
0000
3000
0000
0000
0000
,
0002
0000
0000
2003
0000
0000
3200
0000
,
0000
0320
0000
0000
0030
0000
0000
0000
,
0002
0000
0000
2003
0000
0000
3200
0000
,
0000
0302
0000
0000
0003
0000
0000
0000
,
2000
0000
0000
0000
,
3200
0000
0000
0000
,
03M0
M000
0M00
00M0
;

//--------------- dance-single - ----------------
#NOTES:
     dance-single:
     :
     Medium:
     5:
     0.358,0.373,0.077,0.115,0:
0000
0000
0000
0001
,
1000
0001
0010
0100
,
1000
0001
0010
0100
,
1000
0001
1000
0100
,
0002
0000
0000
2003
0000
0000
3200
0000
,
0000
0310
0000
0000
0001
0000
1000
0000
,
0001
0100
0001
0000
0100
1000
0100
0000
,
0100
0010
0100
0000
0001
0010
0001
0000
,
1000
0000
0100
1000
0100
0000
0001
0000
,
0001
1000
0001
0000
0100
0000
0010
0000
,
0001
1000
2002
0000
,
0000
0000
3003
0000
0001
1000
0001
0000
,
0100
0000
0010
0001
0010
0000
0100
0000
,
1000
0100
1000
0000
0001
0000
1000
0000
,
0001
0000
2002
0000
0000
0000
0000
3003
,
0001
1000
0001
1000
,
0100
0010
0001
0000
0100
0000
0001
0010
,
0100
1000
0100
0010
,
0001
1000
0200
0300
,
0001
1000
0100
0010
,
0001
0001
1001
1000
,
1000
1001
0100
0010
,
0001
0010
0001
0000
0011
0000
0001
0000
,
1001
0000
0100
0000
,
1000
0100
0000
1000
0100
0000
1000
0100
,
0000
1000
0100
0000
0001
0000
1000
0000
,
0001
0100
0000
0001
0100
0000
0001
0100
,
0000
0001
0100
0000
0001
0000
1000
0000
,
0100
0010
0000
0100
0010
0000
0100
0010
,
0000
0100
0010
0000
0000
0001
1000
0000
,
0001
1000
0000
0001
1000
0000
0001
1000
,
0000
0001
1000
0000
0100
0000
0010
0000
,
0100
0010
0000
0100
0010
0000
0100
0010
,
0000
0100
0010
0000
0001
0000
1000
0000
,
0001
1000
0000
0001
1000
0000
0001
1000
,
0000
0001
1000
0000
0100
0000
1000
0000
,
2000
0000
0000
0000
,
0000
0000
0000
0100
,
3100
0100
1000
0100
,
1000
0100
1000
0100
,
1000
0000
0100
1000
0100
0000
0001
0000
,
1000
0001
1000
0000
0100
0000
0010
0000
,
0002
0000
0000
0003
2000
0000
0000
0000
,
3200
0000
0000
0000
0320
0000
0000
0030
,
0001
0000
1000
0100
0010
0000
0001
0000
,
0001
0010
0100
0000
1000
0000
0100
0000
,
0010
0000
0000
0001
0000
0000
1000
0000
,
0000
0100
0000
0000
0010
0001
0010
0000
,
0100
1000
0001
0010
,
0100
0000
1000
0000
0001
1000
0001
0000
,
0100
0010
0100
0000
0000
0000
0100
1000
,
0000
0100
1000
0000
0001
0000
1000
0000
,
0100
0010
0100
0000
0001
0000
0100
1000
,
0100
0001
0100
0010
,
0001
1000
0001
0000
1100
0000
0001
1000
,
0000
0001
1000
0000
0100
0000
0000
0000
,
0100
1000
0100
0010
,
0001
0010
0100
1000
,
0001
1000
0001
0000
1001
0000
0001
0000
,
1000
0001
1001
0000
,
1000
0100
0000
0100
1000
0000
1000
0100
,
0000
0100
1000
0000
0000
0000
0000
0000
,
1001
0000
0000
0100
0001
0000
0001
0100
,
0000
0100
0001
0000
0000
0000
0000
0000
,
0001
0010
0000
0010
0100
0000
0100
0010
,
0000
0010
0100
0000
0000
0000
0000
0000
,
1000
0001
0000
0001
0100
0000
0100
0001
,
0000
0001
1000
0000
0000
0000
0000
0000
,
1000
0100
0000
0010
0001
0000
0001
0010
,
0000
0010
0100
0000
0000
0000
0000
0000
,
1000
0100
0000
0100
0010
0000
0010
0001
,
0000
0001
0010
0000
0100
0000
1000
0000
,
0200
0000
0000
2300
,
0000
0000
0000
0100
,
3100
00M0
0000
0M00
0000
00M0
0000
000M
;

//--------------- dance-single - SJ JA ----------------
#NOTES:
     dance-single:
     SJ JA:
     Hard:
     11:
     0.489,0.488,0.069,0.146,0:
0000
0000
0000
0000
,
0000
0000
0000
0000
,
1000
0100
1000
0100
1000
0000
0001
0100
,
0001
0100
0001
0000
1000
0100
1000
0100
,
1000
0100
0000
0100
0010
0000
0010
0001
,
0000
0001
0010
0000
0100
1000
0010
1000
,
0001
0010
0011
0000
0001
0100
0101
0000
,
0010
1000
1010
0000
0100
0010
0110
0000
,
1000
0100
0010
0001
1000
0000
1000
0100
,
0010
0100
1000
0000
0001
0010
0100
1000
,
0010
1000
0100
0010
0002
0000
0013
0020
,
0000
0130
0200
0000
1300
0100
1000
0001
,
0001
1000
0001
0100
0002
0000
1003
0100
,
0010
0100
2000
0000
3100
0010
0100
1000
,
0001
1000
0100
0010
0002
0000
1003
0200
,
0000
0310
0002
0000
0103
0010
1000
0010
,
1000
0010
0100
0001
0100
0000
0001
1000
,
0100
0010
0001
0000
0001
1000
0100
1000
,
0001
1000
0100
0010
0001
0000
0001
0010
,
0000
0010
0001
0000
0001
0010
0010
0100
,
1000
0100
0010
0001
0010
0000
0100
1000
,
0010
0100
0010
0000
0010
1000
0001
0010
,
0001
0010
0002
0000
0203
0000
0302
0000
,
2003
0000
3100
0000
1000
0001
0000
1000
,
0002
0100
0000
0103
0010
0000
0010
1000
,
0000
1000
0100
0000
0010
0001
0000
0001
,
0020
0100
0000
0130
1000
0000
1000
0100
,
0000
1000
0100
0000
0010
0001
0000
0010
,
0200
1000
0000
1300
0010
0000
0010
1000
,
0000
1000
0100
0000
0010
0001
0000
1000
,
0002
0010
0000
0013
0100
0000
0100
0010
,
0000
0010
0001
0000
0001
0010
0001
1000
,
0002
0100
0000
1003
0001
0000
0010
0100
,
0000
0100
1000
0000
1000
0001
0000
1000
,
2000
0001
0000
3001
0100
0000
0100
0001
,
0000
0001
0100
0000
0001
0100
0010
1000
,
0002
0000
0000
0000
,
0000
0000
0000
0000
,
0003
0M00
0000
00M0
0000
0M00
0000
00M0
,
0000
0000
1000
0001
1000
0001
0100
0001
,
1000
0001
0010
0100
2000
0000
3010
0100
,
0001
0100
0010
0000
1000
0010
0100
0001
,
1000
0100
1100
0000
0010
0001
0011
0000
,
1000
0001
1001
0000
0100
0010
1010
0000
,
0001
0010
0100
1000
0100
0000
1000
0001
,
0100
0001
0010
0000
0010
0001
1000
0010
,
0100
0001
0000
0001
1000
0000
1000
0100
,
0000
0100
0010
0000
0001
0100
0001
0100
,
0010
1000
0010
1000
0100
0000
1000
0001
,
0100
0010
1000
0000
0010
0100
0001
0100
,
0010
1000
0000
1000
0100
0000
0100
0010
,
0000
0010
0001
0001
0100
0100
0001
0001
,
1000
0001
0100
0001
0010
0000
0010
0001
,
0100
0010
0100
0000
0010
1000
0010
0100
,
0001
0100
0001
0100
0010
0000
0010
1000
,
0000
0001
0001
0000
0010
0001
0010
0100
,
1000
0010
1000
0001
0010
0000
0100
1000
,
0100
0010
0010
0000
0010
0001
0010
0100
,
1000
0001
0000
0001
1000
0000
1000
0001
,
0000
0001
1000
0000
1000
0100
0010
0002
,
0010
0023
0000
0001
0032
0000
1000
2003
,
0000
0100
3100
0000
1000
0010
0100
0001
,
1000
0002
0000
0100
0203
0000
0010
0320
,
0000
0100
0130
0000
0001
1000
0100
0010
,
0001
0100
0000
0100
1000
0000
1000
0100
,
0000
0100
0001
0000
0001
0010
0100
1000
,
0001
0100
0000
0100
0010
0000
0010
1000
,
0000
1000
0001
0000
0001
0010
0000
1000
,
0010
0001
0000
0001
0010
0000
0010
1000
,
0000
1000
0001
0000
1000
0010
1000
0001
,
0010
0100
0000
1000
0100
0000
0010
0001
,
0000
0010
0001
0100
0010
0100
0001
1000
,
0002
0000
0000
0000
,
0000
0000
0000
0000
,
0003
0M00
0000
00M0
0000
0M00
0000
00M0
;

//--------------- dance-single - XO+ MA- ----------------
#NOTES:
     dance-single:
     XO+ MA-:
     Challenge:
     14:
     0.607,0.689,0.238,0.238,0.234:
0000
0000
0000
0000
,
0000
0000
0000
0000
,
0001
0100
0001
1000
0100
0000
0100
0010
,
0100
0010
0001
0000
0001
1000
0001
0010
,
0100
2000
0000
3100
0020
0000
0130
2000
,
0000
3001
0020
0000
0130
1000
0010
1000
,
0100
1000
0100
1000
0100
0000
0000
0000
0010
0001
0010
0001
0010
0000
0000
0000
,
0001
1000
0001
1000
0001
0000
0000
0000
0100
0010
0100
0010
0100
0000
0000
0000
,
0001
0100
0010
0100
1000
0000
1000
0100
,
0010
0100
0001
0000
1000
0100
0010
0100
,
0001
0100
1000
0010
2000
0000
3010
0020
,
0000
0000
0130
0000
0200
0000
0000
0000
0310
0000
0001
0010
0001
0000
1000
0000
,
1000
0100
0010
0100
0001
0000
0001
0100
,
0010
0100
2000
0000
3001
0100
1000
0100
,
0010
1000
0100
0010
0002
0000
1003
0200
,
0000
0000
0310
0000
0002
0000
0000
0000
0103
0000
0010
0100
0010
0000
0001
1000
,
0001
1000
0001
0100
1000
0000
0100
0001
,
0100
0010
1000
0000
0001
1000
0100
0001
,
0100
1000
0100
0010
0002
0000
1003
0200
,
0000
0000
0310
0000
0002
0000
0000
0000
0103
0000
0001
1000
0001
0000
0100
0000
,
0001
0010
1000
0010
0001
0000
1000
0010
,
0001
0010
1000
0000
0001
0100
1000
0100
,
0010
1000
0002
0000
0203
0000
0302
0000
,
2003
0000
3100
0000
1000
0001
0000
2000
,
0001
0001
0000
0100
0100
0000
0010
0010
,
0000
0000
0100
0000
3100
0000
0000
0000
0001
0000
1000
0100
1000
0000
0001
0010
,
0001
0100
0000
0100
1000
0000
1000
0100
,
0000
0000
0100
0000
0001
0000
0000
0000
0001
0000
1000
0100
0010
0000
0001
0010
,
0100
1000
0000
1000
0010
0000
0010
1000
,
0000
0000
1000
0000
0100
0000
0000
0000
0010
0000
0001
1000
0001
0000
1000
0001
,
1000
0010
0000
0010
0100
0000
0100
0010
,
0000
0000
0010
0000
1000
0000
0000
0000
0001
0010
0100
1000
0100
0010
0001
0010
,
0100
1000
0000
0100
0001
0000
0001
0100
,
0000
0000
0100
0000
1000
0000
0000
0000
0001
0000
1000
0100
1000
0000
0001
0100
,
0001
1000
0000
1000
0010
0000
0010
1000
,
0000
0000
1000
0000
0100
0000
0000
0000
1000
0000
0100
0010
0100
0000
1000
0000
,
0002
0000
0000
0000
,
0000
0000
0000
0000
,
0003
0M00
0000
00M0
0000
0M00
0000
M000
,
0001
0010
0001
0100
0010
1000
0100
1000
0001
0010
0001
0100
0010
1000
0100
1000
,
0001
1000
0010
0100
0002
0000
0013
0100
,
1000
0100
0010
0000
0001
0010
0100
1000
,
0010
1000
0010
1000
0010
0000
0000
0000
1000
0100
1000
0100
1000
0000
0000
0000
,
0001
1000
0001
1000
0001
0000
0000
0000
1000
0100
1000
0100
1000
0000
0000
0000
,
0001
0100
1000
0100
0020
0000
1030
0100
,
0001
0100
0010
0000
0010
0001
1000
0010
,
1010
1000
0000
1010
1000
0000
1100
0100
,
0000
0000
0110
0000
0010
0000
0000
0000
0001
0000
1000
0100
1000
0000
0100
0000
,
1000
0100
0001
0100
1000
0000
0001
0100
,
1000
0100
0010
0000
1000
0001
1000
0001
,
1001
1000
0000
1100
0100
0000
0011
0001
,
0000
0000
0010
0000
0001
1000
0001
1000
0010
0100
0001
0010
0001
1000
0001
1000
,
0001
0100
1000
0100
0010
0000
1000
0100
,
0001
0000
0100
0000
1000
0000
0000
0000
0010
0000
1000
0010
1000
0000
0010
0000
,
1010
1000
0000
1100
0100
0000
0011
0001
,
0000
0000
1001
0000
1000
0000
0000
0000
0010
0000
1000
0010
1000
0000
0010
0000
,
1000
0100
0010
0100
0001
0000
0001
0100
,
1000
0000
0001
0000
1000
0000
0000
0000
0010
0000
1000
0001
0100
0000
0010
0000
,
1000
1100
0000
0011
0001
0000
1001
1000
,
0000
0011
0001
0000
0001
0100
0010
1000
,
1010
0010
0000
0110
0100
0000
0101
0001
,
0000
0000
1001
0000
0001
0000
0000
0000
1000
0000
0100
0010
0001
0000
1000
0000
,
0001
0002
0000
0100
0203
0000
0010
0320
,
0000
0000
0100
0000
0130
0000
0000
0000
1000
0000
0001
0100
0001
0000
1000
0000
,
0001
2000
0000
0100
0100
0000
0010
0010
,
0000
0000
0001
0000
3001
0000
0000
0000
1000
0000
0001
0100
0001
0000
1000
0000
,
0010
0010
0000
0100
0100
0000
0001
0001
,
0000
0000
1000
0000
1000
0000
0000
0000
0001
0100
0001
0100
0010
0000
1000
0000
,
0001
0002
0000
1003
2000
0000
3010
0020
,
0000
0000
0130
0000
0101
0000
0000
0000
0001
1000
0010
0000
1000
0000
0001
0000
,
1000
1001
0000
1000
1001
0000
0001
1001
,
0000
0000
1000
0000
0001
0100
0001
0100
0010
1000
0100
1000
0001
0010
0100
1000
,
0002
0000
0000
0000
,
0000
0000
0000
0000
,
0003
0M00
0000
00M0
0000
0M00
0000
00M0
;
