#TITLE:Escape Velocity;
#SUBTITLE:;
#ARTIST:Braeden (FSF);
#TITLETRANSLIT:;
#SUBTITLETRANSLIT:;
#ARTISTTRANSLIT:;
#GENRE:;
#CREDIT:;
#MUSIC:Escape Velocity.ogg;
#BANNER:Escape Velocity ban.png;
#BACKGROUND:Escape Velocity bg.png;
#CDTITLE:;
#SAMPLESTART:68.213;
#SAMPLELENGTH:12.000;
#SELECTABLE:YES;
#OFFSET:-0.030;
#BPMS:0.000=52.500
,12.000=105.000
,59.000=103.000
,60.000=209.000
,62.000=210.000
,116.000=105.001
,120.000=115.001
,124.000=125.001
,128.000=135.001
,132.000=145.001
,136.000=155.001
,140.000=165.001
,144.000=175.001
,148.000=185.001
,152.000=195.001
,156.000=205.001
,160.000=215.001
,164.000=225.001
,168.000=235.001
,172.000=245.001
,176.000=265.001
,180.000=285.001
,184.000=305.001
,188.000=325.000
,192.000=345.000
,196.000=210.001
,236.000=105.001
;
#STOPS:0.000=0.571
,0.500=0.571
,1.000=0.571
,1.500=0.571
,2.000=0.571
,2.500=0.571
,3.000=0.571
,3.500=0.571
;
#MENUCOLOR:;
#LISTSORT:;
#TICKCOUNT:0.000=2;
#BGCHANGES:;
#FGCHANGES:;

//--------------- dance-single - ----------------
#NOTES:
     dance-single:
     :
     Beginner:
     4:
     0.173,0.2,0.026,0.017,0:
0000
0000
0000
0000
,
0001
1000
0010
0100
,
0001
1000
0010
0100
,
0001
0000
1000
0000
,
0001
0000
0100
0000
,
0010
0000
1000
0000
,
0100
0000
0010
0000
,
0001
0000
1000
0000
,
0001
0000
0100
0000
,
0010
0000
1000
0000
,
0001
0000
0010
0000
,
0001
0001
0001
0000
,
0100
0100
0100
0000
,
0010
0010
0010
0000
,
0100
0100
0100
0000
,
1001
0000
1000
0000
,
0001
0000
0100
0000
,
0010
0000
1000
0000
,
0100
0000
0010
0000
,
0001
0000
0100
0000
,
0001
0000
0010
0000
,
0001
0000
0100
0000
,
0001
0000
0010
0000
,
0100
0000
1000
0000
,
0001
0000
0100
0000
,
0010
0000
1000
0000
,
0100
0000
1000
0000
,
0001
0000
0100
0000
,
0010
0000
0100
0000
,
0010
0000
1000
0000
,
0001
0000
1000
0000
,
0100
0000
0010
0000
,
0001
0000
0100
0000
,
0010
0000
1000
0000
,
0001
0000
0100
0000
,
0001
0000
0100
0000
,
0010
0000
0100
0000
,
0001
0000
1000
0000
,
0001
0000
1000
0000
,
0010
0000
0100
0000
,
0010
0000
0100
0000
,
0001
0000
1000
0000
,
0010
0000
1000
0000
,
0001
0000
0100
0000
,
0001
0000
0010
0000
,
0001
0000
0000
0000
,
1000
0000
0000
0000
,
0001
0000
0000
0000
,
1000
0000
0000
0000
,
1001
0000
0001
0000
,
0100
0000
0010
0000
,
1000
0000
0001
0000
,
0010
0000
0100
0000
,
0010
0000
0100
0000
,
1000
0000
0001
0000
,
0100
0000
0001
0000
,
0010
0000
0100
0000
,
0010
0000
0001
0000
,
0100
0000
0010
0000
,
1000
0000
0001
0000
,
0100
0000
0010
0000
,
0100
0000
0001
0000
,
1000
0000
0010
0000
,
0100
0000
0001
0000
,
0010
0000
0100
0000
,
0010
0000
0001
0000
,
0100
0000
1000
0000
;

//--------------- dance-single - ----------------
#NOTES:
     dance-single:
     :
     Easy:
     7:
     0.365,0.6,0.077,0.366,0:
0000
0000
0000
0000
,
2000
3002
0203
0320
,
2030
3200
0320
0032
,
2M03
3001
2000
3010
,
0200
0301
0020
0031
,
0100
0010
0000
1000
0000
0001
0000
1000
,
0000
0010
0000
0100
0000
0001
0000
1000
,
0002
0000
0203
0000
,
0320
0000
0230
0000
,
0302
1003
0020
0130
,
0001
1000
0001
0000
0100
0010
0100
0000
,
0001
1000
0100
1000
,
0001
0100
0010
1000
,
0100
0010
0001
0010
,
0100
1000
0010
0100
,
M002
0003
2000
3000
,
0020
0030
0200
0300
,
0001
0010
0001
0010
,
0100
1000
0100
1000
,
0001
0100
0010
1000
,
0001
0010
0001
0100
,
0001
0000
0100
0000
,
0010
0000
1000
0000
,
0001
0100
0010
1000
,
0100
0010
0001
0100
,
0010
0000
1000
0000
,
0001
0000
1000
0000
,
0001
0100
0001
0010
,
0001
1000
0010
1000
,
0M01
1000
0001
0100
,
0010
1000
0100
0010
,
0100
0010
0100
1000
,
0001
0100
0010
1000
,
0001
0100
0010
1000
,
0001
0010
0100
1000
,
0001
0100
0010
0100
,
0001
1000
0100
1000
,
0002
0000
2003
0000
,
3020
0000
0230
0000
,
0302
0000
2003
0000
,
3020
0000
2030
0000
,
3001
0010
0001
0000
,
1000
0100
1000
0000
,
0001
1000
0001
0000
,
0100
0010
0100
0000
,
0001
0000
0001
0000
,
1000
0000
1000
0000
,
0010
0000
0010
0000
,
0100
0000
0010
0000
,
1M01
0000
1000
0000
,
0001
0000
0100
0000
,
0010
1000
0100
1000
,
0001
0010
0100
1000
,
0001
0100
0001
0010
,
0001
1000
0100
1000
,
0010
0100
0001
0010
,
0100
1000
0010
0100
,
0001
0000
1000
0000
,
0010
0000
0010
0000
,
M100
0010
1000
0100
,
0010
0100
0010
0100
,
1000
0001
0100
0010
,
1000
0001
0010
0100
,
1000
0001
1000
0010
,
0100
0001
0010
0100
,
1000
0001
0100
0001
,
0010
0001
1000
1001
;

//--------------- dance-single - XMOD ----------------
#NOTES:
     dance-single:
     XMOD:
     Medium:
     12:
     0.589,0.829,0.068,0.392,0.055:
0000
0000
0000
0000
,
0001
1000
0100
0000
0010
0001
0100
0000
0010
1000
0010
0000
0100
0001
0010
0000
,
0100
1000
0100
0000
0010
0001
0100
0000
0010
1000
0010
0000
1000
0001
0010
0000
,
010M
1000
0010
0000
0100
0001
0100
0000
,
0010
1000
0100
0000
0010
0100
1000
0000
,
0010
0100
1000
0100
0010
0001
0100
0010
,
1000
0100
0010
0001
0010
0100
1000
0010
,
0200
0001
0001
0301
2000
0100
0100
3100
,
0020
0001
0001
0031
2000
0100
0100
3100
,
1000
0010
1000
0010
0100
0001
0100
0010
,
1000
0100
0010
0001
0010
0100
1000
0010
,
0100
0001
0100
0010
1000
0100
0010
0001
,
1000
0010
1000
0001
0100
0001
1000
0100
,
1000
0001
0010
0001
0100
0010
1000
0010
,
0100
0001
0010
0100
1000
0100
0010
0001
,
M200
0310
2001
3001
,
2001
3100
0012
1003
,
0001
1000
0001
0000
0010
0001
0010
0000
,
0100
1000
0100
0000
1000
0010
0100
0000
,
0001
0100
0001
0000
0100
0001
0100
0000
,
0010
1000
0010
0000
1000
0010
1000
0000
,
0001
1000
0010
0100
,
0001
0100
0010
1000
,
0001
0010
0001
0100
0010
1000
0010
0100
,
0001
0010
0100
1000
0001
0100
0010
1000
,
0001
0010
0001
0000
1000
0010
1000
0000
,
0001
0010
0001
0000
1000
0100
1000
0000
,
0001
0010
0100
1000
,
0001
0100
0001
0000
1000
0100
1000
0001
,
1M00
0010
0100
0001
0100
0010
1000
0100
,
0010
0001
0010
0100
1000
0010
0100
0001
,
0100
0010
1000
0100
1000
0001
0010
0001
,
1000
0010
0100
0001
0100
0010
1000
0001
,
1000
0010
0100
0001
0100
0010
1000
0100
,
0010
0001
0010
0100
1000
0010
0100
0001
,
0100
0010
1000
0000
0100
0010
0001
0000
,
0010
0100
1000
0000
0010
0100
0001
0000
,
1000
0100
0010
0000
0001
0010
0100
0000
,
1000
0010
1000
0000
0010
0100
0010
0000
,
0100
0001
0100
0000
0010
0100
0010
0000
,
1000
0001
1000
0000
0001
0010
0100
0000
,
1000
0010
0100
0001
,
1000
0100
0010
0100
,
1000
0001
1000
0001
,
0010
0100
0010
0100
,
1000
0010
1000
0010
,
0100
0001
0100
0001
,
1000
0100
1000
0010
,
1000
0100
0010
0001
,
1M00
0001
1000
0001
,
1000
0100
1000
0010
,
1000
0001
1000
0000
0100
0010
0100
0000
,
1000
0010
0100
0000
0001
0010
0100
0000
,
1000
0010
0100
0001
0010
0100
1000
0001
,
0100
0010
0100
0001
1000
0100
0010
0001
,
1000
0010
0100
0001
1000
0010
1000
0100
,
0010
0001
1000
0010
0100
0001
1000
0100
,
1000
0001
1000
0000
0100
0010
0100
0000
,
1000
0001
1000
0000
0001
0010
0100
0000
,
10M0
0100
1000
0000
0100
0000
0010
0000
0001
0000
0010
0000
0100
0000
1000
0000
,
0010
0100
0001
0000
0010
0000
0100
0000
1000
0000
0100
0000
0010
0000
0001
0000
,
0100
0010
1000
0000
0100
0000
0010
0000
0001
0000
0010
0000
0100
0000
1000
0000
,
0010
0100
0001
0000
0010
0000
0100
0000
1000
0000
0001
0000
0010
0000
0001
0000
,
0100
0010
1000
0100
0010
0001
0010
0100
,
1000
0010
0100
0001
0010
0100
1000
0010
,
1000
1000
0010
0010
0100
0100
0001
0001
,
0010
0000
0100
0000
1000
0000
0100
0000
0010
0000
0001
0000
1000
0001
0010
0000
;

//--------------- dance-single - XMOD XO+ JA ----------------
#NOTES:
     dance-single:
     XMOD XO+ JA:
     Hard:
     15:
     0.783,0.943,0.111,0.392,0.426:
0000
0000
0000
0000
,
1000
0001
0100
0000
0010
1000
0100
0000
0010
0001
0010
0000
0100
1000
0010
0000
,
0100
0001
0100
0000
0010
1000
0100
0000
0010
0001
0010
0000
0100
1000
0010
0000
,
010M
0010
0100
0000
0010
1000
0100
0000
,
0010
0001
0100
0000
0010
0100
0001
0000
,
1000
0010
0100
0010
0001
0010
1000
0001
,
1000
0100
0010
0100
0001
0100
0010
0001
,
2010
0010
0010
3010
0120
0100
0100
0130
,
0201
0001
0001
0301
1002
1000
1000
1000
,
1003
0100
0010
0000
0001
0010
0100
0000
1000
0010
0100
0000
0001
0100
0010
0000
,
1000
0100
0010
0001
0010
0000
0100
1000
0010
0100
0001
0000
0100
0010
1000
0000
,
0001
0100
0010
1000
0001
0010
0100
1000
0001
0100
0001
0010
0001
1000
0100
1000
,
0001
0010
0100
1000
0010
0100
0001
1000
0100
0010
0001
0100
0010
1000
0001
0010
,
0100
1000
0100
1000
0001
0100
0010
1000
0001
0010
0001
0010
0100
1000
0010
0100
,
0001
0010
0100
1000
0010
0100
0001
1000
0100
0010
0001
1000
0001
1000
0010
1000
,
0M01
1000
0010
0100
0001
0100
0010
1000
,
0100
0010
0001
0010
0100
1000
0010
0100
,
0001
0010
2000
0000
3001
0100
2000
0000
,
3001
0010
2000
0000
3010
0100
2000
0000
,
3010
0100
0002
0000
0103
0010
2000
0000
,
3001
0100
0020
0000
1030
0100
0020
0000
,
0031
0010
0100
1000
0001
1000
0010
1000
,
0010
1000
0100
0010
0001
0100
0010
1000
,
0001
0100
1000
0100
0010
1000
0010
0001
,
0010
0100
0001
0100
1000
0100
0001
0010
,
0100
1000
0001
0100
0010
1000
0010
0100
,
0001
0010
0100
0010
0001
1000
0100
0010
,
0001
1000
0001
1000
,
0001
1000
0010
0100
0001
0100
0010
0100
,
001M
1000
0100
0001
0100
1000
0010
0001
,
0010
1000
0100
0010
0001
0010
0100
1000
,
0010
0100
0001
0100
0010
1000
0100
0010
,
0001
0010
0100
1000
0010
0100
0001
0100
,
0010
1000
0100
0010
0001
0010
0100
1000
,
0010
0100
0001
0100
0010
1000
0100
0010
,
0001
0010
0100
1000
0010
0100
0001
0100
,
0010
1000
0100
0001
0100
0010
0100
0001
,
0100
1000
0010
0100
0010
0100
0010
1000
,
0001
0010
0100
1000
0010
0100
0001
0100
,
0010
1000
0100
0010
0001
0010
0100
1000
,
0010
0100
0001
0010
0100
1000
0010
0100
,
0001
0010
0100
1000
0100
0010
0001
0100
,
0010
1000
0010
0100
0001
0010
0100
0010
,
0001
1000
0001
0000
0100
0010
0100
0000
,
0001
0010
0100
0000
1000
0100
0010
0000
,
0001
1000
0010
0000
0100
0001
0010
0000
,
0100
1000
0010
0000
0100
0001
0100
0000
,
0001
1000
0001
1000
0001
1000
0001
1000
,
0010
0100
0010
0100
0010
0100
0010
0100
,
M010
0100
0001
1000
0100
0010
0001
1000
,
0100
0010
0001
0010
0100
1000
0010
0100
,
0001
1000
0010
0100
,
0001
0010
0001
0100
0010
1000
0001
1000
,
0001
0100
0010
0100
1000
0100
0010
0100
,
0001
0010
1000
0010
0100
1000
0010
0100
,
0001
1000
0010
0001
0010
1000
0001
0100
,
0001
0100
0010
0001
0010
1000
0010
0100
,
0001
1000
0001
0000
0010
0001
0010
0000
,
1000
0010
0100
0000
0001
1000
0001
0000
,
M010
0001
0010
0100
1000
0010
0100
0001
0010
0100
0010
0001
1000
0100
1000
0001
,
0010
0100
1000
0100
0010
0001
0100
0010
1000
0100
1000
0001
0010
0100
1000
0010
,
0100
0001
0010
0100
1000
0100
0010
0001
0100
0010
0100
0001
1000
0100
1000
0001
,
0100
0001
1000
0100
1000
0001
0100
0001
1000
0010
0100
0001
0100
0010
1000
0100
,
0010
0001
0010
0100
1000
0010
0100
0001
,
0010
0100
1000
0100
0010
0001
0100
0010
,
1000
0010
0100
0000
0001
0010
0100
0000
1000
0100
0010
0000
0001
0100
0010
0000
,
1000
0100
0010
0001
0100
0000
0010
1000
0100
0010
0001
0000
1000
0001
0020
0000
,
0030
0000
0000
0000
;

//--------------- dance-single - XMOD XO+ STR DS ----------------
#NOTES:
     dance-single:
     XMOD XO+ STR DS:
     Challenge:
     18:
     0.861,0.943,0.111,0.119,0.664:
0000
0000
0000
0000
,
1001
0001
0010
0000
1100
1000
0100
0000
0011
0001
0010
0000
1001
1000
0010
0000
,
0101
0001
0100
0000
0011
0001
0100
0000
1010
0010
0100
0000
1001
0001
1000
0000
,
0M01
0010
0100
0000
1000
0100
0010
0000
,
0001
0100
0010
0000
0001
0100
0001
0000
,
1000
0000
0001
0010
0200
0010
0000
0000
1300
0000
0001
1000
0020
0100
0000
0000
,
1030
0000
0100
0010
0002
0010
0000
0000
1003
0000
0001
0100
0010
1000
0000
0000
,
0102
1000
0010
1003
2100
0001
0100
3010
,
0210
0001
0010
0301
1002
1000
0100
1003
,
0100
00M0
0100
0000
0001
0000
0000
0000
0010
0000
0100
0000
1000
0000
0000
0000
0010
0M00
0010
0000
0001
0000
0000
0000
1000
0000
0100
0000
1000
0000
0000
0000
,
0100
00M0
0100
0000
0001
0000
1000
0000
0010
0000
0000
0000
1000
0000
0001
0000
0100
00M0
0100
0000
1000
0000
0000
0000
0100
0000
0010
0000
0001
0000
0000
0000
,
1000
0100
0010
0001
1000
0010
0100
0001
1000
0100
1000
0001
0100
0010
0100
0001
,
1000
0100
0010
0001
1000
0010
0100
0001
0010
0100
1000
0010
0100
0001
0010
0001
,
1000
0100
0010
0001
1000
0010
0100
0001
0010
0100
1000
0010
0100
0001
0010
0001
,
0100
0010
1000
0001
0010
0100
1000
0010
0100
0001
1000
0100
0010
0001
1000
0001
,
0M20
0001
0130
1000
0020
0100
1030
0001
,
2000
0100
3001
0010
0002
1000
0013
0001
,
1000
0100
0002
0000
1003
0010
0002
0000
,
1003
0010
0200
0000
0301
0010
0002
0000
,
1003
0100
0010
0100
0001
0100
0010
0100
,
0001
0100
0010
0100
1000
0100
0010
0100
,
1000
0010
0100
0001
1000
0100
0010
0001
,
1000
0010
0100
0001
1000
0010
1000
0001
,
1000
0010
0100
0001
1000
0100
0010
0001
1000
0010
0100
0001
0010
0100
0010
0001
,
1000
0010
1000
0100
0010
0001
0100
0010
1000
0100
1000
0001
0100
0001
0010
0100
,
1000
0010
1000
0100
0010
0001
0010
0100
,
1000
0010
0100
0010
1000
0001
0100
0010
,
1000
0001
1000
0000
0001
0100
0001
0000
0100
0010
1000
0000
0001
0010
0100
0000
,
1000
0001
0100
0010
1000
0000
0100
0010
0001
0010
0100
0000
1000
0001
1000
0000
,
0M01
0010
1000
0010
0001
0100
1000
0100
,
0001
0100
0010
0100
0001
0010
0001
1000
,
0001
0010
0100
1000
0100
0001
0100
1000
,
0001
0010
0100
1000
0010
0001
0010
1000
,
0001
0010
0001
0100
0001
0010
0001
0100
,
0010
1000
0100
1000
0010
0100
0010
1000
,
0001
0010
0100
1000
0100
0010
0001
1000
,
0001
0100
0010
0100
0001
0010
0001
0100
,
1000
0100
0001
1000
0100
0001
0100
0010
,
0001
0100
0010
1000
0001
0010
1000
0010
,
0100
1000
0001
0100
0010
1000
0010
1000
,
0001
0100
1000
0100
0010
0100
0001
1000
,
0001
0010
0100
1000
0001
0100
0010
0100
,
0001
0010
0001
1000
0010
0100
0001
0010
,
0100
1000
0100
1000
0001
0100
0010
1000
,
0001
0010
0100
1000
0001
0100
0010
1000
,
0001
0010
0001
0010
0100
1000
0010
0100
,
0001
0010
0100
1000
0010
0100
0001
1000
,
0001
0010
0001
0100
0010
1000
0001
1000
,
0001
0010
0100
1000
0010
0100
0001
1000
,
00M1
0100
0001
0010
0100
1000
0100
0010
,
0100
0010
0001
0010
0100
1000
0010
0100
,
0001
0010
0001
0000
1000
0100
1000
0000
0001
0100
0001
0000
1000
0010
1000
0000
,
0001
0010
0100
1000
0100
0000
0010
0001
0100
0010
1000
0000
0100
0010
0001
0000
,
1000
0010
0100
0001
0010
0100
1000
0010
0100
0001
1000
0100
0010
0001
1000
0010
,
0100
0001
0010
0100
1000
0010
0100
0001
0010
0100
0010
0001
1000
0010
0100
0001
,
0010
0100
1000
0001
0100
0010
1000
0001
0100
0001
1000
0100
0010
0001
1000
0010
,
0100
0001
0010
0100
1000
0010
0100
0001
1000
0100
0010
0100
1000
0010
1000
0001
,
0010
0100
1000
0100
0010
0001
0100
0010
,
1000
0010
0100
0001
0010
0100
1000
0001
,
10M0
0100
0010
0001
0100
1000
0100
0001
1000
0010
0100
0001
1000
0100
0010
1000
,
0010
0100
1000
0001
0100
0010
0100
0001
1000
0100
1000
0001
0100
0010
0100
0001
,
1000
0010
0010
0001
1000
0100
0100
0001
1000
0010
0010
0001
1000
0100
0100
0001
,
1000
0100
0010
0100
0001
0100
0010
0001
1000
0010
0100
0001
0010
0100
1000
0001
,
1000
0001
0010
0100
1000
0010
0100
0001
,
0010
0100
1000
0100
0010
0001
0100
0010
,
1000
0010
0100
0000
0001
0010
0100
0000
1000
0100
0010
0000
0001
0100
0010
0000
,
1000
0100
0010
0001
0100
0000
0010
1000
0100
0010
0001
0000
1000
0001
0100
0000
;

//--------------- dance-double - XMOD XO STR ----------------
#NOTES:
     dance-double:
     XMOD XO STR:
     Challenge:
     18:
     0,0,0,0,0:
00000000
00000000
00000000
00000000
,
00001000
00010000
00000100
00000000
00001000
00000001
00001000
00000000
00000010
00010000
00001000
00000000
01000000
00100000
10000000
00000000
,
01000000
00100000
00010000
00000000
00001000
00000100
00000010
00000000
00000001
00000100
00000010
00000000
00010000
00001000
00010000
00000000
,
0M000010
00010000
00000010
00000000
00100000
00001000
00100000
00000000
,
00000010
00001000
00000010
00000000
00100000
00010000
00100000
00000000
,
00001000
00000000
01000000
00010000
10000000
01000000
00100000
00010000
10000000
00000000
00010000
01000000
00100000
10000000
00010000
00100000
,
01000000
00000000
10000000
00010000
01000000
00100000
10000000
00001000
00010000
00000000
00000100
00000000
00001000
00000000
00000001
00001000
,
00001002
00000100
00001000
00000103
00001200
00010000
00001000
00010300
,
00012000
00100000
00010000
00103000
00120000
10000000
00100000
10030000
,
01010000
01000000
00100000
00000000
10000000
01000000
00100000
00000000
00011000
00001000
00010000
00000000
00000100
00001000
00000100
00000000
,
00001100
00001000
00000001
00000010
00000100
00000000
00001000
00000001
00001000
00000010
00000100
00000000
00000001
00000010
00000100
00000000
,
00001000
00010000
00100000
01000000
10000000
00100000
01000000
00010000
10000000
01000000
00100000
00010000
01000000
00100000
01000000
00001000
,
00010000
00001000
01000000
00010000
00100000
00001000
00010000
00000100
00001000
00000100
00010000
00000100
00001000
00000100
00001000
00000001
,
00000010
00000100
00001000
00000100
00000010
00000001
00001000
00000010
00000100
00000001
00000010
00000100
00001000
00000010
00000100
00000001
,
00001000
00000010
00001000
00000001
00000100
00000010
00001000
00000100
00010000
00001000
00010000
00001000
00100000
00010000
00100000
00010000
,
10010M00
10000000
00100000
01000000
01100000
00100000
01000000
00001000
,
00011000
00010000
00000010
00001000
00001010
00000010
00001000
00001000
,
00000001
00000100
00001000
00010000
00100000
10000000
00100000
00010000
,
00100000
01000000
00001000
00100000
00010000
00001000
00010000
00100000
,
00001000
00001000
00010000
00000010
00000100
00000100
00000001
00000010
,
00000100
00000100
00000010
00000001
00010000
00010000
00001000
10000000
,
00010000
01000000
00100000
00010000
00100000
01000000
00010000
10000000
,
00100000
01000000
10000000
01000000
00010000
01000000
00001000
00010000
,
00001000
00010000
00000100
00001000
00000010
00000100
00000001
00000010
00000100
00001000
00000100
00000010
00000001
00001000
00000010
00000100
,
00000001
00001000
00000100
00010000
00001000
00010000
00001000
00100000
00010000
00100000
00001000
00100000
00010000
10000000
01000000
00100000
,
00010000
10000000
00010000
01000000
10000000
01000000
00010000
00100000
,
00000010
00001000
00000100
00000010
00000100
00001000
00000001
00001000
,
00000001
00000100
00000001
00000000
00001000
00000100
00001000
00000000
00000100
00010000
00000100
00000000
00010000
00001000
00010000
00000000
,
00001000
00100000
00010000
00100000
00001000
00000000
01000000
00100000
10000000
00010000
10000000
00000000
01000000
00100000
00010000
00000000
,
10000M00
01000000
00100000
00010000
00001000
00000100
00000010
00000001
,
00000010
00000100
00001000
00010000
00100000
01000000
10000000
00010000
,
10000000
00100000
01000000
00010000
00100000
00001000
00010000
00000100
,
00001000
00000010
00001000
00000001
00000010
00000100
00001000
00000100
,
00000010
00000001
00000100
00000010
00010000
00001000
00010000
00001000
,
01000000
00100000
01000000
00010000
10000000
01000000
10000000
00010000
,
10000000
01000000
00010000
01000000
00100000
00010000
00100000
00001000
,
00010000
00000010
00000100
00001000
00000100
00000001
00000100
00000010
,
00001010
00001000
00000001
00000010
00000011
00000001
00001000
00000100
,
00010100
00010000
00001000
01000000
01010000
00010000
10000000
00100000
,
10100000
10000000
01000000
00100000
00110000
00010000
01000000
00001000
,
00101000
00100000
00001000
00010000
00010100
00000100
00001000
00000001
,
00001000
00000100
00000001
00000100
00001000
00000100
00000010
00000001
,
00001000
00000010
00000100
00001000
00000100
00000010
00001000
00000100
,
00010000
00001000
01000000
00100000
10000000
01000000
00100000
01000000
,
10000000
00010000
01000000
00001000
00010000
00001000
01000000
00100000
,
10000000
01000000
00100000
00010000
00001000
00000100
00000010
00000001
,
00001000
00000010
00000100
00000001
00001000
00000100
00000010
00000001
,
00000010
00000100
00001000
00000010
00010000
00001000
00010000
00000100
,
00010000
00001000
01000000
00100000
01000000
00010000
00100000
00001000
,
0M010000
00001000
00010000
00001000
00010000
00000010
00001000
00000010
,
00001000
00000001
00000010
00000100
00001000
00000100
00000010
00000001
,
00010000
00000100
00010000
00000000
00001000
00100000
00001000
00000000
00100000
00010000
00100000
00000000
00010000
01000000
00100000
00000000
,
10000000
01000000
00100000
00010000
10000000
00000000
00010000
01000000
00100000
01000000
00010000
00000000
01000000
00010000
01000000
00000000
,
00001000
00010000
00001000
00010000
00000010
00000100
00000010
00001000
00000001
00000010
00000100
00001000
00000100
00000010
00000001
00001000
,
00000010
00000100
00000001
00000010
00000100
00001000
00000010
00000100
00000001
00001000
00000010
00001000
00000100
00010000
00001000
00010000
,
00001000
00100000
00010000
00100000
00001000
00100000
00010000
01000000
00100000
10000000
00010000
00100000
01000000
10000000
01000000
00100000
,
00010000
01000000
00100000
10000000
00010000
00100000
00001000
00010000
00000100
00010000
00001000
00010000
00000100
00001000
00000010
00000100
,
00000001
00010000
00000010
00001000
00000100
01000000
00010000
00100000
,
00001000
10000000
00100000
01000000
00001000
10000000
00100000
01000000
,
00M01000
00010000
00000010
00000100
00000001
00000010
00000100
00001000
00010000
00100000
01000000
10000000
00100000
01000000
00001000
00010000
,
00001000
01000000
00100000
10000000
00010000
00100000
00001000
00010000
00000010
00000100
00000010
00010000
00000100
00001000
00000001
00000010
,
00000100
00001000
00000100
00000010
00000001
00000100
00000010
00000001
00000010
00000100
00000001
00001000
00000100
00001000
00000010
00010000
,
00001000
00100000
00010000
00100000
00001000
00010000
00100000
00010000
00001000
01000000
00100000
10000000
00010000
00100000
01000000
10000000
,
01000000
00100000
00010000
01000000
00100000
10000000
00001000
00010000
,
00000010
00000100
00000001
00000010
00000100
00001000
00000100
00010000
,
00000010
00010000
00001000
00000000
01000000
00100000
01000000
00000000
00010000
00100000
00010000
00000000
01000000
00001000
00010000
00000000
,
00000001
00001000
00000100
00001000
00000001
00000000
00010000
00001000
00010000
00001000
00010000
00000000
00001000
10000000
01000000
00000000
;
