#TITLE:Elan;
#SUBTITLE:;
#ARTIST:Nightwish;
#TITLETRANSLIT:;
#SUBTITLETRANSLIT:;
#ARTISTTRANSLIT:;
#GENRE:;
#CREDIT:;
#MUSIC:Elan.ogg;
#BANNER:;
#BACKGROUND:;
#CDTITLE:;
#SAMPLESTART:99.680;
#SAMPLELENGTH:12.000;
#SELECTABLE:YES;
#OFFSET:-0.300;
#BPMS:0.000=128.000
,32.000=128.010
;
#STOPS:;
#BGCHANGES:;
#FGCHANGES:;

//--------------- dance-single - ----------------
#NOTES:
     dance-single:
     :
     Beginner:
     2:
     0,0,0,0,0:
0000
0000
0000
0000
,
0000
0000
0000
0000
,
0000
0000
0000
0000
,
0000
0000
0000
0000
,
0001
0000
0000
0000
,
1000
0000
0000
0000
,
0010
0000
0000
0000
,
1000
0000
0000
0000
,
1001
0000
0001
0000
,
0100
0000
0000
0000
,
0020
0000
0030
0000
,
0200
0000
0300
0000
,
1001
0000
0000
0000
,
0001
0000
0001
0000
,
1001
0000
0000
0000
,
1000
0000
0001
0000
,
2000
0000
3000
0000
,
0001
0000
1000
0000
,
2000
0000
0000
0000
,
3000
0000
0000
0000
,
1001
0000
0001
0000
,
0100
0000
0010
0000
,
1000
0000
0001
0000
,
1000
0000
0001
0000
,
1000
0000
0001
0000
,
0100
0000
0010
0000
,
1000
0000
0000
0000
,
0001
0000
0000
0000
,
1000
0000
0000
1001
,
0000
0001
0000
0100
,
0000
0000
0000
0000
,
0000
0010
0010
0010
,
0000
1000
0000
0001
,
0000
0000
0000
1000
,
0000
0010
0000
0100
,
0000
0000
0000
0001
,
0000
1000
0000
0001
,
0000
0000
1001
0000
,
0100
0000
0100
0000
,
0100
0000
0010
0000
,
0100
0000
0001
0000
,
1000
0000
1001
0000
,
0001
0000
0100
0000
,
0000
0000
0010
0000
,
0000
0000
1000
0000
,
0010
0000
0110
0000
,
0100
0000
0001
0000
,
1000
0000
0001
0000
,
0000
0000
1000
0000
,
0001
0000
1001
0000
,
0000
0000
0100
0000
,
0000
0000
0010
0000
,
0000
0000
1000
0000
,
0000
0000
1001
0000
,
0010
0000
0100
0000
,
0001
0000
1000
0000
,
0000
0000
0001
0000
,
1000
0000
0010
0000
,
0000
0000
0010
0000
,
0000
0000
0100
0000
,
0000
0000
0001
0000
,
0000
0000
1001
0000
,
0000
0000
0100
0000
,
0000
0000
1001
0000
;

//--------------- dance-single - ----------------
#NOTES:
     dance-single:
     :
     Easy:
     5:
     0,0,0,0,0:
0000
0000
0000
0000
,
0000
0000
0000
0000
,
0000
0000
0000
0000
,
0000
0000
0000
0000
,
1000
0001
0100
0000
,
0010
1000
1000
0000
,
0010
0100
0001
0000
,
0100
0010
1000
0000
,
1001
0001
0100
0010
,
1000
0100
0100
1000
,
0020
0130
0001
0100
,
0010
1000
0100
1000
,
1001
0001
0100
0010
,
1000
0001
1000
0010
,
0100
0001
0100
0010
,
1000
0100
1000
0010
,
0200
0000
0000
0000
,
0302
0000
2003
0000
,
3020
0000
0000
0000
,
0130
0000
0001
0000
,
1001
0000
1000
0010
,
0100
0001
0100
0010
,
2000
3000
0001
0100
,
0010
1000
0002
0000
,
1003
0000
0010
0010
,
0100
0001
0100
0010
,
1000
0100
1000
0001
,
0100
0010
0100
0001
,
1001
0000
0000
1001
,
0000
1000
1000
0010
,
0100
0001
0001
0100
,
0010
1000
1000
0100
,
0100
0010
0010
0001
,
0100
0010
0010
1000
,
1000
0001
0100
0010
,
1000
0001
0100
0010
,
1000
0100
0010
0011
,
0000
1001
0000
0000
1010
0000
1000
0000
,
0001
0001
0100
0100
,
0010
0010
1000
0001
,
0100
0001
0100
0001
,
1001
0110
1001
0000
,
1000
0001
1000
0100
,
0001
0100
0010
0100
,
0010
0100
1000
0010
,
0100
0001
1001
1000
,
0010
0010
0100
0001
,
0100
0010
2000
0000
,
0000
0000
3001
1000
,
1001
0110
1001
0000
,
1000
0010
0100
0001
,
0100
0100
0010
1000
,
0100
1000
0010
0100
,
0001
0100
1001
1000
,
0010
0010
2000
0000
,
3002
0003
1001
0000
,
1000
0001
0100
0100
,
0001
1000
1001
0001
,
0100
0010
0010
1000
,
0100
0010
0100
1000
,
0010
0100
0001
0100
,
0010
1000
0110
0001
,
0100
0010
0100
0001
,
0001
1000
2020
0000
,
3030
0000
0000
0000
;

//--------------- dance-single - ----------------
#NOTES:
     dance-single:
     :
     Medium:
     7:
     0,0,0,0,0:
0000
0000
0000
0000
,
0000
0000
0000
0000
,
0000
0000
0000
0000
,
0000
0000
0000
0000
,
2000
3002
0203
0310
,
1000
0002
0103
0010
,
2000
3001
0100
0010
,
1000
0001
0100
0010
,
1010
1100
1001
0001
,
1000
0001
1000
0000
0001
0000
0100
0000
,
0020
0000
0130
0000
0001
0010
0001
0000
,
0100
0010
1000
0100
,
1100
1000
0001
0100
,
0010
1000
0010
0000
1000
0001
0000
0000
,
2001
0000
3010
0000
0100
0001
0100
0000
,
0020
1030
0001
0100
,
0020
0000
0000
0000
0000
0000
0030
1000
,
0002
0000
0000
1003
0020
0000
0000
0130
,
0020
1030
0001
0100
,
0010
1000
0100
1000
,
0001
0000
1000
0010
1000
0000
0001
0000
,
0100
0100
0010
0010
,
1000
0000
0001
1000
,
0010
0000
0100
0000
0001
0010
0001
0010
,
0001
0000
0100
0000
0010
1000
0010
1000
,
0010
0100
0002
0203
,
0310
0000
1000
0001
0000
1000
0010
0000
,
1000
0001
0100
0010
,
1001
0000
0000
1100
0000
0000
0011
0000
,
0001
1000
1000
0020
,
0030
0100
0010
1000
,
0000
0001
0100
0101
,
0010
0000
1000
0001
1000
0000
0010
0000
,
0000
1000
0001
0100
,
0010
1000
0002
2003
,
3010
1000
0000
0010
0100
0000
0001
0010
,
0001
1000
0001
1001
,
0000
0101
0000
0000
1001
0000
0010
0000
,
0010
0010
0100
0100
,
0100
0000
0100
0000
0001
1000
0001
0000
,
1000
0001
1000
0000
0010
0100
0001
0000
,
0101
1010
1001
0001
,
0200
0000
0320
0000
2030
0000
3001
0100
,
0002
0000
0203
0000
0320
0000
1030
0001
,
2000
3020
2030
3002
,
2003
3010
1010
1000
,
0001
0000
0100
0000
0010
0000
1000
0100
,
1000
0001
0200
0000
,
0310
0100
0001
0100
,
1001
0110
1001
0001
,
0200
0000
0320
0000
2030
0000
3100
1000
,
0100
0000
0010
0000
0100
0000
1000
0001
,
1000
0000
0010
0000
0100
0000
0001
0100
,
0020
1030
1001
0001
,
0100
0010
2000
3000
,
0001
0000
2002
3003
,
1000
0010
0100
0001
,
0010
0100
1020
2030
,
3020
0000
0130
0000
0010
1000
0010
0000
,
2000
0000
3001
0010
0200
0000
1300
0000
,
0010
0100
0010
0100
0010
0000
1000
0000
,
0001
1000
1001
0001
,
0100
0010
1000
0001
,
1000
0010
0000
0000
1010
0000
1000
0000
,
0001
0100
0100
0002
,
0000
0003
0000
0000
;

//--------------- dance-single - XO SJ- ----------------
#NOTES:
     dance-single:
     XO SJ-:
     Hard:
     10:
     0.327201,0.501683,0.186146,0.040466,0.004047,255,23,5,0,0,0,0.327201,0.501683,0.186146,0.040466,0.004047,255,23,5,0,0,0:
0000
0000
0000
0000
,
0000
0000
0000
0000
,
0000
0000
0000
0000
,
0000
0000
0000
0000
,
2000
0000
3020
0000
0230
0000
0301
0010
,
0001
0100
0020
0000
0230
0000
0301
1000
,
0020
0000
1030
0100
0010
0001
1000
0010
,
1000
1000
0100
0000
0100
0000
0010
0000
,
1002
0000
1003
0100
0001
0000
0001
0100
,
1000
0010
0100
0000
0002
0000
1003
0010
,
2010
0000
3001
0100
1000
0100
0001
0010
,
0100
0000
0110
0000
0010
0000
0001
1000
,
0001
0000
0001
1000
0010
0000
0100
0001
,
0010
0100
2000
0000
3001
0011
0000
1001
,
2000
0000
3010
0100
0010
0100
0010
1000
,
0100
0000
1000
0001
1000
0000
0010
0000
0100
0000
0001
0000
0010
0000
0001
0000
,
2001
0000
0000
0000
0000
0000
3001
0100
,
0020
0000
0000
1030
0002
0000
0000
0013
,
0002
0000
0103
0000
0010
1000
0010
0000
,
0100
0001
0010
0001
0100
0000
0010
0000
,
1000
0000
1001
1000
0002
0000
2003
0000
,
3002
0023
0230
0320
,
0031
0000
0100
0010
1000
0000
0001
0100
,
0020
0000
1030
0000
0100
0010
0001
0100
,
2000
0000
3100
0000
0001
0010
0100
1000
,
0010
0100
0001
0000
0100
0000
0110
0000
,
0010
0000
1000
0100
0000
0010
0001
0000
,
0100
0000
0010
0000
1000
0000
0001
1000
,
0001
0000
0001
1001
0000
1000
1010
0000
,
1000
0001
1000
0010
1000
0000
0100
0010
,
0000
0001
1000
0000
1010
0000
1000
0000
,
0001
0100
0010
0000
1010
0000
1001
0000
,
0001
0000
0100
0010
1000
0000
0200
0000
,
0310
0010
0200
0000
2300
0000
3002
0000
,
1003
0010
0110
0100
,
0001
0100
0000
0100
0010
1000
0100
0010
,
0001
0000
0100
0000
0001
1000
0001
0000
,
0100
0001
0000
0001
0100
0000
0100
0000
,
0100
0100
0010
0010
,
0010
0000
0010
0000
1000
0100
1000
0100
,
1000
0100
1000
0100
0010
0001
0010
0001
,
0100
0000
0110
0000
1001
0000
0001
0100
,
0020
0000
2030
0000
3100
0000
0010
0001
,
0200
0000
0320
0000
1030
0000
0100
0010
,
0001
0000
1000
0010
1000
0000
0001
0100
,
0020
0000
0130
0000
1100
0000
1000
0001
,
0200
0000
0320
0000
1030
0000
0010
0001
,
0010
0000
1000
0000
0100
1000
0001
0100
,
0010
1000
0100
0010
0001
1000
0010
1000
,
0010
0000
0010
0000
1001
0000
1000
0100
,
0010
0000
0200
0000
2300
0000
3010
0100
,
0002
0000
2003
0000
3100
0000
0010
0001
,
2000
0000
3002
0000
1003
0000
0100
0010
,
0001
0100
0010
1000
1010
0000
1000
0000
,
0001
0100
0020
0000
2030
0000
0000
3001
,
0100
0000
0000
0100
0000
0000
0100
0000
0110
0000
0000
0000
0010
0000
0000
0000
,
1000
0100
1000
0001
0100
0010
0010
0100
,
0001
0010
0001
0100
0101
0000
1010
0000
,
1000
0000
0100
0010
0001
0100
0010
0000
,
1010
0000
1000
0100
0010
0000
0001
0100
,
1000
0100
0001
0010
0200
0000
0320
0000
,
0032
0103
0101
0001
,
0100
0000
0010
1000
0100
0010
0001
0100
,
0010
1010
0000
1001
0001
0000
1000
0010
,
1000
0001
0100
0010
1000
0000
0220
0000
,
0000
0330
0000
0000
;

//--------------- dance-double - SJ XO ----------------
#NOTES:
     dance-double:
     SJ XO:
     Hard:
     11:
     0,0,0,0,0:
00000000
00000000
00000000
00000000
,
00000000
00000000
00000000
00000000
,
00000000
00000000
00000000
00000000
,
00000000
00000000
00000000
00000000
,
00020000
00000000
00032000
00000000
00203000
00000000
00310000
10000000
,
01000000
00100000
00020000
00000000
00130000
00000000
00001000
00010000
,
00002000
00000000
00013000
00000010
00000100
00000010
00001000
00000001
,
00001000
00000001
00001000
00000010
,
00001010
00000000
00001100
00001000
00000001
00000000
00001000
00000010
,
00000100
00001000
00000200
00000000
00000310
00000000
00001000
00000100
,
00010000
00000000
00001000
00100000
00010000
00001000
00010000
00100000
,
00020000
00000000
10030000
00000000
00010000
01000000
00100000
10000000
,
12000000
00000000
03100000
00010000
10000000
00000000
01000000
00100000
,
00010000
00100000
01000000
00000000
00010000
10010000
00000000
10100000
,
10010000
00000000
10000000
00010000
00100000
00001000
00100000
00010000
,
10000000
00000000
00010000
10000000
01000000
00000000
00100000
00000000
00010000
00000000
00001000
00000000
00000100
00000000
00000010
00000000
,
00000012
00000000
00001000
00000000
00000010
00000000
00001003
00000100
,
00000002
00000000
00000103
00001000
00000010
00010000
00010000
00001000
,
00020000
00000010
00030010
00001000
00000200
00010000
00010300
00001000
,
01000000
00100000
01000000
00010000
10000000
01000000
00100000
00010000
,
00210000
00000000
00301000
00010000
00001000
00000000
01000000
00000000
,
10000000
00000000
01000000
00000000
00001000
00010000
00001000
00000000
,
00010000
00000100
00010000
00000100
00001000
00000000
00000100
00000010
,
00000010
00000000
00000001
00000000
00000100
00000010
00000001
00000010
,
00000100
00000001
00001000
00000000
00000010
00000100
00001000
00000100
,
00000010
00001000
00000001
00000000
00010000
00000000
00001000
00000000
,
00010000
00000000
00001000
01000000
00000000
01000000
00100000
00000000
,
10000000
01000000
00100000
00010000
00100000
00000000
01000000
10000000
,
11000000
00000000
01000000
01100000
00000000
00100000
00110000
00000000
,
00010000
10000000
00100000
10000000
00010000
00000000
00100000
00001000
,
00010000
00100000
00010000
00000000
00001000
00000000
00100000
00010000
,
00100000
00001000
00010000
00000000
00011000
00000000
00010100
00000000
,
00020000
00000000
00030010
00000100
00000010
00000000
00010000
00001000
,
00000010
00001000
00010000
00001000
01000000
00010000
20000000
00000000
,
30100000
01000000
00010000
00000000
00100000
01000000
10000000
00010000
,
00100000
00020000
00000000
10030000
01000000
00100000
00010000
00100000
,
01000000
10000000
00010000
01010000
,
01000000
01001000
00000000
00001000
00101000
00000000
00100000
00000000
,
00001000
00001000
00010000
00010000
,
00000010
00000000
00000010
00000000
00001000
00000001
00001000
00000001
,
00000100
00000010
00000100
00000010
00001000
00000100
00001000
00000100
,
00001100
00000000
00001001
00000000
00001010
00000000
00000010
00010000
,
00002000
00000000
00000100
00000000
00013000
00000000
00001000
01000000
,
00200000
00000000
00010000
00000000
01300000
00100000
10000000
01000000
,
00200000
00000000
00320000
00000000
00032000
00000000
00003100
00000010
,
00000001
00001000
00000010
00001000
00001001
00000000
00000001
00001000
,
00000100
00000010
00000001
00001000
00000010
00000000
00001000
00000100
,
00000010
00000000
00000001
00000000
00001000
00000010
00000100
00000010
,
00001000
00000001
00000010
00000100
00010000
00001000
01000000
00100000
,
10100000
00000000
11000000
00000000
10010000
00000000
10000000
01000000
,
00010000
00000000
00001000
00000010
00000001
00000000
00000010
00000100
,
00001000
00000100
00000010
00000001
00001000
00000000
00000001
00000100
,
00000010
00000001
00000010
00000100
00000001
00000000
00001000
00000100
,
00010000
00000000
00001000
00010000
00002000
00000000
00013000
00001000
,
01000000
00100000
00010000
00100000
02000000
00000000
03010000
10000000
,
00010000
00000000
00000000
01000000
00000000
00000000
00100000
00000000
20100000
00000000
00000000
00000000
30010000
00000000
00010000
00000000
,
01000000
00000000
00001000
00000000
00010000
00000000
00001000
00000000
10000000
00000000
01000000
00100000
01000000
00000000
10000000
00000000
,
00010000
00100000
00001000
00010000
00021000
00000000
00100000
00000000
,
00031000
00000000
00010000
00000100
00001000
00010000
00001000
00000000
,
00000010
00000000
00001000
00000100
00000001
00000000
00000100
00001000
,
00000010
00010000
00001000
00010000
00002000
00000000
02003000
00000000
,
03010000
10000000
00100000
10000000
11000000
00000000
00100000
00000000
,
00010000
00000000
00001000
00000100
00000010
00000001
00000100
00000010
,
00010000
00010010
00000000
00001000
00011000
00000000
00010000
00001000
,
01000000
00100000
01000000
00001000
20000000
00000000
00000000
00000000
,
30000000
00000000
00000000
00000000
;
