#TITLE:Drive Out;
#SUBTITLE:;
#ARTIST:Sunfreakz;
#TITLETRANSLIT:;
#SUBTITLETRANSLIT:;
#ARTISTTRANSLIT:;
#GENRE:;
#CREDIT:Braeden;
#MUSIC:Drive Out.ogg;
#BANNER:drive out-ban.png;
#BACKGROUND:drive out-bg.png;
#CDTITLE:;
#SAMPLESTART:66.647;
#SAMPLELENGTH:10.626;
#SELECTABLE:YES;
#OFFSET:0.120;
#BPMS:0.000=127.600;
#STOPS:;
#BGCHANGES:;
#FGCHANGES:;

//--------------- dance-single - ----------------
#NOTES:
     dance-single:
     :
     Beginner:
     2:
     0.12,0.157,0.037,0.112,0:
0000
0000
0000
0000
,
0000
0000
0000
0000
,
0000
0000
0001
0000
,
1000
0000
0000
0000
,
0000
0000
0100
0000
,
0010
0000
0100
0000
,
0001
0000
1000
0000
,
0001
0000
0000
0000
,
0000
0000
1001
0000
,
0010
0000
0100
0000
,
0001
0000
0000
0000
,
0000
0000
1000
0000
,
0010
0000
0100
0000
,
0001
0000
1000
0000
,
0100
0000
0010
0000
,
0001
0000
1000
0000
,
0010
0010
0000
0000
,
0000
0000
0000
0000
,
0000
0001
0000
1000
,
0000
0010
0000
0000
,
0000
0100
0100
0000
,
1001
0000
1000
0000
,
0001
0000
1000
0000
,
0010
0000
1000
0000
,
0000
0002
0000
0003
,
0000
2000
0000
3000
,
0000
0020
0000
0030
,
0000
0200
0000
0300
,
0000
0002
0000
0003
,
0000
2000
0000
3000
,
0000
0020
0000
0030
,
0000
1000
0000
0000
,
0000
1001
0000
0010
,
0000
1000
0000
0001
,
0000
1000
0000
0000
,
0000
0010
0010
0000
,
0100
0100
0000
0001
,
0000
0000
0000
1000
,
0000
0000
0000
0000
,
0000
1000
0000
1000
,
0000
1000
0000
0001
,
0000
0001
0000
0001
,
0000
0000
0020
0000
,
0000
0030
0000
0000
,
0000
0000
0100
0000
,
1000
0000
1000
0000
,
0000
0000
0200
0000
,
0000
0300
0000
0000
,
0000
1001
0000
0010
,
0000
0010
0000
0100
,
0000
0000
0002
0000
,
0000
0003
0000
0000
,
0000
1000
0000
1000
,
0000
0010
0000
0200
,
0300
0000
2000
0000
,
0000
0000
0000
0000
,
3000
0000
0000
0000
;

//--------------- dance-single - ----------------
#NOTES:
     dance-single:
     :
     Easy:
     4:
     0.21,0.208,0.028,0.122,0:
0000
0000
0000
0000
,
0000
0000
0000
0000
,
0000
0000
1000
0001
,
1000
0001
0000
0000
,
0000
0000
1000
0000
,
1000
0000
0010
0000
,
0010
0000
0100
0001
,
0100
0000
0010
0000
0000
1000
0000
0000
,
0001
1001
0000
0010
,
0000
1000
0000
0001
,
0000
0100
0000
0010
,
0000
1000
0001
0100
,
0010
1000
1000
1000
,
0000
0001
0000
1000
,
0000
0010
0100
0001
,
0010
0100
1000
0001
,
0100
0010
1000
0001
,
1000
0000
0001
1000
,
0010
0100
0001
0010
,
0100
1000
0000
0001
,
1000
0001
0001
0000
,
1000
0100
0001
0100
,
1000
0001
0000
1000
,
0000
0010
0000
1000
,
0000
0001
0100
0001
,
0000
0100
0000
0001
0000
0100
0000
0000
,
0001
0000
1001
0000
,
0010
0000
0110
0000
,
1000
0002
0000
2003
,
0000
3020
0000
0230
,
0000
0302
0000
0000
,
1003
0000
1000
0000
0000
0010
0000
0000
,
0000
1000
0001
0100
,
0000
0010
0000
0000
1000
0000
0001
0000
,
0000
1000
0000
0000
0010
0000
0000
0000
,
1000
0100
0100
0000
,
0010
0000
0001
1000
,
0000
0001
0000
0000
1000
0000
0010
0000
,
0000
1000
0000
0000
0000
0000
0000
0000
,
0000
1000
0001
0100
,
0010
1000
0001
1000
,
0000
0010
0000
0000
0000
0000
0000
0000
,
0000
1000
0000
0000
0002
0000
0003
0000
,
2000
3000
0010
0000
,
1000
0000
0001
0100
,
0010
1000
0100
0010
,
0001
0000
0020
0030
,
2000
3000
0001
0000
,
0000
1000
0100
1000
,
0000
0001
1000
0001
,
0000
1000
0020
0030
,
0200
0300
0000
0000
,
0000
1000
0001
1000
,
0000
0010
1000
0010
,
0000
2000
3000
0002
,
0003
1000
0000
0010
;

//--------------- dance-single - ----------------
#NOTES:
     dance-single:
     :
     Medium:
     7:
     0.331,0.34,0.168,0.234,0.009:
0000
0000
0000
0000
,
0000
0000
0000
0000
,
0000
0000
2000
3200
,
0320
0000
0032
0000
0003
1000
0000
0000
,
0010
0100
1001
0010
,
1010
1000
1100
0100
,
0110
0010
0011
0001
,
0101
0000
0000
0000
0100
0000
0000
0010
0000
0000
0100
0000
0000
0000
0000
0000
,
0001
1000
1001
0010
,
1000
0010
0000
0100
0000
0001
0000
1000
,
0010
1000
0000
0000
1001
0000
0010
0000
,
1000
0000
0100
0000
0000
0001
0000
1000
,
0001
1000
1100
0100
,
0100
0010
0000
0010
0000
0001
0000
1000
,
0001
1000
0000
0000
1001
0000
0010
0000
,
0101
0000
0001
0000
0001
1000
0000
0001
,
2000
3002
2000
0003
,
0020
3000
0200
0030
,
0301
0002
0000
0000
1000
2000
0003
0000
,
0010
0020
3000
0000
0000
0030
0000
0000
,
0000
0000
1000
0001
1000
0000
0000
0000
,
1010
0000
0000
0000
0101
0000
0001
0010
,
0001
0010
0000
0000
0001
1000
0000
0001
,
0000
0200
0000
0300
0000
0010
0000
1000
,
0010
0000
1000
0001
1000
0000
0010
0000
,
0000
1000
0000
0001
0000
0100
0000
0000
,
0010
1000
0000
0001
0000
0000
1000
0000
,
0001
0100
0010
0000
,
0000
1000
0001
1000
,
0000
0010
0000
1000
0000
0010
0000
0000
,
1000
0001
0000
1000
0000
0000
0000
0000
,
0000
0000
0000
0000
1000
0000
0000
0100
0000
0000
1000
0000
0000
0000
0000
0000
,
1001
0000
1000
0000
1001
0000
0010
0100
,
0010
0100
0000
0000
0001
0000
1000
0010
,
0000
0200
0000
0000
0301
0000
0000
0000
,
2000
0000
3200
0000
,
0320
0000
0000
0000
0031
0000
0100
0010
,
0100
0000
0000
0000
1000
0000
0010
2000
,
0000
3002
0000
0000
0100
0000
0000
0000
,
1003
0000
0010
0000
1000
0000
0010
0100
,
0010
0000
0100
0000
0001
0000
0010
0100
,
0010
0200
0000
0000
1300
0000
0001
0000
,
0100
0010
1000
0000
1000
0000
0001
0000
,
0001
0000
1000
0000
0001
0100
0000
0100
,
0001
0000
1000
0010
1000
0000
0001
0000
,
0100
0000
0010
1000
0010
0000
1000
0000
,
0001
0010
1100
0000
,
0101
0000
1010
0000
,
1000
0000
0001
1000
0001
0000
1000
0000
,
1000
0100
0001
0100
,
1000
0001
2000
3001
,
0200
0310
1000
0001
,
0100
0000
0010
1000
0010
0000
1000
0000
,
0001
0010
0100
1000
,
0001
0100
0020
1030
,
0002
1003
0002
0000
,
0003
0000
0000
0000
;

//--------------- dance-single - ----------------
#NOTES:
     dance-single:
     :
     Hard:
     9:
     0.473,0.417,0.29,0.337,0.009:
0000
0000
0000
0000
,
0000
0000
0000
0000
,
0000
1000
0002
1003
,
0200
0000
0310
0000
0000
0001
0000
0000
,
0100
0000
0001
1000
0001
0000
1000
0100
,
1100
0000
0001
0010
0001
0000
1000
0010
,
1010
0000
0001
0100
0001
0000
0001
1000
,
1001
0000
0000
0000
0010
0000
0000
1000
0000
0000
0001
0000
0000
0000
1000
0000
,
0100
0010
0011
0001
,
2000
0001
0000
0010
0000
3001
0000
1000
,
0100
0001
0100
0000
1100
0000
1000
0000
,
1001
0000
0001
0100
0010
1000
0000
0001
,
0100
0001
1000
0000
1001
0000
0001
0000
,
1010
2000
0000
3002
0000
2003
0000
3010
,
0100
0001
0000
1000
0010
1000
0000
0001
,
0100
0001
0000
1000
0010
0100
0000
0000
,
0101
0000
1000
0001
1000
0001
0100
0010
,
1000
0000
0001
0010
0001
0010
0001
1000
,
0001
0200
0000
0000
0010
0320
0000
0000
,
1000
1030
0001
0100
0010
1000
0000
1000
,
0001
0010
0001
1000
0010
1000
0001
0100
,
0001
0000
1000
0010
1000
0000
0001
0100
,
0010
2000
0000
0000
0001
3002
0000
0100
,
0000
0103
0010
1000
0100
1000
0000
1000
,
0001
0010
0001
0000
1001
0000
0010
0000
,
1010
2000
0000
3020
0000
0130
0000
0001
,
0010
0002
0000
2003
0000
3001
0100
0010
,
1000
0010
0000
0010
0100
0001
0000
0001
,
0100
0010
1000
0000
2010
0000
3010
0100
,
0010
2000
0000
3002
0000
2003
0000
0000
,
3001
0010
0100
0000
0100
0000
1000
0001
,
0100
0000
0010
0000
1010
0000
0000
1010
0000
0000
1001
0000
0000
0000
1000
0000
,
0010
0000
1000
0100
0020
0000
0031
0010
,
0100
1000
0001
0000
1000
0000
0020
1000
,
0000
1030
0001
0000
0101
0000
0100
0000
,
0110
0010
1000
0001
1000
0000
0001
0100
,
0001
0010
0001
0000
1001
0000
0010
1000
,
0020
0200
0330
0000
1010
0000
0002
0100
,
0000
1003
0010
0000
1001
0000
0010
0000
,
1010
0010
1000
0100
1000
0000
0001
0010
,
0100
1000
0001
0000
1001
0000
0001
0100
,
0020
2000
0000
0000
3030
0000
0001
0000
,
1000
0002
0000
0003
0102
0000
0103
0000
,
2010
0000
3010
0000
0001
0100
0000
0100
,
0001
0000
1001
0000
1000
0000
0001
0100
,
0010
1000
0000
0010
1000
0010
0000
1000
,
0001
0100
0010
0000
1002
0000
1003
0000
,
2010
0000
3010
0000
1000
0001
0000
1000
,
1001
0000
0001
1000
0001
0000
0100
0000
,
0010
0000
1000
0100
1000
0000
0001
0000
,
0100
0000
0010
1000
0020
0000
1030
0000
,
0002
0000
0103
0000
0010
1000
0000
1000
,
0010
0000
1000
0001
1000
0000
0001
0100
,
0001
0000
0010
0001
0010
0000
0001
1000
,
0001
1000
1020
1030
,
2001
3001
2002
3003
;

//--------------- dance-single - ----------------
#NOTES:
     dance-single:
     :
     Challenge:
     11:
     0,0,0,0,0:
0000
0000
0000
0000
,
0000
0000
0000
0000
,
0000
0000
1000
0100
0002
0000
1003
0010
,
0002
0000
1003
0010
0100
0001
0000
0001
,
0100
0010
1000
0000
1001
0000
0001
0000
,
0101
0100
0000
0010
1010
1000
0000
0001
,
0101
0100
0010
1000
0010
0000
0100
0001
,
0010
0000
0001
0000
1000
0000
0000
0001
0000
0000
1000
0000
0000
0000
0001
0000
,
1000
0000
0001
0100
1000
0100
0001
1000
,
0010
0010
1000
0100
0010
0100
0001
0100
,
1000
0001
0100
0010
1000
0100
0010
0001
,
1000
0010
0100
0001
0010
0002
0000
1003
,
0010
0000
1000
0100
0001
0100
0010
0001
,
0100
0100
0001
0100
1000
0100
0010
0100
,
0001
0100
0010
1000
0001
0000
0010
0000
,
0001
0100
0000
0010
1000
0020
0000
0130
,
0001
0000
1000
0100
0010
0001
1000
0100
,
0001
0100
0010
0001
0100
0010
1000
0001
,
0100
1000
0100
0010
1000
0100
0010
0001
,
0100
0010
0100
0001
1000
0010
1000
0100
,
1000
0001
1000
0100
0001
0100
1000
0100
,
0010
0001
1000
0100
0001
0100
0010
0100
,
1000
0001
0100
0010
0001
0010
0100
0001
,
1000
0100
0010
0001
1000
0010
0000
0100
,
0001
0100
0001
0010
0100
0001
0100
0010
,
0001
1000
0100
0010
1000
0010
0001
0100
,
0001
0010
0001
0010
0100
1000
0010
0100
,
0001
0010
0000
0100
1000
0001
0000
0100
,
0010
0000
1000
0100
0001
0100
0010
0100
,
1000
0001
0100
0001
0010
0001
0100
0010
,
1000
0000
0001
0100
0010
0000
1000
0000
,
0001
0000
0100
0000
0010
0000
0000
1000
0000
0000
0001
0000
0000
0000
1000
0000
,
0001
0000
1001
1000
0100
0001
1000
0010
,
0001
2000
0000
3001
1000
0010
0100
0100
,
0001
1000
0001
0000
0100
0000
0001
0000
,
0010
0001
1000
0100
1000
0010
0100
0001
,
0010
0001
0200
0000
0301
0100
0010
0001
,
0010
2000
0000
3000
0001
0100
0010
0100
,
0001
1000
0100
0010
0001
0000
0100
0000
,
0001
0010
0001
0010
0100
1000
0001
0100
,
0010
1000
0001
0100
1000
0100
0010
0100
,
0001
1000
0000
0100
0010
0001
0000
0100
,
0010
2000
0000
0000
3001
0010
0001
0010
,
0100
1000
0100
1000
0001
0100
0000
0100
,
0010
1000
0001
1000
0100
0010
0001
0100
,
1000
0100
0010
0100
0001
1000
0100
0010
,
0001
0100
0001
0000
0020
0000
0031
0000
,
0200
0000
0310
0000
1000
0001
0000
1000
,
0010
0000
1001
1000
0010
1000
0001
0100
,
0001
0010
0001
1000
0001
0100
0001
0010
,
0001
0100
0010
1000
0002
0000
0103
0000
,
0020
0000
1030
0000
0001
0100
0000
0010
,
1000
0000
0001
0010
0001
0010
0100
1000
,
0001
0100
0010
0100
0001
1000
0100
0010
,
0001
1000
0010
0100
0002
0000
0103
0000
,
0002
0000
1003
0100
0020
0000
0030
0000
;

//--------------- dance-double - ----------------
#NOTES:
     dance-double:
     :
     Hard:
     10:
     0.469,0.445,0.327,0.29,0.009:
00000000
00000000
00000000
00000000
,
00000000
00000000
00000000
00000000
,
00000000
00000001
00000200
00000320
,
00020030
00000000
00032000
00000000
00003000
00000000
00000000
00100000
,
00000000
00000000
00001000
00100000
00001000
00000000
00010000
00000100
,
00010000
00000000
00000010
00001000
00000010
00000000
00000100
00000001
,
00000100
00000000
00000001
00000010
00000001
00000000
00001000
00000100
,
00001000
00000000
00000000
00000000
00000100
00000000
00000000
00000100
00000000
00000000
00000100
00000000
00000000
00000000
00010000
00000000
,
00010000
00001000
00101000
00100000
,
00020000
01000000
00000000
00100000
00000000
01000000
00030000
10000000
,
01000000
10000000
01000000
00000000
11000000
00000000
10000000
00000000
,
10010000
00000000
00010000
01000000
00100000
10000000
00000000
00010000
,
01000000
00010000
10000000
00000000
10010000
00000000
00010000
00000000
,
00100000
00001000
00000000
00010000
00000000
00000100
00000000
00001000
,
00000001
00001000
00000000
00000001
00000100
00001000
00000000
00001000
,
00000100
00000001
00000000
00000100
00000010
00001000
00000000
00000000
,
00001010
00000000
00000010
00001000
00000010
00001000
00000100
00010000
,
00000100
00010000
00001000
00100000
00001000
00100000
00010000
01000000
,
00010000
10000000
00010000
10000000
00010000
01000000
00010000
01000000
,
00001000
00100000
00001000
00100000
00000100
00010000
00000100
00010000
,
00000100
00001000
00000010
00000100
00000001
00000100
00000010
00010000
,
00000100
00001000
00000100
00010000
00001000
01000000
00100000
01000000
,
00001000
01000000
00100000
01000000
00001000
01000000
00010000
00100000
,
00001000
00010000
00000100
00001000
00000010
00001010
00000000
00000001
,
00001000
00000100
00010000
00001000
00100000
00010000
10000000
00100000
,
10000000
00200000
00000000
02300000
00000000
03020000
00000000
10030000
,
00100000
00020000
00000000
00230000
00000000
10300000
01000000
00100000
,
00001000
00100000
00000000
01000000
10000000
01000000
00000000
01000000
,
00100000
00001000
00100000
00000000
00120000
00000000
00130000
00000000
,
00000000
00020000
00000000
00230000
00000000
00320000
00000000
00030000
,
00100000
00001000
00010000
00000000
00000010
00000000
00000100
00000001
,
00000100
00000000
00000000
00000000
00000101
00000000
00000000
00001010
00000000
00000000
00001001
00000000
00000000
00000000
00000001
00000000
,
00000001
00000000
00000000
00000000
00002010
00000000
00003010
00001000
,
00000010
00000100
00000000
00000000
00000001
00000000
00000100
00000010
,
00000000
00001000
00000000
00000000
00002020
00000000
00003030
00000000
,
00011000
00000000
00001000
00100000
00010000
01000000
00100000
01000000
,
00010000
00100000
00010000
00000000
20010000
00000000
30010000
01000000
,
00100000
10000000
00000000
00000000
10100000
00000000
00020000
01000000
,
00000000
10030000
00000000
00000000
20020000
00000000
30030000
00000000
,
00110000
00000000
00100000
00010000
00100000
00001000
00100000
00000100
,
00001000
00000100
00010000
00000000
00010100
00000000
00000100
00010000
,
00002000
02000000
00000000
00000000
03003000
00000000
00000000
00000000
,
00000000
10010000
00000000
00000000
00011000
00000000
00010000
00000000
,
01100000
00000000
00100000
00000000
00010000
01000000
00000000
01000000
,
00010000
00000000
10010000
00000000
10000000
00000000
00010000
01000000
,
00100000
10000000
00000000
00100000
10000000
00010000
00000000
00100000
,
00001000
00010000
00001000
00000000
00022000
00000000
00033000
00000000
,
00020020
00030030
00002020
00003030
,
00001001
00000000
00000001
00001000
00000001
00000000
00001000
00000010
,
00001000
00000000
00000001
00000100
00000001
00000000
00000010
00000100
,
00000010
00000001
00001100
00010100
,
00010100
00000000
00001100
00000000
00000100
00010000
00000000
00010000
,
00000100
00000000
00001000
00000100
00100000
00010000
10000000
00000000
,
00010000
01000000
00000000
00001000
00000000
00010000
00000000
00000010
,
00000100
00000001
00000000
00000000
00001001
00000000
00001010
00000000
,
00011000
01001000
20020000
00000000
,
30030000
00000000
00000000
00000000
;
