#TITLE:Disregard;
#SUBTITLE:;
#ARTIST:Yuuyu;
#TITLETRANSLIT:;
#SUBTITLETRANSLIT:;
#ARTISTTRANSLIT:;
#GENRE:Ambient Glitch;
#CREDIT:;
#MUSIC:disregard.ogg;
#BANNER:;
#BACKGROUND:;
#CDTITLE:;
#SAMPLESTART:79.260;
#SAMPLELENGTH:12.000;
#SELECTABLE:YES;
#OFFSET:0.809;
#BPMS:0.000=105.000;
#STOPS:;
#DISPLAYBPM:105.000;
#BGCHANGES:;
#FGCHANGES:;

//--------------- dance-single - ----------------
#NOTES:
     dance-single:
     :
     Beginner:
     2:
     0,0,0,0,0:
0000
0000
0000
0000
,
0000
0000
0000
0000
,
0000
0000
0000
0000
,
0000
0000
0000
0000
,
0000
0000
0000
0000
,
1000
0000
0001
0000
,
0200
0000
0300
0000
,
0010
0000
0000
1000
,
0000
0000
0001
0000
,
0100
0000
0010
0000
,
2000
0000
3000
0001
,
0000
0000
0100
0000
,
0000
0000
0010
0000
,
1000
0000
0002
0000
,
0003
1000
0000
0000
,
0010
0000
0000
0000
,
0100
0000
0000
0001
,
0000
0000
1000
0000
,
0000
0001
0000
0000
,
0010
0000
0010
0000
,
0002
0000
0003
0000
,
1000
0000
0000
0001
,
0000
0000
1000
0000
,
0001
0000
0100
0000
,
0020
0000
0030
0000
,
0100
0000
0001
0000
,
0020
0000
0030
0000
,
0100
0000
1000
0000
,
0001
0000
0000
0000
,
1000
0000
0010
0000
,
0100
0000
0001
0000
,
1000
0000
0001
0000
,
0200
0000
0300
0000
,
0001
0000
1000
0000
,
0002
0000
0003
0000
,
1000
0000
0100
0000
,
2000
0000
3000
0000
,
0001
0000
0100
0000
,
0020
0000
0030
0000
,
1000
0000
0100
0000
,
0020
0000
0030
0000
,
0001
0000
1000
0000
,
0002
0000
0003
0000
,
1000
0000
0100
0000
,
0020
0000
0030
0000
,
0001
0000
0100
0000
,
0020
0000
0030
0000
,
1000
0000
0000
0000
,
0001
0000
0000
0000
,
0100
0000
0000
0000
,
0010
0000
0000
0000
,
1000
0000
0000
0000
,
0001
0000
0000
0000
,
0100
0000
0000
0000
,
0010
0000
0000
0000
,
1000
0000
0000
0000
,
0001
0000
0000
0000
,
0100
0000
0000
0000
,
0010
0000
0000
0000
,
1000
0000
0000
0000
,
0001
0000
0000
0000
,
0010
0000
0000
0000
,
0100
0000
0000
0000
,
1000
0000
0001
0000
,
2000
0000
3000
0000
,
0001
0000
0000
0100
,
0000
0000
0001
0000
,
1000
0000
0001
0000
,
2000
0000
3000
0000
,
0001
0000
0100
0000
,
2002
0000
0000
0000
,
0000
0000
0000
0000
,
0000
0000
0000
0000
,
0000
3003
0000
0000
;

//--------------- dance-single - ----------------
#NOTES:
     dance-single:
     :
     Easy:
     4:
     0,0,0,0,0:
0000
0000
0000
0000
,
0000
0000
0000
0000
,
0000
0000
0000
0000
,
0000
0000
0000
0000
,
0000
0000
0000
0000
,
2000
0000
3002
0000
,
1003
0010
2000
0000
,
3001
0100
0001
0000
,
0100
0010
0000
1000
,
0001
0010
0100
1000
,
0001
0100
0010
0100
,
0100
0000
0001
0001
,
0000
1000
1000
0010
,
0100
0001
0010
0100
,
2000
3001
0001
0000
,
0100
0100
0000
0010
,
0020
0030
1000
0001
,
0001
0000
0200
0300
,
0010
0010
0010
0000
,
2000
3000
0002
0003
,
0100
0100
0100
0000
,
0010
0010
0000
1000
,
1000
0000
0001
0001
,
2000
3000
0020
0030
,
0100
0001
0100
0000
,
0001
0010
0100
0000
,
1000
0001
1000
0000
,
0001
0100
0002
0003
,
0020
0030
0000
0000
,
0100
1000
0001
0000
,
0100
0000
0010
0000
,
1000
0001
1000
0010
,
0100
0001
2000
3000
,
0001
0010
0001
0100
,
0001
0010
0002
0003
,
1000
1000
0010
0010
,
0100
0001
2000
3000
,
0001
0100
0001
0100
,
0010
1000
0200
0300
,
0010
0001
0010
0001
,
1000
0001
2000
3000
,
0001
0100
0001
0010
,
0001
0100
0020
0030
,
1000
0001
0010
0001
,
1000
0010
2000
3000
,
0001
0010
0001
0100
,
0010
1000
0001
0001
,
1000
0001
0000
0100
,
0010
0010
0000
1000
,
0001
0010
0010
0000
,
0100
0100
0000
1000
,
0002
0003
0100
0010
,
0100
0001
0020
0030
,
0100
1000
0001
0000
,
0100
0000
0010
0000
,
1000
1000
0100
0100
,
1000
1000
0001
0000
,
0100
0100
0010
0010
,
1000
0000
0001
0100
,
0001
0000
0010
0000
,
0100
1000
0001
0000
,
0100
0000
0010
0000
,
1000
0001
1000
0000
,
1001
0000
0001
0000
,
1000
1000
1000
0000
,
0010
0000
0000
0100
,
0000
0000
0001
0000
,
2000
3000
0002
0003
,
1000
0001
1000
0000
,
0020
0030
2000
3000
,
2002
0000
0000
0000
,
0000
0000
0000
0000
,
0000
0000
0000
0000
,
0000
3003
0000
0000
;

//--------------- dance-single - ----------------
#NOTES:
     dance-single:
     :
     Medium:
     7:
     0,0,0,0,0:
0000
0000
0000
0000
,
0000
0000
0000
0000
,
0000
0000
0000
0000
,
0000
0000
0000
0000
,
0000
0000
0000
0000
,
2000
3002
0203
0320
,
2030
3002
0203
0320
,
1030
0100
1000
0100
1000
0000
0001
0100
,
0001
0100
0001
0000
1000
0100
1000
0100
,
2000
3002
0203
0320
,
1030
0100
0010
0100
2000
0000
3001
0100
,
0001
0000
0000
1000
0010
1000
0000
0000
,
0000
1000
0001
1000
0002
0000
0203
0000
,
0320
0000
2030
0000
3100
0010
0001
1000
,
0002
0000
1003
0100
1000
0000
0000
0001
,
0100
0001
0000
0000
0000
0100
0010
0100
,
0002
0000
2003
0000
3200
0000
0310
0001
,
0010
0001
0010
0000
0002
0000
2003
0000
,
3002
0000
1003
0100
0010
0001
1000
0000
,
0002
0203
0320
2030
,
3001
0100
0001
0100
0002
0000
0203
0000
,
0301
0010
0100
0000
0000
1000
0001
1000
,
0000
0000
0000
0001
0010
0100
0000
0000
,
2000
3002
0203
0320
,
1030
0100
0010
0100
2000
0000
3002
0000
,
2003
3200
0320
0032
,
1003
0010
1000
0001
0200
0000
0320
0000
,
2030
0000
3002
0000
1003
0010
1000
0010
,
2000
0000
3001
0100
0000
0002
0000
1003
,
0001
0100
1010
1000
,
1010
0000
0000
0000
0010
0000
0000
0000
0001
0000
0000
1000
0000
0000
0001
0000
,
0200
0320
2030
3002
,
1003
0100
1000
0001
0200
0000
0310
0000
,
2000
3002
0203
0320
,
1030
0100
0010
0001
2000
0000
3001
0000
,
1000
0100
0010
0000
0001
0010
0100
0000
,
1000
0001
1000
0010
0200
0000
0301
0000
,
2000
3100
0020
0031
,
1000
0010
0100
0001
0020
0000
0130
0000
,
2000
0000
3001
0001
0100
0000
0010
0010
,
1000
0001
1000
0001
2000
0000
3100
0000
,
0020
0000
0031
1000
0020
0000
1030
0100
,
0010
0001
0010
0001
0020
0000
0230
0000
,
2300
0000
3001
1000
0020
0000
1030
0100
,
0010
0001
0010
0001
2000
0000
3001
0000
,
2000
0000
3001
0100
0020
0000
2030
0000
,
3001
0100
0010
0100
0002
0000
1003
0000
,
0010
0000
0000
0000
1000
0000
0000
0000
0000
0001
0000
0000
1000
0000
0000
0000
,
0010
0000
0000
0000
1000
0000
0000
0001
0000
0010
0000
0000
0100
0000
1000
0000
,
0001
0100
0010
1000
0010
0000
0000
1000
,
0100
1000
0000
0000
0001
0000
0100
0000
,
0020
2030
3002
0203
,
0301
0010
0100
1000
0002
0000
0103
0000
,
0110
0000
0010
0000
1000
2000
3000
0001
,
0002
0003
0100
0100
0010
1000
0010
1000
,
0001
0000
0100
0000
0010
0000
1000
0010
,
1000
0100
0020
0031
,
0100
0010
0100
0001
1000
0100
0010
0000
,
0100
1000
0001
0100
0020
0000
2030
0000
,
3200
0320
0032
1003
,
0001
0010
0100
1000
0020
0000
1030
0000
,
0020
0000
0130
0010
2000
0000
3100
0000
,
1000
0001
1000
0010
0200
0000
0301
0000
,
1001
0100
0010
0100
,
0001
1000
0010
1000
0002
0000
0103
0000
,
0010
1000
0010
1000
0010
0100
0001
0100
,
0001
0100
0001
0010
0001
0010
0001
0010
,
0001
1000
0010
1000
,
0001
0100
0001
0100
0020
0000
1030
0000
,
0002
1003
0100
0010
,
0220
0000
0000
0000
,
0000
0000
0000
0000
,
0000
0000
0000
0000
,
0000
0000
0330
0000
;

//--------------- dance-single - ----------------
#NOTES:
     dance-single:
     :
     Hard:
     9:
     0.57,0,0.113,0.25,0.422:
0000
0000
0000
0000
,
0000
0000
0000
0000
,
0000
0000
0000
0000
,
0000
0000
0000
0000
,
0000
0000
0000
0000
,
2000
3002
0203
0320
,
1030
0100
1000
0100
2000
0000
3002
0000
,
1003
0100
1000
0100
1000
0001
0010
0001
,
0010
0001
0010
0100
1000
0010
0100
0001
,
2000
3020
0230
0302
,
1003
0100
1000
0100
2000
0000
3001
0010
,
0001
0010
0001
1000
0010
1000
0100
1000
,
0100
1000
0100
0010
0002
0000
0203
0000
,
0320
0000
2030
0000
3001
0010
0001
0010
,
0002
0000
1003
0100
0010
0001
1000
0001
,
0010
0100
1000
0001
0100
0001
0010
0100
,
2000
0000
3002
0000
0203
0000
0310
1000
,
0010
1000
0010
1000
0002
0000
0203
0000
,
0320
0000
1030
0100
1000
0100
1000
0001
,
2000
3002
0203
0320
,
1030
0100
0010
0001
2000
0000
3002
0000
,
1003
0010
1000
0010
1000
0001
0100
0001
,
0100
0001
0010
0001
1000
0010
1000
0001
,
2000
3200
0320
0032
,
1003
0100
1000
0100
2000
0000
3002
0000
,
0203
0320
2030
3002
,
1003
0100
0010
0001
2000
0000
3002
0000
,
0203
0000
0320
0000
1030
0100
1000
0010
,
2000
0000
3001
0100
0000
0020
0000
1030
,
0001
0010
0001
0010
0100
1000
0100
1000
,
0001
0000
0100
0000
0001
0000
0100
0000
0010
0000
0000
1000
0000
0000
0001
0000
,
1000
0100
1000
0100
1000
0001
0100
0001
,
0100
0010
0100
0010
0200
0000
0302
0000
,
2003
3002
0203
0302
,
1003
0100
1000
0001
0200
0000
0310
0000
,
1000
0001
0200
0300
0010
1000
0001
0100
,
0001
0010
0001
0010
0002
0000
1003
0000
,
1002
0000
2003
0000
3010
0100
0002
0000
,
1003
0100
1000
0001
0200
0000
0310
0000
,
1000
0001
0100
0100
0010
1000
0001
0001
,
1000
0100
1000
0001
0200
0000
0310
0010
,
1000
0001
0100
0100
0001
1000
0100
0100
,
0010
0001
0010
0001
0020
0000
0031
0001
,
2000
0000
3010
0010
0100
0001
0100
0100
,
0010
1000
0001
1000
0020
0000
1030
1000
,
0002
0000
1003
1000
0100
0010
0001
0001
,
1000
0000
0000
0100
0000
0000
0010
0000
0000
0100
0000
0000
0020
0000
0000
0000
0000
0000
0031
0000
1000
0000
0001
0000
,
1000
0000
0100
0000
0010
0000
0001
0000
1000
0020
0000
0000
0130
0000
0100
0000
,
0001
0000
0010
0000
0200
0000
0000
1300
0000
0010
0100
0000
0001
0000
0001
0000
,
1000
0001
0100
0100
0001
0010
0100
0010
,
0010
0001
0100
0010
1000
0001
0100
0100
,
0010
1000
0000
0010
1000
0010
0000
1000
0000
0001
0000
0000
1000
0000
0001
0000
,
1000
0000
0010
0000
0100
0000
0100
0000
0001
1000
0000
0001
1000
0001
0000
1000
,
0000
0001
0000
1000
0010
0000
0000
0010
0100
0000
0001
0000
1000
0010
0000
0000
,
0100
0000
0001
1000
0001
0000
0100
0000
0001
0000
0100
0000
1000
0000
0100
0000
,
0001
1000
0000
0001
0000
0100
0000
0010
0000
1000
0001
0000
1000
0000
0100
0000
,
0010
0001
0010
0001
1000
0010
0010
1000
,
0001
0100
0010
0010
1000
0001
0010
0010
,
0100
1000
0001
0100
0010
1000
0001
1000
,
0001
0100
0010
0010
1000
0001
0010
0010
,
0100
1000
0001
0100
0010
0010
1000
0100
,
0010
0010
0001
0100
0010
0010
1000
0001
,
0100
0000
0000
0100
0000
0000
0010
0000
0000
1000
0000
0000
0100
0000
0000
0100
0000
0000
0010
0000
0001
0000
1000
0000
,
0002
0203
0320
2030
,
3001
0100
0001
0100
0002
0000
1003
0000
,
0001
0100
0010
1000
0001
1000
0100
0010
,
0001
1000
0010
1000
0001
0010
0100
1000
,
0002
2003
3020
0230
,
0301
0010
0001
0010
0002
0000
2003
0000
,
3002
0203
0320
1030
,
0220
0000
0000
0000
,
0000
0000
0000
0000
,
0000
0000
0000
0000
,
0000
0000
0000
0000
,
0330
0000
0000
0000
;
