#TITLE:Cosmos;
#SUBTITLE:(Outer Space);
#ARTIST:t.A.T.u;
#TITLETRANSLIT:;
#SUBTITLETRANSLIT:;
#ARTISTTRANSLIT:;
#GENRE:;
#CREDIT:;
#MUSIC:Cosmos (Outer Space).ogg;
#BANNER:../Banner.png;
#BACKGROUND:../BG.png;
#CDTITLE:../CDTitleBraeden.png;
#SAMPLESTART:58.742;
#SAMPLELENGTH:13.020;
#SELECTABLE:YES;
#OFFSET:-0.030;
#BPMS:0.000=131.000;
#STOPS:;
#BGCHANGES:;
#FGCHANGES:;

//--------------- dance-single - ----------------
#NOTES:
     dance-single:
     :
     Beginner:
     1:
     0,0,0,0,0:
0000
0000
0000
0000
,
0000
0000
0000
0000
,
0000
0000
0000
0000
,
0000
0000
0000
0000
,
1001
0000
0000
0000
,
0001
0000
0000
0000
,
0100
0000
0000
0000
,
0010
0000
0000
0000
,
1001
0000
0000
0000
,
0001
0000
0000
0000
,
0100
0000
0000
0000
,
0010
0000
0000
0000
,
1001
0000
0000
0000
,
0001
0000
0000
0000
,
0100
0000
0000
0000
,
0010
0000
0000
0000
,
1001
0000
0000
0000
,
1000
0000
0000
0000
,
0001
0000
0000
0000
,
0010
0000
0000
0000
,
1001
0000
0000
0000
,
1000
0000
0000
0000
,
0001
0000
0000
0000
,
0010
0000
0000
0000
,
1001
0000
0000
0000
,
1000
0000
0000
0000
,
0001
0000
0000
0000
,
0010
0000
0000
0000
,
1001
0000
0000
0000
,
0001
0000
0000
0000
,
1000
0000
0000
0000
,
0001
0000
0000
0000
,
0100
0000
0000
0000
,
0010
0000
0000
0000
,
1000
0000
0000
0000
,
0100
0000
0000
0000
,
1000
0000
0000
0000
,
0001
0000
0000
0000
,
0100
0000
0000
0000
,
0010
0000
0000
0000
,
1000
0000
0000
0000
,
0001
0000
0000
0000
,
0010
0000
0000
0000
,
0100
0000
0000
0000
,
1001
0000
0000
0000
,
1000
0000
0000
0000
,
0001
0000
0000
0000
,
0100
0000
0000
0000
,
1001
0000
0000
0000
;

//--------------- dance-single - ----------------
#NOTES:
     dance-single:
     :
     Easy:
     5:
     0,0,0,0,0:
0000
0000
0000
0000
,
0000
0000
0000
0000
,
0000
0000
0000
0000
,
0000
0000
0000
0000
,
2001
0001
0000
3100
,
0020
0001
0000
0130
,
0002
1000
0000
0013
,
0002
0000
1003
0010
,
2010
0001
0000
0010
,
3002
0100
0000
1000
,
0203
0010
0000
0001
,
0302
0000
1003
0001
,
1001
1000
0100
0010
,
0001
0100
0010
1000
,
0100
0010
0001
1000
,
0001
0001
0100
0100
,
0110
0010
1000
0001
,
0010
0100
1000
0001
,
0100
0010
0100
0001
,
1000
0100
0010
0001
,
1001
1000
0010
1000
,
0001
0010
0100
0010
,
0001
1000
0010
0100
,
0001
0001
0100
0100
,
0101
0001
0010
0100
,
1000
0001
1000
0010
,
0100
0001
0010
0100
,
1000
0001
1000
0001
,
2001
0010
0000
0001
,
3002
1000
0000
0010
,
0203
0010
0000
0301
,
1000
0100
0010
0001
,
2001
0001
0000
0010
,
3002
0100
0000
1000
,
0023
1000
0000
0130
,
0001
0010
0100
0010
,
0021
0001
0000
0100
,
0032
1000
0000
0010
,
0203
0010
0000
0301
,
1000
0010
1000
0001
,
2001
0010
0000
0100
,
3020
1000
0000
0100
,
1030
0002
0000
0013
,
0100
2000
0000
3001
,
1001
0200
0000
0310
,
1000
0002
0000
0103
,
0010
2000
0000
3001
,
0100
0010
1000
0001
,
0220
0000
0330
0000
;

//--------------- dance-single - ----------------
#NOTES:
     dance-single:
     :
     Medium:
     8:
     0,0,0,0,0:
0000
0000
0000
0000
,
0000
0000
0000
0000
,
0000
0000
0000
0000
,
0000
0000
0000
0000
,
2001
0000
0010
0000
3010
1000
0010
0000
,
2000
0000
0001
0000
3100
0010
0100
0000
,
0001
0000
1001
0000
1000
0100
0010
0000
,
0002
0000
0000
1000
0000
0000
0013
0000
,
0021
0000
0031
0000
0100
0010
0100
0000
,
0002
0000
1000
0000
0103
0010
1000
0000
,
0020
0000
1000
0000
0130
0001
0010
0000
,
0200
0000
0000
2300
0000
0000
3001
1000
,
1001
0000
0001
0010
0001
0010
0001
0000
,
0100
0000
0010
1000
0010
1000
0010
0000
,
1000
0000
0001
0010
0001
0010
0001
0000
,
1000
0100
0010
0000
0001
0010
0100
0000
,
1100
0000
1000
0010
0100
0010
1000
0000
,
0001
0000
1000
0010
0100
0010
1000
0000
,
0001
0000
1000
0001
0010
0001
1000
0000
,
0001
0010
0100
0000
1000
0100
0010
0000
,
0011
0000
0001
0010
0100
0010
0001
0000
,
1000
0000
0100
0010
0100
1000
0001
0000
,
0100
0000
0001
0010
0001
0010
0001
0000
,
1000
0001
1000
0000
0010
0100
0010
0000
,
1010
0000
1000
0100
0010
0100
1000
0000
,
0001
0000
0100
0010
0100
0001
0100
0000
,
0010
0000
1000
0100
0010
0001
1000
0000
,
0001
0010
0001
0000
1000
0100
1000
0000
,
1001
0000
0002
0000
0100
0000
0010
0023
,
0000
1000
0000
2030
0000
0000
3010
0000
,
2000
0000
0000
3002
0000
0000
0103
0000
,
0010
1000
0100
0010
,
0011
0000
0002
0000
1000
0000
0010
0023
,
0000
1000
0000
0130
0000
0000
0010
0000
,
2000
0000
0000
3200
0000
0000
0310
0000
,
0001
0000
1000
0000
0010
0000
0100
0001
,
0101
0000
0002
0000
1000
0000
0010
0023
,
0000
0230
0000
0301
0000
0000
1001
0000
,
2000
0000
0000
3002
0000
0000
0013
0000
,
0100
1000
0001
0100
,
0110
0000
0020
0000
1000
0000
0100
0230
,
0000
0010
0000
0301
0000
0000
1001
0000
,
2000
0000
0000
3002
0000
0000
0013
0000
,
0200
0000
0000
0320
0000
0000
0031
1000
,
1001
0001
0200
0310
,
2000
0000
0000
3020
0000
0000
0130
0000
,
0002
0000
0000
2003
0000
0000
3100
0000
,
1000
0000
1001
0000
0001
0010
0100
1000
,
2002
0000
3003
0000
;

//--------------- dance-single - XO ----------------
#NOTES:
     dance-single:
     XO:
     Hard:
     11:
     0.449207,0.51338,0.331558,0.449207,0,294,263,31,42,0,0,0.449207,0.51338,0.331558,0.449207,0,294,263,31,42,0,0:
0000
0000
0000
0000
,
0000
0000
0000
0000
,
0000
0000
0000
0000
,
0000
0000
0000
0000
,
1001
0000
0002
0000
1003
0100
0001
0100
,
0010
0001
2000
0000
3001
0100
1000
0100
,
0001
0010
0002
0000
1003
0100
0001
0100
,
0010
0100
2000
3002
1003
0010
0100
0001
,
2001
0000
3002
0000
1003
0100
0001
0100
,
0010
0001
2100
0000
3001
0100
1000
0100
,
0010
1000
0002
0000
1003
0100
0001
0100
,
0010
0001
0010
0001
0100
0010
0100
0001
,
1002
0000
1003
0100
0010
0001
1000
0001
,
1000
0010
0100
0010
0001
0010
0100
0001
,
1000
0001
1000
0100
0001
0100
1000
0001
,
1000
1000
1000
0100
0010
0010
0010
0001
,
1001
0000
1000
0100
1000
0001
0100
0001
,
1000
0001
1000
0100
0010
0100
1000
0000
,
0002
0000
0103
0010
0100
0001
1000
0000
,
0001
0001
0001
0000
0100
0100
0100
0010
,
1010
0000
1000
0100
0001
0100
1000
0001
,
0200
0000
0310
1000
0100
0001
0100
0000
,
1000
0000
0001
0010
0100
0001
0100
1000
,
0001
0001
0001
0000
0100
0100
0100
0010
,
0110
0000
0010
0100
0001
1000
0100
0010
,
0002
0000
1003
0100
0010
0100
0001
0100
,
2000
0000
3010
0100
0010
0100
0001
0000
,
1000
1000
1000
0000
0100
0100
0100
1000
,
1001
0000
2000
0000
0001
0000
0100
3200
,
0000
0320
1000
1030
0001
0000
1001
0000
,
0002
0000
0000
0203
0000
0000
0310
0000
,
1000
0100
0010
0001
1000
0100
0010
0001
,
0011
0000
2000
0000
0001
0000
0100
3100
,
1000
0001
0010
0001
0000
0001
0011
0000
,
0002
0000
0000
0203
0000
0000
0310
0000
,
1000
0100
0001
0100
1000
0001
0010
0100
,
0110
0000
0020
0000
0001
0000
0100
0130
,
0010
1000
0010
2000
0000
3001
1000
0000
,
0200
0000
0000
0320
0000
0000
0031
0000
,
1000
0010
0100
1000
0100
0010
0100
0001
,
0011
0000
0002
0000
0010
0000
1000
2003
,
0000
3001
0010
0001
0000
0100
0001
0000
,
2000
0000
0001
3002
0000
0000
0103
0000
,
0020
0000
0100
0130
0000
0000
1000
0001
,
1001
0000
1000
0000
0001
0000
1000
0100
,
0010
0001
1000
0100
0010
0001
0010
0000
,
0001
0100
0010
1000
0000
1000
1001
0000
,
1000
0100
0010
0100
1000
0001
1000
0010
,
1001
0000
0000
0000
;

//--------------- dance-double - XO ----------------
#NOTES:
     dance-double:
     XO:
     Beginner:
     11:
     0,0,0,0,0:
00000000
00000000
00000000
00000000
,
00000000
00000000
00000000
00000000
,
00000000
00000000
00000000
00000000
,
00000000
00000000
00000000
00000000
,
00011000
00000000
00020000
00000000
00031000
01000000
00100000
01000000
,
00001000
00100000
00010000
00000000
10000000
01000000
00100000
00010000
,
00001000
00000100
00000020
00000000
00000031
00000100
00000010
00001000
,
00000001
00000100
00000010
00000001
00000010
00000100
00000001
00001000
,
00001002
00000000
00000103
00000000
00000010
00010000
00000010
00010000
,
00001000
01000000
00200000
00000000
10300000
01000000
00010000
01000000
,
00100000
00010000
02000000
00000000
03001000
00010000
00001000
00100000
,
00010000
10000000
01000000
00100000
00010000
01000000
00010000
10000000
,
10010000
00000000
10000000
01000000
00010000
01000000
10000000
00000000
,
00010000
00000000
10000000
00100000
00010000
00100000
10000000
00000000
,
00010000
00000000
00100000
00010000
00001000
00010000
00100000
00000000
,
00001000
00010000
00001000
00000000
00010000
00000100
00001000
00000000
,
00001001
00000000
00000001
00000010
00001000
00000010
00000001
00000000
,
00001000
00000000
00001000
00000100
00000001
00000100
00001000
00000000
,
00000001
00000000
00001000
00000010
00001000
00000010
00001000
00000000
,
00000001
00001000
00000100
00000000
00000010
00000001
00001000
00000000
,
00001001
00000000
00000001
00000100
00001000
00010000
00100000
00000000
,
10000000
00000000
10000000
01000000
00010000
00001000
00000010
00000000
,
00000001
00000000
00000100
00000010
00000100
00000001
00000100
00000000
,
00000010
00010000
00000010
00000000
00010000
00001000
00010000
00000000
,
00011000
00000000
00001000
01000000
00010000
00001000
00010000
01000000
,
00100000
00000000
10000000
01000000
00100000
00010000
00001000
00000000
,
00000100
00000000
00000010
00000001
00000010
00000001
00000010
00000000
,
00000001
00001000
00000100
00000000
00000010
00000001
00001000
00000100
,
00020100
00000000
00001000
00000000
00000010
00000000
00001000
00032000
,
00000000
00100000
00000000
00013000
00000000
00000000
00011000
00000000
,
00002000
00000000
00000000
01000000
00000000
00000000
00103000
00000000
,
00010000
10000000
01000000
00100000
00010000
00100000
01000000
10000000
,
10010000
00000000
00020000
00000000
01000000
00000000
00100000
00100000
,
00000000
10000000
00000000
00130000
00000000
00000000
00001000
00000000
,
00020000
00000000
00000000
00000010
00000000
00000000
00031000
00000000
,
00010000
00000100
00001000
00000010
00000100
00000001
00001000
00000100
,
00001100
00000000
00020000
00000000
00000100
00000000
00001000
00001000
,
00000000
00000010
00000000
00031000
00000000
00000000
00010000
00000000
,
00002000
00000000
00000000
10000000
00000000
00000000
00013000
00000000
,
00100000
00001000
00010000
01000000
00010000
00001000
01000000
00010000
,
01010000
00000000
02000000
00000000
00001000
00000000
00010000
00010000
,
00000000
00000100
00000000
03100000
00000000
00000000
01100000
00000000
,
20000000
00000000
00000000
00001000
00000000
00000000
30200000
00000000
,
10000000
00000000
00000000
01300000
00000000
00000000
00001000
00010000
,
00010010
00000000
00010000
00000010
00001000
00000010
00000100
00000000
,
00000001
00001000
00000100
00001000
00000001
00001000
00000100
00000000
,
00001000
00000001
00000010
00000100
00001000
00010000
00100000
00000000
,
01000000
10000000
01000000
00010000
00001000
00000010
00000001
00001000
,
00001001
00000000
00000000
00000000
;
