#TITLE:Connected;
#SUBTITLE:;
#ARTIST:Kendi;
#TITLETRANSLIT:;
#SUBTITLETRANSLIT:;
#ARTISTTRANSLIT:;
#GENRE:;
#CREDIT:Braeden;
#MUSIC:Connected Kendi.ogg;
#BANNER:connected-ban.png;
#BACKGROUND:connected-bg.png;
#CDTITLE:;
#SAMPLESTART:40.933;
#SAMPLELENGTH:12.000;
#SELECTABLE:YES;
#OFFSET:-0.234;
#BPMS:0.000=128.000
,137.000=192.000
,138.000=128.000
;
#STOPS:137.000=0.156;
#DISPLAYBPM:128.000;
#BGCHANGES:;
#FGCHANGES:;

//--------------- dance-single - ----------------
#NOTES:
     dance-single:
     :
     Beginner:
     4:
     0.204,0.239,0.173,0.009,0:
0000
0000
0000
0000
,
0000
0000
0000
0000
,
1001
0000
1000
0000
,
0001
0000
1000
0000
,
0100
0100
0000
0010
,
0000
0001
0001
0001
,
0000
1000
1000
1000
,
0000
0100
0100
0100
,
0000
1001
0000
0001
,
0000
1000
1000
1000
,
0000
1001
0000
0001
,
0000
0100
0100
0100
,
0000
0010
0010
0010
,
0000
0110
0000
1001
,
0000
1000
1000
1000
,
0000
0001
0001
0001
,
0000
0100
0100
0000
,
0100
0100
0000
0000
,
0000
0000
0110
0000
,
0110
0000
1001
0000
,
1001
0000
0100
0100
,
0000
0010
0010
0010
,
0010
0010
0000
0100
,
0000
1000
0000
0001
,
0000
1001
0000
0100
,
0000
0010
0000
0100
,
0000
0010
0010
0010
,
0000
0000
0100
0100
,
0000
1000
1000
1000
,
0000
0000
0001
0001
,
0000
0100
0100
0100
,
0000
0000
0010
0010
,
0000
0100
0100
0100
,
0000
0000
0001
0001
,
0000
1001
1001
0000
,
0001
0000
1000
1000
,
1000
0000
0100
0000
,
0100
0000
0010
0000
,
0010
0000
0001
0000
,
0001
0000
1000
0000
,
0001
0000
1001
0000
,
0000
1001
1001
1001
,
0000
0100
0000
0010
,
0000
0001
0001
0001
,
0000
1000
1000
1000
,
0000
0100
0000
0100
,
0000
0010
0010
0010
,
0000
0001
0001
0001
,
0000
1000
1000
0000
,
0001
0002
0000
0000
,
0003
0001
0001
0001
,
0000
1000
1000
1000
,
0000
1001
0000
0100
,
0000
0010
0010
0010
,
0000
0110
0000
0100
,
0000
1000
1000
1000
,
1000
1000
0000
0001
,
0000
0000
0000
0000
,
0000
1001
0000
0000
;

//--------------- dance-single - ----------------
#NOTES:
     dance-single:
     :
     Easy:
     8:
     0.426,0.425,0.164,0.346,0:
0000
0000
0000
0000
,
0000
0000
0000
0000
,
1001
0001
1000
0100
,
0010
0001
0100
0010
,
1000
0002
0000
1003
,
0100
0010
0001
0100
,
0010
1000
0001
0010
,
0100
0000
1000
0001
0100
0000
0010
0000
,
1000
0000
0001
0200
0000
0000
0310
0000
,
0000
1010
0110
0101
,
0000
0000
1000
0200
0000
0000
0310
0000
,
0001
0000
0100
1000
0100
0000
0001
0000
,
0010
0000
0100
1000
0001
0000
1000
0000
,
0001
0000
0010
0002
0000
0000
1003
0000
,
1000
0000
0001
1000
0100
0010
0001
1000
,
0100
1000
0010
0100
0010
1000
0001
0000
,
0001
0000
1000
0010
0100
0001
0000
0000
,
0101
0020
0000
0000
,
0030
0000
1000
0000
0100
0010
0001
0000
,
0001
0010
0100
1000
0010
0200
0000
0302
,
0000
0023
0000
0130
1000
0010
1000
0000
,
0001
0010
0100
1000
0010
0200
0000
0302
,
0000
0023
0000
0130
1000
0010
0100
0001
,
0010
0200
0000
2300
0000
3002
0000
0203
,
0000
0320
0000
1030
0010
0100
0001
0020
,
0000
0230
0000
2300
0000
3020
0000
0230
,
0000
1300
0100
0000
0010
0000
0011
0000
,
0001
1000
0010
0100
,
0110
0001
1000
0100
,
1001
0001
1000
0001
,
0101
0001
0010
0100
,
1100
1000
0010
0100
,
0101
0001
0010
0100
,
1100
0000
1000
0001
,
0100
0000
1001
0000
0000
0000
0001
1000
,
0001
0000
0100
0000
0010
0000
1000
0010
,
1000
0000
0100
0000
1000
0000
0010
0100
,
0010
0000
1000
0001
1000
0100
0010
0001
,
0010
0000
0100
1000
0100
0000
0010
0000
,
0001
0000
0100
0010
0000
0000
1000
0000
,
1000
0000
0001
1000
0000
0000
0100
0000
,
1000
1100
0110
0011
,
0000
0000
1000
0001
0000
0000
0100
0010
,
0100
0000
0100
1000
0001
1000
0010
0100
,
0010
0000
0010
1000
0100
1000
0001
0010
,
0100
0000
0001
1000
0000
0000
1000
0000
,
0001
0000
1000
0100
0010
0001
1000
0100
,
0010
0001
1000
0100
0010
0001
1000
0000
,
0100
0000
0010
0001
0100
0010
0000
0000
,
1001
0200
0000
0000
,
0000
0000
0310
0000
0001
1000
0001
0000
,
0010
0001
0010
0100
1000
0200
0000
0320
,
0000
0032
0000
0103
0010
0001
1000
0000
,
0010
0100
0001
0100
0010
2000
0000
3020
,
0000
2030
0000
3100
0010
0002
1003
0010
,
0100
0002
0000
0023
0000
0230
0000
2300
,
0000
3002
0000
1003
0001
0100
0010
1000
,
0000
0002
0000
0023
0000
0230
0000
2300
,
0000
3010
0110
0000
0000
0000
0000
0000
;

//--------------- dance-single - ----------------
#NOTES:
     dance-single:
     :
     Medium:
     12:
     0.524,0.558,0.091,0.255,0.237:
0000
0000
0000
0000
,
0000
0000
0000
0000
,
1001
0000
0000
0000
0001
0000
1000
0000
0100
0000
0010
0000
0100
0000
0000
1000
,
0000
1000
0000
0000
0100
0000
1000
0000
0100
0000
0001
0000
0100
0000
0000
0010
,
0000
0001
0000
0000
0002
0000
0000
0000
0000
0000
0000
0000
1003
0000
0010
0000
,
0100
0000
0001
0100
1000
0100
0010
0000
,
1010
0000
0000
0000
1000
0000
0100
0000
0010
0000
0000
0000
0001
0000
0000
0010
,
0000
0000
0000
0000
1000
0000
0100
0000
0001
0000
0100
0000
1000
0000
0000
1000
,
0000
0000
0001
0200
0000
0000
0310
0000
,
1010
0000
1000
1000
0010
0010
0100
0100
,
0001
0000
0101
0100
0010
0000
1000
0000
,
0001
0000
0100
0001
0100
0001
0100
0000
,
0110
0000
0010
1000
0100
0000
0010
0000
,
0001
0000
0100
0020
0000
0000
1030
0000
,
0010
0000
1000
0000
0100
0000
1000
0000
0100
0000
0010
0000
0001
1000
0010
0100
,
0001
0000
1000
0000
0010
0100
0010
0100
0010
0000
1000
0000
0001
0100
0010
1000
,
0000
0010
0000
0000
1000
0000
0010
0000
0100
0000
0001
0000
0000
0000
0010
0100
,
1000
0000
0100
0000
0010
0001
0020
0000
0000
0000
0000
0000
0000
0000
0000
0000
,
0000
0000
0130
0000
0100
0010
0001
0000
,
0001
1000
0100
0001
0100
2000
0000
3002
,
0000
0013
0011
0001
1000
0010
1000
0000
,
0001
0010
0100
1000
0010
0200
0000
0302
,
0000
0013
0011
0100
1000
0010
0100
0001
,
0010
0200
0000
2300
0000
3002
0000
0203
,
0000
0310
1010
1000
0010
0100
0001
0020
,
0000
0230
0000
2300
0000
3020
0000
0230
,
0000
0000
1300
0000
0100
0000
0010
0000
0001
0000
0100
0000
0010
1000
0010
1000
,
0000
0001
0000
0000
1000
0000
0010
0000
0100
0000
0001
0000
1000
0100
0010
0001
,
0000
0100
0000
0000
0001
0000
0010
0000
0100
0000
1000
0000
0001
0100
0001
0100
,
0000
0010
0000
0000
0000
0000
1000
0000
0100
0000
0010
0000
0001
0010
0001
0010
,
0000
0100
0000
0000
1000
0000
0010
0000
1000
0000
0001
0000
0010
0100
0010
0001
,
0000
0100
0000
0000
0000
0000
0010
0000
1000
0000
0100
0000
0010
0001
1000
0100
,
0000
1000
0000
0000
0010
0000
0100
0000
0001
0000
0100
0000
0001
0010
0100
1000
,
0000
0010
0000
0000
0000
0000
0100
0000
0001
0000
0000
0000
0100
0000
0000
0000
,
0010
0000
0000
0000
1001
0000
0000
0000
0001
0000
1000
0000
0010
0000
0000
0100
,
0000
0001
1000
0100
0001
0100
1000
0001
,
0100
0000
0000
0000
0001
0000
0010
0000
1000
0000
0010
0000
0100
0000
0000
1000
,
0000
0010
0000
0000
1000
0000
0100
0000
0001
0000
0100
0000
1000
0000
0010
0000
,
1000
0000
0001
0000
1000
0000
0100
0000
0001
0000
0100
0000
0010
0000
0000
0001
,
0000
1000
0000
0000
0100
0000
0010
0000
0011
0000
0000
0000
1000
0000
0100
0000
,
0001
0100
1000
0001
0000
0000
0100
0000
,
0001
0101
0110
1010
,
0000
0000
0001
1000
0001
0000
0010
0100
,
0010
0000
0001
0100
1000
0100
0001
0100
,
0010
0000
1000
0001
1000
0001
1000
0010
,
0100
0000
0000
0000
0001
0000
1000
0000
0000
0000
0000
0000
0001
0000
1000
0100
,
0000
0010
0000
0000
0001
0000
0010
0000
0001
0000
0010
0000
0100
1000
0100
1000
,
0100
0000
0010
0000
0001
1000
0100
1000
0100
0000
1000
0000
0001
0010
0100
1000
,
0000
0100
0000
0000
0010
0000
0100
0000
0010
0000
0001
0000
0000
0000
1000
0001
,
1000
0000
0010
0000
0100
0001
0020
0000
0000
0000
0000
0000
0000
0000
0000
0000
,
0000
0000
0031
0000
1000
0001
1000
0000
,
0100
0001
0100
0010
0001
0020
0000
0230
,
0000
0301
0010
0100
1000
0100
1000
0000
,
0001
0100
0001
0010
0100
2000
0000
3200
,
0000
2300
0000
3010
0100
0002
1003
0100
,
0010
0001
0100
0010
1000
0100
0010
0001
,
0010
0001
1000
0001
0010
0100
1000
0100
,
0000
0020
0000
0032
0000
2003
0000
3002
,
0000
1003
1001
0000
0000
0000
0000
0000
;

//--------------- dance-single - FS XO- SJ ----------------
#NOTES:
     dance-single:
     FS XO- SJ:
     Hard:
     16:
     0.697,0.85,0.31,0.274,0.661:
0000
0000
0000
0000
,
0000
0000
0000
0000
,
1001
0000
1000
0001
1000
0000
0001
0010
0100
1000
0100
0010
0001
0000
1000
0100
,
0100
0001
1000
0010
1000
0000
0001
0010
0001
0100
0010
1000
0001
0000
1000
0100
,
0100
0001
1000
0000
0001
0000
0100
0000
0101
0000
0001
0000
1000
0100
0010
0001
,
0010
0000
0000
0100
0000
0000
0000
0000
0000
1000
0000
0000
0001
0000
0000
0010
0000
0000
0100
0000
0000
0000
0000
0000
1100
0000
0000
0000
0000
0000
1000
0000
0000
0100
0000
0000
1000
0000
0000
0000
0010
0000
0000
0000
1000
0000
0000
0000
,
0010
0100
0000
0100
0001
0000
0010
0001
0010
0000
0100
1000
0001
0100
0010
1000
,
0001
0100
0010
0000
1000
0100
1000
0100
0010
0001
0010
0001
0010
0100
1000
0100
,
0100
0010
1000
0001
0100
0010
0100
0010
1000
0000
0001
0000
1000
0000
0001
1000
,
0010
0000
1000
0100
1000
0000
0100
0000
0001
0000
0100
0000
1000
0000
0001
0100
,
0000
0010
0100
0000
0001
0000
1000
0000
0001
0100
0001
0010
0100
1000
0010
0100
,
0001
0000
0000
0000
1000
0100
1000
0000
0001
0010
0001
0100
0010
1000
0010
1000
,
0001
0000
1000
0000
0001
0010
0100
1000
0001
0100
0010
0000
1000
0001
0100
0010
,
0010
0001
0000
1000
0100
1000
0001
0000
1001
0000
0000
0000
1000
0000
1000
0100
,
0000
0100
0010
0001
0010
0000
0001
0000
0100
0000
0010
0000
1000
0010
1000
0010
,
1000
0000
0100
0000
0010
0001
0100
0010
1000
0000
0010
0000
0100
0001
0100
0010
,
0000
1000
0000
0000
0010
0000
0100
0000
0001
0100
0001
0000
1000
0000
0010
1000
,
0010
0000
0100
0000
0001
0010
0200
0000
0000
0000
0000
0000
0000
0000
0000
0000
,
0000
0000
0000
0000
1300
0000
0010
1000
0010
0000
0100
0001
0100
0000
0001
0010
,
0100
0000
1000
0100
0010
0000
0001
1000
0001
0000
1000
0010
1000
0010
0100
0001
,
0100
0001
0100
0000
0110
0000
0010
0000
1000
0000
0100
0010
0001
0000
1000
0010
,
1000
0001
1000
0010
0100
0001
0010
0001
0010
0000
0001
0100
0010
1000
0001
1000
,
0100
1000
0001
0000
0101
0000
0100
0010
1000
0001
1000
0100
0010
0001
0100
0010
,
1000
0001
0010
0001
0100
0010
1000
0001
0100
0001
1000
0010
0100
0001
0100
0010
,
1000
0010
1000
0000
1010
0000
0100
0000
0001
0000
0100
0000
0010
0000
1000
0001
,
1000
0200
0000
0320
0000
0230
0000
2300
,
0000
0000
3100
0000
0110
0000
0010
0000
0011
0000
0001
0000
1000
0100
1000
0100
,
00M0
0100
0000
0000
0001
0000
0100
0000
0001
0000
1000
0000
0001
0010
0001
0100
,
M000
0100
0000
0000
1100
0000
1000
0000
1001
0000
0001
0000
1000
0001
0100
0010
,
M000
0010
0000
0000
0001
0000
0001
0000
0100
0000
0010
0000
1000
0001
0100
0010
,
M000
0010
0000
0000
0011
0000
0010
0000
1001
0000
0001
0000
1000
0001
1000
0010
,
0M00
0010
0000
0000
0001
0000
1000
0000
0010
0000
1000
0000
0001
1000
0100
0010
,
000M
0010
0000
0000
1100
0000
1000
0000
1001
0000
0001
0000
1000
0100
1000
0010
,
000M
0010
0000
0000
0001
0000
0100
0000
0001
0000
0000
0000
0100
0000
0000
0000
,
0001
0000
1000
0001
1000
0000
0000
0000
1001
0000
0001
0000
1000
0100
0010
0100
,
0001
0000
0100
0000
1000
0010
0100
1000
0100
0000
0010
1000
0100
0010
0001
0100
,
0100
1000
0000
0100
1000
0100
0010
0000
0011
0000
0001
0000
0010
1000
0000
1000
,
0100
1000
0000
0000
0010
0100
0001
0000
1000
0010
0100
0010
0001
0010
0100
0001
,
1000
0010
1000
0010
1000
0100
0010
0100
0100
0001
0010
0000
0001
0100
0010
0100
,
M000
0100
0000
1000
0010
0000
1000
0000
1002
0000
1003
0000
0100
0010
0001
0010
,
0M00
0010
0000
1000
0002
0000
1003
0000
0MM0
0000
1000
0010
1000
0010
1000
0001
,
0100
0000
0010
0000
1000
0000
0010
0000
0100
0000
0010
0000
1000
0000
0100
1000
,
0000
0001
1000
0000
1000
0000
0001
0000
1000
0100
1000
0010
0100
0001
0010
0100
,
1000
0000
0000
0000
0001
0100
0001
0000
1000
0010
1000
0100
0010
0001
0010
0001
,
1000
0000
0001
0000
1000
0010
0100
0001
1000
0100
0010
0000
0001
1000
0100
0010
,
0010
1000
0000
0001
0100
0001
1000
0000
1001
0000
0000
0000
0001
0000
0001
0100
,
0000
0100
0010
1000
0010
0000
1000
0000
0100
0000
0010
0000
0001
0010
0001
0010
,
0001
0000
0100
0000
0010
1000
0100
0010
0001
0000
0010
0000
0100
1000
0100
0010
,
0000
0001
0000
0000
0010
0000
0100
0000
1000
0100
1000
0000
0001
0000
0010
0001
,
0100
0000
0010
0000
1000
0010
2000
0000
0000
0000
0000
0000
0000
0000
0000
0000
,
0000
0000
0000
0000
3001
0000
1000
0010
1000
0000
0001
0100
0001
0000
1000
0100
,
0010
0001
0100
0010
1000
0100
0001
0100
0010
0001
1000
0100
0010
0001
1000
0001
,
1000
0100
1000
0000
1100
0000
0100
0001
0010
0000
0100
1000
0100
0000
0010
0001
,
0010
0100
1000
0010
0100
0001
0010
0100
1000
0000
0001
0010
0100
1000
0100
0010
,
0001
0100
0010
0100
0010
0000
1000
0010
1000
0000
0010
0100
0010
0000
1000
0010
,
1000
0000
0001
0100
0001
0000
1000
0010
0100
0000
0001
0010
0100
0000
1000
0100
,
1000
0000
0001
0000
0101
0000
0100
0000
0001
0000
0100
0000
0010
0000
0100
0001
,
0100
0002
0000
0203
0000
0320
0000
2030
,
0000
3001
1001
0000
0000
0000
0000
0000
;
