#TITLE:Chromatic Blitz;
#SUBTITLE:;
#ARTIST:Helix Eternal;
#TITLETRANSLIT:;
#SUBTITLETRANSLIT:;
#ARTISTTRANSLIT:;
#GENRE:;
#CREDIT:Braeden;
#MUSIC:Chromatic Blitz.ogg;
#BANNER:;
#BACKGROUND:;
#CDTITLE:;
#SAMPLESTART:31.119;
#SAMPLELENGTH:12.000;
#SELECTABLE:YES;
#OFFSET:-0.034;
#BPMS:0.000=190.000;
#STOPS:;
#DISPLAYBPM:190.000;
#BGCHANGES:;
#FGCHANGES:;

//--------------- dance-single - ----------------
#NOTES:
     dance-single:
     :
     Beginner:
     6:
     0.119,0.074,0.09,0,0:
0000
0000
0000
0000
,
0000
0000
0000
0000
,
0000
0000
0000
0000
,
0000
0000
0000
0000
,
1000
0001
0000
0100
,
0010
0000
1000
0100
,
0010
0001
1000
0010
,
0200
0000
0302
0003
,
1001
1000
0000
0001
,
0001
0000
0100
0010
,
0100
0001
1000
0001
,
1000
0000
0000
0001
0000
0000
0100
0000
,
0010
0010
0000
1000
,
0001
0000
0100
0010
,
0100
0001
0010
0001
,
2000
0000
3001
0100
,
1001
1000
0000
0001
,
0200
0000
0000
0301
,
1000
0010
1000
1000
,
0002
0203
0320
2030
,
3001
0100
0010
1000
,
0020
0030
2000
3000
,
0100
0010
0001
1000
,
0002
0000
2003
3000
,
0001
0100
0000
0010
,
1000
0000
0100
0010
,
0001
0100
0010
1000
,
0001
0000
0000
1000
0000
0000
0001
0000
,
0010
0010
0000
0100
,
0100
0000
0010
0001
,
0100
0010
1000
0001
,
1000
0100
0010
0001
,
1000
0010
0000
0100
,
0001
0000
0100
0010
,
1000
0100
0010
0001
,
1000
0010
1000
0001
,
0010
0010
0000
0100
,
0010
0000
0001
0100
,
0001
0010
0001
0100
,
0010
0100
0000
0001
,
1000
0000
0000
0000
,
0002
0000
0000
0000
,
1003
0100
1000
0100
,
0010
0001
0010
0001
,
0100
0010
0100
0001
,
1000
0100
0010
0100
,
1000
0001
1000
0010
,
1000
0001
0010
0001
,
0100
0010
0100
0001
,
1000
0100
0010
0001
,
1000
0010
0100
0001
,
0010
0100
1000
0100
,
0010
0001
1000
0010
,
0100
0001
0010
0100
,
1000
0001
1000
0010
,
1000
0001
0010
0001
,
0100
0010
1000
0100
,
0010
0001
1000
0010
,
1000
0000
0001
0000
,
0100
0000
0001
0000
,
1000
0000
0010
0000
,
0100
0000
0001
0000
,
2000
0000
0000
0000
,
3002
0000
0000
0000
,
0103
0000
0000
0000
,
0020
0000
0000
0000
,
1030
0001
0000
0100
,
0010
0000
1000
0100
,
0010
0001
0010
0100
,
1000
0000
0000
0001
0000
0000
0100
0000
,
0010
0010
0000
1000
,
0001
0000
0010
0100
,
1000
0001
0100
0010
,
1000
0000
0000
0010
0000
0000
1000
0000
,
0001
0001
0000
0100
,
0100
0000
0010
1000
,
0100
1000
0001
1000
,
0010
0000
0000
0100
0000
0000
0001
0000
,
0010
0100
0000
1000
,
0001
0000
0010
0100
,
1000
0001
0100
0010
,
2000
0000
3001
0100
,
2002
0000
3003
0000
;

//--------------- dance-single - ----------------
#NOTES:
     dance-single:
     :
     Easy:
     11:
     0.362,0,0.162,0,0:
0000
0000
0000
0000
,
0000
0000
0000
0000
,
0000
0000
0000
0000
,
0000
0000
0000
0000
,
1000
0001
1000
0001
0000
0000
0100
0010
,
0100
0010
0000
0000
1000
0000
0001
0000
,
0100
0010
0100
0010
1000
0001
1000
0000
,
0002
0000
0203
0000
,
0310
1000
0010
1000
0000
0000
0001
0010
,
0001
0010
0000
0000
0001
0000
1000
0000
,
0001
0010
0100
1000
0001
0100
0010
0000
,
1000
0000
0001
0100
0000
0001
0100
0000
,
0001
0010
0100
1000
0000
0000
0001
0010
,
0100
1000
0000
0000
0001
0000
0100
0000
,
0001
0010
0001
1000
0001
0010
0001
0000
,
1000
0000
0001
0000
1000
0100
0010
0001
,
1000
0100
1000
0100
0000
0010
0001
0000
,
2000
0001
0100
3010
,
0100
0000
1000
0000
0001
1000
0001
1000
,
0020
0230
0302
2003
,
3001
0010
0001
0010
0000
0001
1000
0000
,
0001
0010
0001
0000
1000
0100
1000
0000
,
0001
0100
0010
1000
,
0001
0010
0100
1000
0100
0010
0001
1000
,
0001
0000
0100
0001
0000
0100
0001
0000
,
1000
0000
0001
0010
,
0100
1000
0100
1000
0001
0010
0001
0000
,
1000
0000
0001
0100
0000
0001
0100
0000
,
0001
0010
0100
1000
0000
0000
0001
0100
,
0010
1000
0001
0100
,
0001
0010
0001
0000
1000
0100
1000
0000
,
0001
0010
0001
0010
0100
1000
0100
1000
,
0001
0100
0001
0100
0000
0000
0010
1000
,
0010
1010
1000
0001
,
0100
0010
0100
0000
0001
1000
0001
0000
,
1000
0000
0100
0010
0000
0001
0010
0000
,
0100
1000
0100
1000
0000
0000
0001
0010
,
0001
0000
0010
0001
,
1000
0100
1000
0100
0010
0001
0010
0000
,
0001
0100
0001
0000
1000
0010
1000
0000
,
0001
0100
0000
0010
,
1000
0001
1000
0001
,
1000
0000
1001
0000
0001
0100
0001
0010
,
0001
0000
1001
0000
1000
0100
0010
0001
,
0100
0000
0101
0000
0001
0010
0100
1000
,
0010
0000
1010
0000
1000
0010
0100
0001
,
1000
0000
1001
0000
0001
0010
0100
0010
,
0001
0000
1000
0001
1000
0100
1000
0010
,
1000
0001
0010
0000
0001
0100
0001
0010
,
0001
0000
1001
0000
1000
0010
1000
0000
,
1000
0000
0010
0000
1000
0010
0000
1000
,
0010
0000
0100
0000
0001
0010
0001
0100
,
0001
0000
1000
0000
0100
0010
0100
0010
,
0100
0000
1000
0000
0010
0100
0001
0100
,
0010
0000
1000
0000
0001
0010
0001
0100
,
0001
0000
1000
0100
1000
0000
0001
0000
,
0010
0100
0010
0000
0001
0000
1000
0000
,
0010
0100
0010
0000
1000
0001
1000
0001
,
1000
0100
1100
1000
,
0001
1001
1000
0100
,
0010
0001
0101
0100
,
0010
1000
0010
0100
,
0002
1000
0000
0203
0010
0000
0000
0000
,
0320
0000
1030
0000
1000
0200
0000
0000
,
0000
0310
0000
0100
1000
0000
0001
0000
,
0010
0001
2000
3000
,
0001
1000
0001
1000
0000
0000
0100
0010
,
0100
1000
0001
1000
,
0001
0010
0001
0000
1000
0100
1000
0000
,
0001
0000
0100
0010
0000
1000
0010
0000
,
0100
0001
0100
0001
0000
0000
1000
0100
,
1000
0000
0100
0010
,
0001
0100
0001
0000
1000
0100
1000
0000
,
0001
1001
1000
1100
,
0100
0010
0100
1000
0000
0001
0100
0010
,
0100
0110
0010
1000
,
0001
0100
0010
1000
0100
1000
0100
0000
,
1000
0000
0001
0010
0000
0001
0100
0000
,
0010
1000
0010
1000
0000
0100
0010
0100
,
1000
1001
0001
0010
,
0100
1000
0100
1000
0010
0100
0001
0000
,
1000
0000
0001
0100
0010
1000
0010
0100
,
0020
0000
0030
0000
;

//--------------- dance-single - XO+ RH ----------------
#NOTES:
     dance-single:
     XO+ RH:
     Medium:
     14:
     0.651,0,0.036,0.243,0.036:
0000
0000
0000
0000
,
0000
0000
0000
0000
,
0000
0000
0000
0000
,
0000
0000
0000
0000
,
1000
0001
1000
0001
0000
0000
0100
0010
,
0100
0010
0000
0000
1000
0100
0010
0001
,
1000
0010
0100
0001
1000
0100
1000
0010
,
4000
0000
3004
0000
,
1003
0100
0001
0100
0000
1000
0010
0001
,
0010
0000
1000
0000
0001
0100
0001
0100
,
0001
0010
0100
1000
0010
0100
0001
0000
,
2000
0000
3010
1000
0000
0100
1000
0000
,
0001
0010
1000
0010
0000
0000
0001
0100
,
1000
0100
0001
0000
1000
0100
1000
0100
,
0010
0001
0010
0001
0100
0010
0100
0000
,
0001
0010
0100
1000
0001
0010
1000
0010
,
0100
1000
0100
1000
0000
0001
0001
0000
,
4000
0000
3040
0000
0130
0001
0100
0000
,
0001
0000
0010
0000
0100
0100
1000
0001
,
4000
3004
0403
0340
,
1030
0001
1000
0010
0000
0010
0100
0001
,
1000
0100
1000
0100
1000
0000
0000
0000
0001
1000
0001
1000
0001
0000
0000
0000
,
1000
0100
1000
0100
0010
0001
1000
0000
,
0001
0100
0010
1000
0001
0010
0001
1000
,
0001
0100
1000
0100
0001
1000
0001
0100
,
1000
0000
0000
0100
0010
0100
0001
1000
,
0001
0010
0100
1000
0001
0100
0010
0000
,
1000
0000
0001
0100
0000
0001
0010
0000
,
0001
0100
1000
0100
0001
0000
0100
0010
,
0001
0000
0010
0000
0100
0001
0010
0100
,
1000
0010
1000
0010
0100
0001
0100
0000
,
0001
0010
0100
1000
0001
0010
0001
0100
,
0001
0010
0100
0000
1000
1000
0001
0100
,
0001
0100
0010
1000
0001
0010
0001
0010
,
0100
1000
0001
0100
0001
0010
0001
0000
,
2000
0000
3100
0100
0100
0000
0010
0000
,
0001
0100
0100
0010
0000
0100
0100
0001
,
1000
0000
1001
0000
0001
0100
0010
0100
,
0001
1000
0001
1000
0010
1000
0001
0000
,
0100
0010
0010
0000
4000
0000
3001
0000
,
1001
0000
0000
0000
0001
0000
0000
0100
0000
0000
0010
0000
1000
0000
0000
0000
,
0001
0100
0001
0100
0010
1000
0010
1000
,
0001
0100
0001
0100
1000
0100
0010
0100
,
0001
0010
0100
1000
0001
0100
0010
1000
,
0001
0100
0010
0001
0010
1000
0001
0100
,
0001
1000
0100
0010
1000
0010
0001
1000
,
0001
0100
0001
0100
1000
0100
0010
0100
,
0001
1000
0010
1000
0001
0010
0100
1000
,
0001
0010
1000
0010
0100
0010
0001
1000
,
0001
0100
0010
0001
0010
1000
0001
0100
,
0001
0010
0001
0010
1000
0010
1000
0010
,
0001
0100
0001
0100
1000
0100
0001
1000
,
0001
0100
0001
0010
0001
0100
0001
0010
,
0100
1000
0100
0010
0100
1000
0100
0010
,
0001
1000
0100
1000
0001
0010
0100
1000
,
0001
0100
0010
1000
0100
0010
0001
1000
,
0001
0100
0010
0100
1000
0100
0010
0100
,
0001
0010
1000
0010
0100
0010
0100
0010
,
0001
0000
0000
0000
0000
0000
0000
0000
1000
0000
0000
0000
0000
0000
0000
0000
0001
0000
0000
0000
0000
0000
0000
0000
0100
0000
0000
0000
0000
0001
0000
0000
,
1000
0000
0000
0000
0000
0000
0000
0000
0000
0000
0001
0000
0000
0000
0000
0000
0010
0000
0000
0000
0000
0000
0000
0000
0000
0000
0000
0000
0000
0000
0000
0000
0001
0000
0000
0000
0000
0000
0000
0000
0000
1000
0000
0000
0000
0000
0000
0000
0001
0000
0000
0000
0000
0000
0000
0000
0000
1000
0000
0000
0000
0000
0000
0000
,
0010
0000
0000
0000
0000
0000
0000
0000
0100
0000
0000
0000
0000
0000
0000
0000
0101
0000
0000
0000
0000
0000
0000
0000
0001
0000
0000
0000
0000
0010
0000
0000
,
0100
0000
0000
0000
0000
1000
0000
0000
0100
0000
0000
0000
0010
0000
0000
0000
0001
0000
0000
0000
0100
0000
0000
0000
0001
0000
0000
0000
0010
0000
0000
0000
,
0002
1000
0000
2003
0020
0000
0000
3000
,
2030
0000
3002
0203
0302
0203
0000
0001
,
0301
2000
0000
3001
0200
0000
0310
0000
,
0010
0000
0010
0000
2000
0000
0001
3000
,
0100
1000
0100
0001
0000
1000
0001
0100
,
1000
0000
0100
0000
0010
1000
0001
0100
,
0001
0010
0001
0100
0001
1000
0001
0000
,
1001
0000
1000
0100
0000
0010
0001
0000
,
1000
0100
0001
0100
0010
0000
0001
0100
,
0010
0000
0110
0000
0100
0010
0100
0001
,
0100
0010
1000
0100
1000
0001
1000
0000
,
0001
0000
0100
0010
0000
0100
0001
0000
,
1000
0100
0001
0100
0000
1000
0010
0100
,
0010
0000
1010
0000
1000
0100
0010
0001
,
0010
0100
1000
0001
0010
0001
1000
0000
,
0001
0000
0100
0010
0000
0100
0001
0000
,
1000
0100
0001
0100
0000
0000
1000
0010
,
0100
0001
0100
0000
0010
1000
0010
1000
,
0001
0010
0100
1000
0001
0100
0001
1000
,
0002
0000
0000
0000
1003
0100
0010
0001
,
2002
0000
3003
0000
;

//--------------- dance-single - ----------------
#NOTES:
     dance-single:
     :
     Hard:
     17:
     0,0,0,0,0:
0000
0000
0000
0000
,
0000
0000
0000
0000
,
0000
0000
0000
0000
,
0000
0000
0000
0000
,
0001
1000
0001
1000
0001
0000
0100
0010
,
0100
0010
0100
0000
0001
0100
0010
1000
,
0001
0010
0100
1000
0001
0100
0001
0010
,
0001
0100
0010
1000
0001
0010
0100
1000
0001
0100
0010
1000
0001
0010
0100
1000
,
0001
0000
0100
0010
0100
0000
0001
0000
1000
0010
1000
0010
0100
0000
0001
0000
,
0010
0000
0000
0000
0011
0000
0001
0000
1000
0100
1000
0100
0010
0000
0001
1000
,
0001
0000
1000
0010
0100
0000
0001
0000
0010
0000
0100
0000
1000
0000
0001
1000
,
0001
0100
0000
0001
0100
0000
0010
1000
0000
0010
1000
0000
0001
0000
1000
0001
,
1000
0000
0010
0100
0010
0000
1000
0000
0001
1000
0001
1000
0001
0000
0100
0010
,
0100
0000
0001
0000
1001
0000
1000
0000
0001
0000
0100
0010
0100
0000
0010
1000
,
0010
0000
1000
0001
1000
0000
0010
0000
0100
0001
0100
0001
0100
0000
0000
0000
,
1000
0000
0001
0000
1000
0000
0001
0000
1000
0010
0100
0001
1000
0100
0010
0001
,
1000
0000
0001
0010
0001
0000
0010
0000
0100
0000
1000
0000
1000
0000
0000
0000
,
0001
0100
0001
0100
0010
1000
0010
1000
0001
0000
1000
0000
1001
0000
0000
0000
,
1000
0000
0000
0000
1010
0000
0000
0000
1000
0001
1000
0000
0001
0000
1000
0000
,
0001
0100
0010
1000
0010
0100
0001
0010
0001
1000
0100
0010
0100
1000
0001
1000
,
0100
1000
0001
1000
0010
0010
0100
0001
,
1000
0100
0010
0100
1000
0000
0010
0000
0001
0100
0010
0100
0001
0000
1000
0000
,
0001
0100
0101
0001
1000
0100
0010
0010
,
0001
0100
0010
1000
0001
0010
0100
0010
0001
1000
0010
0100
0001
1000
0001
0000
,
1000
0000
0100
0010
0100
0000
1000
0001
0010
0000
0010
0000
0100
0000
1000
0000
,
1000
0000
0000
0000
1001
0000
0001
1000
0001
0000
0100
0000
0100
0000
0010
0000
,
0010
0000
1000
0000
1001
0000
0001
0000
1000
0000
0100
0000
0100
0000
0010
0001
,
0010
0100
0000
1000
0100
0000
1000
0010
0000
0100
0001
0000
0010
0000
0100
1000
,
0001
0010
0010
0100
1000
1000
0100
0100
,
1100
0000
0000
0000
1000
0000
1000
0000
0100
0010
0001
1000
0001
0000
0100
0000
,
0100
0000
0010
1000
0010
0000
0100
0001
0100
0000
0001
0000
1001
0000
0001
0000
,
1000
0010
0100
0001
1000
0100
0010
0001
1000
0010
0100
0001
1000
0010
1000
0100
,
1000
0010
1010
0000
0100
0100
1000
0100
,
1000
0000
0100
0000
0100
0000
0010
0100
1000
0000
0010
0000
0100
0000
0001
1000
,
0001
0000
1000
0000
1100
0000
0100
1000
0100
0010
0001
1000
0001
0000
0000
0000
,
0001
1000
0000
0001
1000
0000
0100
0010
0100
0000
0000
0000
1000
0000
0000
0000
,
1000
0000
0100
0000
0100
0000
0010
0000
0100
0000
1000
0000
1000
0000
0001
1000
,
0001
0000
0000
0000
1001
0000
0001
0000
1000
0100
1000
0000
0010
0000
0100
0000
,
0001
0000
0001
0000
1000
0000
1000
0000
0010
0100
0010
0000
1000
0000
0100
0000
,
0010
0001
0001
0000
1000
0100
0100
0000
,
1001
0000
0000
0000
1000
0000
0000
0100
0000
0000
0010
0000
0001
0000
0000
0000
,
1000
0100
1000
0100
0010
0001
0010
0001
,
1000
0000
0100
1000
0100
0000
1000
0000
0001
0010
0001
0100
0010
0000
1000
0001
,
1000
0000
0100
0000
1000
0000
0001
0100
0010
1000
0001
0000
0010
0000
0001
1000
,
0001
0000
0010
0000
0001
0000
1000
0100
0010
0100
1000
0000
0001
0000
0010
0000
,
0001
0000
1000
0000
0010
0000
1000
0100
1000
0010
0100
0000
0001
0000
1000
0000
,
0001
0000
0100
0000
0010
0000
1000
0001
1000
0100
0010
0000
0001
0000
1000
0001
,
1000
0000
0010
0000
0100
0000
0001
0010
0100
1000
0001
1000
0001
1000
0100
0010
,
0001
0000
0100
0000
0001
0000
0010
0100
0010
0001
1000
0001
1000
0000
0001
0010
,
0001
0000
1000
0000
0010
0000
0100
0001
0010
0100
1000
0000
0001
0000
1000
0100
,
1000
0000
0010
0000
0100
0000
0001
0100
0010
1000
0001
0000
1000
0000
0100
1000
,
0001
0000
1000
0000
0010
0000
1000
0100
1000
0100
0010
0000
0001
0000
1000
0010
,
0100
0000
0001
0000
1000
0000
0100
0010
0100
1000
0001
0000
0100
0000
0010
1000
,
0010
0000
0100
0000
0001
0000
1000
0010
1000
0100
0010
0000
0001
0000
1000
0000
,
0100
0000
0010
0000
0001
0000
1000
0010
1000
0100
0010
0000
0001
0000
1000
0100
,
1000
0000
0001
0000
0010
0000
0001
0100
0010
1000
0100
0000
1000
0000
0001
0100
,
0001
0000
1000
0000
0100
0000
0010
0001
0010
0100
1000
0000
0010
0000
1000
0001
,
1000
0000
0001
0000
0100
0000
0010
1000
0100
0010
0001
0000
1000
0001
0010
0100
,
1000
0000
0000
0000
0000
0000
0000
0000
0001
0000
0000
0000
0000
0000
0000
0000
1000
0000
0000
0000
0000
0000
0000
0000
0100
0000
0000
0000
0000
1000
0000
0000
,
0001
0000
0000
0000
0000
0000
0000
0000
0000
0000
1000
0000
0000
0000
0000
0000
0010
0000
0000
0000
0000
0000
0000
0000
0000
0000
0000
0000
0000
0000
0000
0000
1000
0000
0000
0000
0000
0000
0000
0000
0000
0001
0000
0000
0000
0000
0000
0000
1000
0000
0000
0000
0000
0000
0000
0000
0000
0001
0000
0000
0000
0000
0000
0000
,
0010
0000
0000
0000
0000
0000
0000
0000
0100
0000
0000
0000
0000
0000
0000
0000
1100
0000
0000
0000
0000
0000
0000
0000
1000
0000
0000
0000
0000
0010
0000
0000
,
0100
0000
0000
0000
0000
0001
0000
0000
0100
0000
0000
0000
0010
0000
0000
0000
1000
0000
0000
0000
0100
0000
0000
0000
1000
0000
0000
0000
0010
0000
0000
0000
,
2000
0001
0000
3002
0020
0000
0000
0003
,
0032
0000
2003
3200
2300
3200
0000
1000
,
1300
0002
0000
1003
0200
0000
0310
0000
,
0010
0000
0010
0000
0002
0000
1000
0003
,
0100
0000
0001
0010
0100
0000
1000
0000
0010
0000
0100
0000
0001
0000
0100
0000
,
0001
0000
1000
0010
1000
0000
0001
0000
0010
0000
0001
0000
1000
0000
0100
0000
,
1000
0010
1000
0000
0001
0000
1000
0100
1000
0000
0001
0000
1000
0000
0010
0000
,
1000
0010
0000
0100
0001
0000
1000
0001
0000
1000
0001
0000
1000
0000
0000
0000
,
0001
0000
0100
0000
0100
0000
0010
1000
0010
0100
0001
1000
0001
0000
0100
0010
,
0100
0000
0001
0000
1000
0000
0001
0010
0100
0000
1000
0000
0010
0000
0100
0000
,
0001
0000
0010
0000
0100
0000
1000
0001
1000
0000
0100
0010
0001
0000
1000
0001
,
1000
0010
0000
1000
0001
0000
1000
0100
0000
0010
0001
0000
1000
0000
0000
0000
,
0001
0000
0100
0010
0100
0000
0001
0000
0001
0000
0100
0010
0100
0000
0001
0000
,
1000
0000
0001
0000
0011
0000
0010
0000
0001
0100
0001
0010
0001
0000
1000
0010
,
1000
0000
0001
0000
1001
0000
1000
0010
0100
0001
1000
0001
0100
0000
0001
1000
,
0001
0100
0000
0010
0100
0000
0001
0010
0000
0001
1000
0000
0010
0000
0000
0000
,
0010
0000
0100
0000
0001
0000
0100
0001
0100
0000
0001
0000
1001
0000
1000
0000
,
0100
0000
1000
0001
1000
0000
0001
0000
1000
0010
0100
0001
0100
0000
0010
0000
,
1000
0010
0100
0001
1000
0100
1000
0001
,
2000
0000
0000
0000
0000
0000
0000
0000
3001
1000
0001
1000
0001
1000
0001
1000
,
0002
0000
0003
0000
;

//--------------- dance-single - STR 4/18*/16 RH ----------------
#NOTES:
     dance-single:
     STR 4/18*/16 RH:
     Challenge:
     19:
     1,0,0.036,0.395,0.863:
0000
0000
0000
0000
,
0000
0000
0000
0000
,
0000
0000
0000
0000
,
0000
0000
0000
0000
,
0001
0100
0001
0010
0100
1000
0010
1000
0001
0100
0010
1000
0001
0100
0001
0010
,
0100
1000
0010
1000
0001
0100
0010
1000
0100
0010
0100
1000
0001
0100
0001
0010
,
0001
0100
0010
1000
0010
0100
0001
0010
0100
1000
0001
0100
0010
1000
0100
1000
,
0001
0010
0100
1000
0100
0010
0001
1000
0001
0100
0010
1000
0010
0100
0001
1000
,
0001
0000
0100
0010
1000
0001
0010
0001
0100
0010
1000
0001
1000
0000
0100
0010
,
0200
0000
1300
0001
1000
0010
0100
0001
1000
0100
0010
0001
1000
0000
0001
0100
,
0001
0000
1000
0100
1000
0010
0100
0001
1000
0100
0010
0001
1000
0000
0001
0100
,
0010
1000
0100
1000
0001
0000
1000
0010
0100
0001
1000
0000
1001
0000
0001
0100
,
0010
0000
1000
0100
0010
0001
0010
0100
1000
0010
0100
0001
1000
0000
0100
1000
,
0002
0000
0103
0010
1000
0010
0100
0001
1000
0010
1000
0100
1000
0000
0001
0100
,
0010
0000
1000
0001
0100
0010
1000
0100
0010
0001
0100
0001
1000
0010
0100
0001
,
1000
0100
1000
0100
0010
0001
0010
0001
1000
0010
0100
0001
1000
0100
0010
0001
,
1000
0010
0100
0010
1000
0100
0010
0001
1000
0010
0100
0001
0010
0100
1000
0001
,
1000
0010
0100
0001
1000
0100
0010
0001
1000
0010
0100
0001
1000
0100
0010
0001
,
1000
0000
0001
0010
0001
0100
0010
1000
0001
0100
0001
1000
0001
0100
0010
1000
,
0001
0010
0001
0010
0100
1000
0100
1000
0001
0100
0010
1000
0010
0100
0001
1000
,
0001
0010
0100
1000
0010
0100
0001
0010
0100
1000
0100
0010
0001
0000
1000
0010
,
1000
0001
0100
0001
1000
0010
0100
0001
1000
0100
0010
0100
1000
0000
0001
0100
,
0001
0010
0100
1000
0001
0100
0010
1000
0001
0100
0001
0010
0100
1000
0010
0100
,
0001
1000
0001
0100
0001
0010
0100
1000
0001
0100
0010
1000
0001
0010
0100
1000
,
0001
0100
0010
1000
0001
0010
0100
1000
0100
0010
0001
1000
0001
0100
0010
1000
,
0001
0100
0001
0010
0100
0000
1000
0010
1000
0001
0010
0100
0020
0000
0031
1000
,
0001
0100
0010
1000
0100
0010
0001
1000
0001
0010
0100
1000
0001
0000
1000
0010
,
1000
0100
0000
0010
0001
0000
1000
0010
0000
0100
0001
0000
1000
0000
0100
1000
,
0010
0100
0001
0010
0100
1000
0001
0100
0010
1000
0100
1000
0010
0100
0001
0010
,
0100
1000
0001
0100
0010
1000
0100
0010
0001
0100
0001
0010
0100
0000
0010
0001
,
1000
0010
0100
0001
0010
0100
1000
0100
0010
0001
1000
0010
0100
0001
0010
0001
,
1000
0100
0010
0100
1000
0100
0010
0001
1000
0010
0100
0010
1000
0010
0100
0001
,
1000
0100
0010
0001
1000
0010
0100
0001
1000
0100
1000
0100
0010
0000
0001
1000
,
0001
0100
0010
1000
0010
0100
0001
0010
0100
1000
0100
0010
0001
0000
1000
0010
,
1000
0100
0010
0001
0100
0000
0001
0010
0100
1000
0001
0100
0010
1000
0100
1000
,
0001
0100
0000
0001
0100
0010
1000
0010
0100
0001
2000
0000
3010
0000
0100
0001
,
1000
0000
0001
0010
0100
1000
0010
0100
0001
0010
0100
1000
0001
0000
0100
0010
,
0100
0001
0010
0001
0100
0010
1000
0100
0010
0001
0010
0100
1000
0000
0001
0100
,
0010
0000
1000
0000
0010
0000
0100
0001
0100
0010
1000
0100
0010
0000
0001
1000
,
0001
0010
0100
0000
1000
0000
0001
0000
0100
0000
0010
0000
0010
0000
0100
0000
,
0001
1000
0001
0000
0100
0000
0010
0100
0000
0000
0001
0000
1001
0000
1000
0100
,
0010
0001
0100
0010
1000
0000
0100
0010
0001
0000
1000
0000
0010
0000
0100
0001
,
1000
0100
0010
0001
1000
0010
0100
0001
1000
0100
0010
0001
1000
0010
0100
0001
,
1000
0100
1000
0010
0100
0001
0100
0010
1000
0001
0010
0100
1000
0010
0100
0001
,
1000
0100
1000
0100
0010
0001
0100
0010
1000
0001
0010
0100
1000
0010
0100
0001
,
1000
0100
1000
0001
1000
0100
0010
0001
0100
0010
1000
0001
0010
0100
1000
0001
,
0100
0010
0100
0001
1000
0100
0010
0100
1000
0001
0100
0010
1000
0100
0010
0001
,
1000
0010
0100
0001
1000
0100
1000
0001
1000
0010
0100
0001
1000
0100
0010
0001
,
1000
0100
1000
0001
0100
0010
1000
0001
1000
0100
0010
0001
1000
0010
0100
0010
,
1000
0001
0010
0100
1000
0010
0100
0001
1000
0100
0010
0001
1000
0010
1000
0001
,
0010
0100
1000
0001
1000
0100
0010
0001
1000
0010
0100
0010
1000
0001
0010
0001
,
1000
0100
0010
0001
1000
0010
1000
0001
0100
0010
1000
0001
0010
0100
1000
0001
,
1000
0010
0100
0001
1000
0001
0010
0100
1000
0001
0100
0001
0010
0100
1000
0001
,
1000
0100
0010
0001
1000
0100
1000
0001
0100
0010
1000
0001
0010
0100
1000
0001
,
1000
0010
0100
0010
1000
0001
0010
0001
1000
0100
0010
0001
1000
0010
0100
0001
,
1000
0100
1000
0010
0100
0001
1000
0010
1000
0100
0010
0001
1000
0100
1000
0001
,
0100
0010
0100
0001
1000
0100
0010
0001
1000
0010
0100
0001
0010
0100
1000
0001
,
1000
0100
0010
0100
1000
0001
0100
0010
1000
0001
0010
0100
1000
0001
1000
0010
,
1000
0000
0000
0000
0000
0000
0000
0000
1000
0000
0000
0000
0000
0000
0000
0000
0001
0000
0000
0000
0000
0000
0000
0000
0100
0000
0000
0000
0000
0001
0000
0000
,
1000
0000
0000
0000
0000
0000
0000
0000
0000
0000
0001
0000
0000
0000
0000
0000
0010
0000
0000
0000
0000
0000
0000
0000
0000
0000
0000
0000
0000
0000
0000
0000
0001
0000
0000
0000
0000
0000
0000
0000
0000
1000
0000
0000
0000
0000
0000
0000
0001
0000
0000
0000
0000
0000
0000
0000
0000
1000
0000
0000
0000
0000
0000
0000
,
0010
0000
0000
0000
0000
0000
0000
0000
0100
0000
0000
0000
0000
0000
0000
0000
0101
0000
0000
0000
0000
0000
0000
0000
0001
0000
0000
0000
0000
0010
0000
0000
,
0100
0000
0000
0000
0000
1000
0000
0000
0100
0000
0000
0000
0010
0000
0000
0000
0001
0000
0000
0000
0100
0000
0000
0000
0001
0000
0000
0000
0010
0000
0000
0000
,
0002
1000
0000
2003
0020
0000
0000
3000
,
2030
0000
3002
0203
0302
0203
0000
0001
,
0301
2000
0000
3001
0200
0000
0310
0000
,
0010
0000
0010
0000
2000
0000
0001
3000
,
0100
0000
0001
1000
0001
0000
0010
0100
1000
0001
0100
0010
1000
0000
0100
0010
,
0001
0010
0100
1000
0001
0100
0010
0100
0001
0010
0100
1000
0001
0000
1000
0010
,
1000
0000
0001
0000
0101
0000
0100
0010
1000
0100
0010
0001
1000
0000
0001
0100
,
0001
0010
0100
1000
0001
0000
1000
0010
0100
0001
0100
0010
1000
0000
0001
1000
,
0001
0000
0010
0100
1000
0000
0001
0100
0001
0010
0001
1000
0100
0000
1000
0001
,
1000
0100
0010
0001
1000
0000
0001
0010
0001
0100
0010
1000
0001
0000
1000
0100
,
0010
0000
0001
1000
0001
0100
0010
1000
0100
0010
0001
1000
0001
0000
0010
0100
,
1000
0001
0010
0001
1000
0000
0100
0010
0001
0010
0100
1000
0001
0000
0100
0010
,
0100
0000
0001
1000
0001
0000
0010
0100
1000
0001
0100
0010
1000
0000
0001
0010
,
0001
0000
0100
0010
0100
0001
0100
0010
1000
0100
0010
0001
1000
0000
0001
0010
,
0100
0000
1000
0010
0100
0000
0001
0010
0100
1000
0100
0010
0001
0000
0100
0001
,
0100
0010
1000
0001
0100
0000
0001
0010
0100
1000
0001
0000
0100
0000
0010
1000
,
0001
0010
0100
1000
0001
0100
0001
0010
0100
1000
0010
1000
0100
0000
0010
0001
,
1000
0000
0010
0100
0001
0000
0010
0100
1000
0001
0100
0010
1000
0000
0001
0100
,
0001
0000
1000
0010
1000
0000
0001
0010
0001
1000
0100
1000
0001
0000
0010
0100
,
1000
0010
0100
0001
1000
0000
0100
0010
0001
1000
0001
1000
0010
0100
0010
0100
,
0020
0000
0000
0030
;
