#TITLE:Blastix Riotz;
#SUBTITLE:;
#ARTIST:かめりあ as "Bang Riot";
#TITLETRANSLIT:;
#SUBTITLETRANSLIT:;
#ARTISTTRANSLIT:Camellia as "Bang Riot";
#GENRE:;
#CREDIT:;
#MUSIC:Blastix Riotz.ogg;
#BANNER:blastixbn.png;
#BACKGROUND:blastixbg.png;
#CDTITLE:;
#SAMPLESTART:15.187;
#SAMPLELENGTH:12.657;
#SELECTABLE:YES;
#OFFSET:-0.656;
#BPMS:0.000=256.000
,60.000=128.000
,64.000=256.000
,108.000=128.000
,110.000=256.000
,247.000=128.000
,279.000=256.000
,482.000=128.000
;
#STOPS:110.500=0.234
,111.500=0.234
,112.500=0.234
,339.000=1.406
,408.500=0.703
;
#BGCHANGES:;
#FGCHANGES:;

//--------------- dance-single - ----------------
#NOTES:
     dance-single:
     :
     Beginner:
     10:
     0,0,0,0,0:
0000
0000
0000
0000
,
0000
0000
0000
0000
,
0000
0000
0000
0000
,
0000
0000
0000
0000
,
0001
0000
0000
1000
0000
0000
0001
0000
,
0100
0010
1000
0100
,
0010
0000
0000
0001
0000
0000
0100
0000
,
0010
1000
0001
0100
,
0001
0010
0001
0020
,
0130
1000
0001
0200
,
0310
1000
0100
0020
,
0031
0100
0010
0000
,
1000
0001
1000
0020
,
0130
0001
0010
0200
,
1300
0001
0100
0010
,
1001
0000
1000
0001
,
1001
1000
0010
0100
,
0001
0010
0100
1000
,
0001
0100
0001
0010
,
0001
0100
0010
1000
,
0001
0010
0100
1000
,
0010
0100
0001
2000
,
3010
0000
0000
0100
0000
0000
0001
0000
,
1000
0100
0010
0001
,
1001
1000
0010
0100
,
0001
0000
0010
0000
0100
0000
0000
1001
,
0000
1000
0001
0010
,
0100
0000
1000
0001
,
1000
0001
0000
0100
,
0000
0001
0000
1000
,
0000
0001
0000
1000
,
1000
0000
0001
0000
,
0100
0000
0010
1000
,
0100
0010
0001
0100
,
0010
1000
0001
1000
,
0100
0000
0010
0000
,
0001
0000
0100
0010
,
1000
0001
0010
0001
,
0100
0010
1000
0001
,
0001
0100
0100
0010
,
0010
1000
0000
0001
,
0001
0100
0100
0010
,
0100
0002
0003
1000
,
0001
0100
0001
1000
,
0010
1000
0010
1000
,
0001
0100
0001
0010
,
0100
1000
0001
1000
,
0000
0100
0000
0000
0000
0000
0000
0010
,
0000
0001
0000
0100
,
0000
0010
0000
0000
0000
0000
0000
0000
,
0000
0000
0000
1000
,
0000
0001
0000
0000
0000
0000
0000
0100
,
0000
0010
0000
1000
,
0000
0001
0000
0000
0000
0000
1000
0000
,
0001
0100
0000
0001
,
0000
0001
0000
0000
0000
0000
0000
1000
,
0000
1000
0000
0010
,
0000
0010
0000
0000
0000
0000
0000
0000
,
0000
0000
0000
0100
,
0000
0100
0000
0000
0000
0000
0000
0001
,
0000
1000
0000
0001
,
0100
0010
1000
1001
,
0001
0000
0000
1000
,
0001
0000
0000
0100
,
0010
0000
0000
1000
,
0001
1000
0000
0010
,
0100
0000
0001
1000
,
0001
0000
0000
1000
,
0001
0200
0000
0310
,
0100
0002
0003
1001
,
0000
1001
0000
0000
0000
0000
1000
0000
,
0001
0010
0100
0110
,
0000
0110
0000
0000
0000
0000
0100
0000
,
0001
0010
0100
1001
,
0000
1001
0000
0000
0000
0000
0001
0000
,
0010
0100
1000
1001
,
0000
1001
0000
0000
0000
0000
0001
0000
,
0100
0010
1000
0001
,
0000
0010
0000
0000
0001
0000
0100
0000
,
0000
0010
0000
0000
0100
0000
0010
0000
,
0000
1000
0000
0000
0001
0000
0010
0000
,
0000
0100
0000
0000
1000
0000
1001
0000
,
0000
1001
0000
0110
,
0000
1001
0000
0001
,
0100
0010
1000
1001
,
0000
0001
0100
0001
,
0010
0001
0100
0010
,
1000
0001
0010
0100
,
0010
0001
1000
0010
,
0100
0001
1000
0100
,
0010
0100
1000
0001
,
0100
0010
1000
0001
,
0010
0100
1000
0001
,
0100
0001
1001
1000
,
0001
0010
0001
0100
,
0010
1000
0001
0010
,
0100
1000
0000
0100
,
0000
0010
0000
0001
,
0000
1000
0000
0001
,
0000
0100
0010
1000
,
0000
0001
0100
0001
,
0100
0010
1000
0001
,
0010
0000
1000
0001
,
1000
0100
1000
0001
,
0010
0100
1000
0010
,
0100
0001
1000
0100
,
0010
0100
1000
0001
,
0100
0010
0100
0001
,
0010
0100
1000
0001
,
0100
0010
1000
0100
,
0010
0000
0001
0000
1000
0000
0000
0010
,
0000
0000
0100
0001
,
0010
0000
0001
0000
0100
0000
0000
0010
,
0000
0000
0100
0001
,
0010
0000
0100
0000
1000
0000
0000
0001
,
0000
0000
1000
0010
,
0100
0000
0001
0000
0010
0000
0000
0100
,
0000
0000
1000
0001
,
1000
0010
1000
0100
,
0010
0001
0100
0010
,
1000
0001
1001
0000
;

//--------------- dance-single - XMOD ----------------
#NOTES:
     dance-single:
     XMOD:
     Easy:
     15:
     0.458506,0.47556,0.007828,0.062625,0,410,409,1,8,0,0,0.458506,0.47556,0.007828,0.062625,0,410,409,1,8,0,0:
0000
0000
0000
0000
,
0000
0000
0000
0000
,
0000
0000
0000
0000
,
0000
0000
0000
0000
,
0001
0000
0000
1000
0000
0000
0100
0000
,
0010
0100
1000
0010
,
0100
0000
0000
0001
0000
0000
1000
0000
,
0001
0010
0100
1000
,
0001
0100
0010
1000
0001
0010
0200
0000
,
1300
0010
0100
0001
1000
0100
2000
0000
,
3001
0100
0010
1000
0001
0010
0200
0000
,
1300
0010
1000
0100
0010
0000
0000
0000
,
0001
1000
0001
0010
0001
1000
0200
0000
,
1300
0010
0100
0001
0010
0100
2000
0000
,
3002
0023
0230
1300
,
10M1
0000
0000
0000
0001
1000
0001
0000
,
M011
0000
0010
0001
0010
0000
0100
0000
,
1000
0000
0001
0000
1000
0010
0100
0000
,
0001
0000
0010
0100
0010
0000
0001
0000
,
1000
0000
0100
0000
1000
0010
0100
0000
,
0001
0000
1000
0001
1000
0000
0010
0000
,
0100
0001
0010
0200
,
1300
0020
0000
1030
0001
0010
0001
0000
,
1000
0100
0010
0001
,
1001
0000
1000
0000
0100
0000
0010
0001
,
0010
0000
0001
0000
0100
0001
0000
1001
,
0000
1000
0100
0000
0010
0000
0001
0000
,
2000
0000
3000
0000
0001
1000
0100
0010
,
0001
1000
0001
0000
0010
0000
0100
0000
,
1000
0100
0010
0001
,
1000
0000
0001
1000
0001
0000
1000
0000
,
0001
0000
0000
0010
0000
0000
0001
0000
0000
1000
0000
0000
0100
0000
0000
0000
,
0010
0000
0000
0001
0000
0000
0100
0000
0000
0000
0001
0000
1000
0000
0000
0000
,
0010
0100
0001
0000
1000
0000
0100
0010
,
0100
1000
0001
0100
0010
0000
1000
0000
,
0001
0000
0000
1000
0000
0000
0010
0000
0000
0100
0000
0000
0010
0000
1000
0000
,
0001
0000
0000
0010
0000
0000
0100
0000
1000
0000
0000
0000
0001
0000
0000
0000
,
0010
0000
0001
1000
,
0010
0000
0100
0001
,
1000
0100
0010
0001
,
0100
0001
0000
1000
,
0100
0010
0001
1001
,
0110
0001
0020
0130
,
1000
0010
0100
1000
,
0001
1000
0001
0011
,
0010
0100
1000
0010
,
0100
0000
0001
0000
1000
0000
0001
0100
,
0001
1000
0010
1000
0000
0000
0000
0001
,
0010
0001
1000
0100
1000
0001
0100
0010
,
1000
0010
0100
0001
0000
0000
0000
0000
,
0000
0000
0000
0000
0000
0000
1000
0100
,
0010
0001
0100
0010
0000
0000
0000
1000
,
0010
1000
0100
0010
0001
1000
0010
0100
,
0001
1000
0100
1000
0000
0000
0000
0000
,
0000
0000
0001
0000
1000
0000
0100
0010
,
0100
1000
0010
1000
0000
0000
0000
0001
,
0100
0001
1000
0100
0010
0001
1000
0010
,
0100
0001
1000
0001
0000
0000
0000
0000
,
0000
0000
0000
0000
0000
0000
1000
0010
,
0100
0001
0010
0100
0000
0000
0000
1000
,
0001
1000
0001
0010
0001
1000
0010
0100
,
0001
1000
0100
0010
0001
1000
00M1
0100
,
0001
0000
0000
1000
0000
0000
0000
0100
0000
0000
0010
0000
0000
0000
0001
0000
,
1000
0000
0000
0001
0000
0000
0000
0000
0000
1000
0000
0000
0000
0000
0000
0100
0000
0000
0000
0000
0000
0010
0000
0000
0000
0000
0000
0000
0000
0000
0100
0000
0000
0000
0000
0000
0000
0000
0000
0000
1000
0000
0000
0000
0001
0000
0000
0000
,
1000
0000
0000
0000
0000
0000
0000
0000
0000
0000
0000
0000
0100
0000
0000
0000
0000
0000
0000
0000
0000
1000
0000
0000
0000
0000
0000
0000
0000
0000
0010
0000
0000
0000
0000
0000
0000
0000
0000
0000
1000
0000
0000
0000
0001
0000
0000
0000
,
1000
0000
0000
0000
0100
0000
0000
0010
0000
0000
0001
0000
1000
0000
0010
0000
,
0100
0000
0000
0001
0000
0000
0000
1000
0000
0000
0100
0000
0000
0000
0010
0000
,
0001
0000
0000
0000
0000
0000
0000
0000
0000
1000
0000
0000
0000
0000
0000
0100
0000
0000
0000
0000
0000
1000
0000
0000
0000
0000
0000
0000
0000
0000
0001
0000
0000
0000
0000
0000
0000
0000
0000
0000
1000
0000
0000
0000
0001
0000
0000
0000
,
1000
0200
0000
0320
,
0000
0032
0003
1001
,
0000
0011
0000
0000
0001
0000
1000
0000
,
0100
0010
0001
0101
,
0000
0110
0000
0000
0010
0000
1000
0000
,
0100
0010
0001
1001
,
0000
1100
0000
0000
0100
0000
0010
0000
,
0001
1000
0010
0101
,
0000
1001
0000
0000
1000
0000
1000
0000
,
0001
0000
0000
0000
0001
0000
0000
0000
0010
0000
0000
0000
0001
0000
0000
0100
,
0000
0000
0010
0000
0000
1000
0000
0000
0001
0000
0000
0000
1000
0000
0000
0100
,
0000
0000
0010
0000
0000
0001
0000
0000
1000
0000
0000
0000
0001
0000
0000
0100
,
0000
0000
0010
0000
0000
1000
0000
0000
0001
0000
0000
0000
1000
0000
0000
0100
,
0000
0000
1000
0000
0000
0001
0000
0000
1000
0000
0000
0000
0001
0000
0000
0100
,
0000
0000
0000
0000
0010
0000
0000
1000
0000
0000
0000
0000
0100
0000
0000
0010
,
0000
0000
0000
0000
0001
0000
0000
1000
0000
0000
0000
0000
0001
0000
0100
0000
,
0010
1000
0001
0010
0100
1000
00M1
0000
,
0000
0000
1000
0000
0001
0000
0100
0001
,
1000
0000
0100
0000
0010
0000
0001
1000
,
0200
0000
1300
0000
0010
0000
1000
0100
,
1000
0001
0100
0010
,
1000
0000
0001
0000
0010
0000
0100
1000
,
0001
0000
1000
0000
0010
0000
0100
0001
,
1000
0100
0010
0001
,
0100
0000
0010
0000
1000
0001
1000
0000
,
0200
0000
0310
0000
0001
1000
0100
0010
,
0100
0000
1000
0001
1000
0000
0001
0100
,
0020
1030
0100
0010
,
0001
0000
0000
0000
1000
0000
0000
0100
0000
0000
0010
0000
0001
0000
0000
0000
,
1000
1100
0000
0110
,
0000
0011
0000
1000
,
0000
0000
0001
1000
0001
0010
0100
1000
,
0000
0000
0001
0100
0010
1000
0100
0010
,
0000
0002
0000
2003
,
0000
3000
0000
0000
0001
0100
0010
1000
,
0001
0010
0100
1000
0010
0100
0001
0010
,
0100
1000
0001
0100
0010
1000
0001
0010
,
0001
1000
0010
0100
0001
0000
0100
0000
,
0001
0000
1000
0000
0100
0010
0100
1000
,
0010
0100
0010
1000
0001
0010
0100
1000
,
0010
0100
0001
0010
0100
1000
0010
1000
,
0001
0100
0010
1000
0001
0010
0100
1000
,
0020
0000
0000
0000
0130
0000
0000
0101
,
0000
0000
0001
1000
,
0010
0000
0100
0000
0101
0000
0000
1001
,
0000
0000
0100
0010
,
0001
0000
1000
0000
1001
0000
0000
0011
,
0000
0010
0100
1000
,
0010
0000
0100
0000
0101
0000
0000
1001
,
0000
1000
0100
0010
,
0200
0000
0300
0000
1000
0001
1000
0001
,
0010
0100
1000
0010
0100
0010
1000
0001
,
0010
0001
0010
0001
0010
0000
0000
0000
;

//--------------- dance-single - XMOD XO+ JA FS BU ----------------
#NOTES:
     dance-single:
     XMOD XO+ JA FS BU:
     Medium:
     17:
     0.776106,1.145259,0.164391,0.054797,0.08611,694,673,21,7,0,0,0.776106,1.145259,0.164391,0.054797,0.08611,694,673,21,7,0,0:
0000
0000
0000
0000
,
0000
0000
0000
0000
,
0000
0000
0000
0000
,
0000
0000
0000
0000
,
1000
0000
0000
1000
0000
0000
0010
0000
,
0100
0010
0100
0010
,
1000
0000
0000
0001
0000
0000
0010
0000
,
0002
0203
0320
2030
,
3001
0010
0100
0010
0001
0100
1000
0100
,
0001
0010
0100
1000
0001
0100
1000
0100
,
0001
0010
0100
1000
0010
0100
1000
0100
,
0010
0000
1000
0000
0100
0000
0010
0000
0001
0000
0000
0100
0000
0000
0010
0000
,
1000
0100
0010
0001
0010
0100
1000
0000
,
0100
0001
0100
1000
0010
1000
0001
0100
,
1000
0100
0001
1000
0010
0001
0010
1000
,
01M0
0000
0000
0000
1000
0001
1000
0000
,
0001
0100
0001
0100
1000
0100
1000
0100
,
0001
0010
0001
0010
0100
1000
0100
1000
,
0010
1000
0010
1000
0001
0100
1000
0100
,
0001
0010
0100
1000
0001
1000
0100
0010
,
0001
0100
1000
0100
0001
1000
0010
0001
,
0010
1000
0100
0010
0001
0100
1000
0100
,
0004
0000
0000
0000
0013
0100
0010
0100
,
1000
0100
1000
0100
1000
0000
0001
1000
,
0001
0000
1000
0100
0010
0001
0100
1000
,
0100
0001
1000
0010
1000
0100
0000
1100
,
1000
0100
0010
0001
1000
0010
0100
0001
,
4000
0000
3000
0000
0001
0001
1000
1000
,
0010
0010
1000
0100
0010
0100
1000
0100
,
1000
0100
0010
0001
0010
0001
0010
0001
,
1000
0010
0100
0001
0100
0000
0010
0000
,
1000
0000
0000
1000
0000
0000
0100
0000
0010
0000
0000
0000
0001
0000
1000
0000
,
0001
0000
0000
0010
0000
0000
0001
0000
0100
0000
0000
0000
0010
0000
1000
0000
,
0010
0100
0000
0001
0100
0010
1000
0001
,
0010
0000
0001
1000
0001
0000
1000
0000
,
0100
0000
0000
0010
0000
0000
0001
0000
0010
0000
0000
0000
0100
0000
1000
0000
,
0100
0000
0000
1000
0000
0000
0001
0000
1000
0000
0000
0000
0010
0000
0100
0000
,
0010
0001
0100
0010
1000
0001
1000
0100
,
1000
0000
0000
0000
0001
0000
0100
0000
0010
0000
1000
0000
0001
0000
0100
00M0
,
0100
0000
1000
0000
0010
0M00
0010
0000
0001
0000
0100
00M0
0100
0000
1000
0000
,
0001
1000
0001
0000
0000
0000
1000
0010
,
0010
0000
0000
0001
0000
0000
0010
0000
0000
0010
0000
0000
1000
0000
0000
0100
0000
0000
0010
0000
0001
0000
0010
0000
,
0001
0000
0010
0000
0001
0000
1000
0000
0000
0000
0000
0000
0001
0000
0000
0000
0000
0000
0101
0000
0000
0100
0000
0000
,
0010
0000
0000
M000
0000
0000
0010
0000
0000
0000
0000
0000
0001
0000
0000
0000
0000
0000
0010
0000
0000
M000
0000
0000
0010
0000
0000
0000
0000
0000
0100
0000
0000
0000
0000
0000
0001
0000
0000
0000
0010
0000
0000
0000
0100
0000
0000
0000
,
1000
0000
0010
0000
0100
0000
0001
0000
1000
0000
0100
0000
0010
0000
0001
0000
1000
0000
0001
0000
0000
0100
0000
0000
,
0010
1000
0001
0010
0100
1000
0001
0100
,
0010
0000
0000
0000
1000
0000
0001
0000
1001
0000
0000
0000
1000
0000
0100
00M0
,
0100
0001
0010
0010
0000
0000
0000
0001
,
0100
00M0
0100
0000
1000
0000
0010
0M00
0010
0000
0001
0000
1000
0000
0100
00M0
,
0100
0001
0100
0100
0000
0000
0002
0000
,
0000
0000
0000
0000
0000
0000
0000
0000
0003
0000
0000
0000
1000
0000
0100
00M0
,
0100
0001
0100
0100
0000
0000
0000
0001
,
0100
00M0
0100
0000
1000
0000
0010
000M
0010
0000
0100
0000
1000
0000
0100
00M0
,
0100
0001
0100
0100
0000
0000
0001
0010
,
0100
0000
1000
0001
1000
0010
1000
0100
,
0100
0010
0001
0001
0000
0000
0000
0100
,
0010
0010
1000
0001
0001
1000
0001
0100
,
0100
0010
1000
1000
0000
0000
0002
0000
,
0000
0000
0000
0000
0000
0000
0103
0010
,
0010
1000
0001
0001
0000
0000
0000
1000
,
0100
00M0
0100
0000
0001
0000
0010
0M00
0010
0000
1000
0000
0100
0000
0010
0000
,
0011
0000
0000
0000
0001
0000
1000
0000
0001
0000
0100
0000
0M01
1000
0010
1000
,
0001
0100
0000
0010
0000
0000
0000
1000
0000
0000
1000
0000
0100
0010
0001
1000
,
0010
0000
0000
1000
0000
0000
0000
0000
0000
0001
0000
0000
0000
0000
0000
0010
0000
0000
0000
0000
0000
0100
0000
0000
0000
0000
0000
0000
0000
0000
1000
0000
0000
0000
0000
0000
0001
0000
0000
0000
0010
0000
0000
0000
0001
0000
0000
0000
,
0010
0000
0000
0000
0000
0000
0000
0000
0000
0100
0000
0000
1000
0000
0000
0000
0000
0000
0000
0000
0000
0010
0000
0000
0000
0000
0000
0000
0000
0000
0100
0000
0000
0000
0000
0000
0001
0000
0000
0000
1000
0000
0000
0000
0001
0000
0000
0000
,
0100
0000
0000
0001
0010
0000
0000
0100
0000
0000
1000
0000
0001
0010
0100
1000
,
0010
0100
0000
0001
0000
0000
0000
1000
0000
0000
0010
0000
0100
0001
0010
0100
,
1000
0000
0000
0001
0000
0000
0000
0000
0000
1000
0000
0000
0000
0000
0000
0010
0000
0000
0000
0000
0000
0100
0000
0000
0000
0000
0000
0000
0000
0000
0010
0000
0000
0000
0000
0000
1000
0000
0000
0000
0100
0000
0000
0000
0010
0000
0000
0000
,
0100
0000
0000
0010
0100
0000
0000
0010
0000
0000
0001
0000
2000
0000
0000
0000
,
0000
0000
0000
0000
3000
0000
00M1
0100
,
0001
0100
0000
0010
1000
0100
0010
0001
,
0100
0010
1000
0001
0010
0100
1000
0100
,
0010
0001
0000
1000
0010
0100
0001
0010
,
0100
1000
0010
0100
0001
1000
0100
0010
,
0001
1000
0000
0001
0100
0010
1000
0001
,
0010
0100
0010
0001
1000
0010
0100
0001
,
0010
0100
0000
0010
0001
0100
0010
1000
,
0001
0000
0010
0000
0100
0000
1000
0000
0001
0000
0000
0000
1000
0000
0000
0010
,
0000
0000
1000
0000
0000
0010
0000
0000
1010
0000
0000
0000
1000
0000
0000
0001
,
0000
0000
0100
0000
0000
0010
0000
0000
1000
0000
0001
0000
1000
0000
0000
0010
,
0000
0000
0100
0000
0000
0001
0000
0000
1001
0000
0000
0000
1000
0000
0000
0001
,
0000
0000
1000
0000
0000
0100
0000
0000
0010
0000
0001
0000
1000
0000
0000
1000
,
0000
0000
0100
0000
1000
0000
0000
1000
0000
0000
0010
0000
0100
0000
0000
0100
,
0000
0001
1000
0001
0010
0100
1000
0001
,
0010
0100
0010
0100
1000
0001
1MM1
0000
,
0000
0000
0001
0010
0010
0001
0010
0010
,
0100
1000
0010
0100
0010
0100
0001
0010
,
0001
0000
0100
0001
0001
0100
0010
0010
,
0100
0001
0010
0100
0010
0001
1000
0010
,
1000
0000
0001
0010
0010
0001
0100
0010
,
0100
0001
0010
0100
1000
0001
1000
0010
,
0100
0001
1000
0001
,
0010
0100
1000
0010
0100
0001
0010
0100
,
2000
0000
3010
0100
0010
1000
0001
1000
,
0100
1000
0001
0010
0100
0010
0001
1000
,
0400
0000
0000
0000
0000
0000
1300
0000
0000
0100
0000
0000
0010
0000
0000
0001
0000
0000
0100
0000
0010
0000
0100
0000
,
0001
0000
0100
0000
0010
0000
1000
0000
0000
0000
0001
0000
0000
0000
1000
0000
0000
0000
0001
0000
0000
1000
0000
0000
,
0010
0100
0001
0010
0100
1000
0010
0100
,
0001
0100
0010
1000
0002
0000
1003
0000
,
0000
0000
1000
1000
0010
0100
0001
0001
,
0100
0000
0010
0010
1000
0010
0010
0100
,
0001
0000
1000
0100
1000
0100
0010
0001
,
0010
0001
0000
0000
1000
0010
0100
0001
,
1000
0010
1000
0000
0001
0000
0100
0000
0001
1000
0001
1000
0001
0000
0100
0000
,
0010
1000
0100
0010
0001
0100
0010
1000
,
0001
0010
0001
0000
0100
0000
0010
0000
1000
0000
0000
0000
0001
0000
0000
0000
,
0010
0000
0000
0000
0100
0000
0000
0000
1000
0000
0001
0100
0001
0000
0100
0000
,
0010
0000
1000
0000
0100
0000
0010
0000
0001
1000
0001
1000
0001
0000
0100
0000
,
0010
1000
0100
0010
0001
0100
0010
1000
,
0001
0000
0010
0000
0100
0000
1000
0000
0001
0010
0100
1000
0001
0100
0010
1000
,
0200
0000
0000
0000
1300
0000
0000
0001
,
0000
0000
1000
0010
0100
0001
0010
0100
,
0010
0001
1000
0010
1000
0000
0000
0010
,
0000
0100
0010
1000
0001
0010
0100
1000
,
0010
0100
0010
1000
0001
0000
0000
1000
,
0000
0000
0001
1000
0010
0100
0001
0010
,
0100
0010
0001
1000
0010
0000
0000
0100
,
0000
0000
0002
0203
,
0320
0000
0000
0000
1030
0000
0000
0000
0001
1000
0001
1000
0001
1000
0001
1000
,
0001
1000
0001
1000
0002
0000
0000
0000
1003
0001
1000
0001
1000
0001
1000
0001
,
1000
0001
1000
0001
1000
0001
1000
0001
1000
0000
0000
0000
0000
0000
0000
0000
;

//--------------- dance-single - XMOD STR JA- ----------------
#NOTES:
     dance-single:
     XMOD STR JA-:
     Hard:
     20:
     1.136201,1.717889,0.093938,0.101766,0.966777,1016,1004,12,13,0,0,1.136201,1.717889,0.093938,0.101766,0.966777,1016,1004,12,13,0,0:
0000
0000
0000
0000
,
0000
0000
0000
0000
,
0000
0000
0000
0000
,
0000
0000
0000
0000
,
0001
1000
0001
0100
0010
1000
0001
0100
,
0010
1000
0100
0010
0001
0010
0001
1000
,
0100
0010
0001
0100
0010
1000
0001
0100
,
0002
0000
0003
0000
,
1000
0000
0100
0000
0010
0000
0001
0000
1000
0000
0010
0000
1000
0001
1000
0001
,
1000
0000
0100
0000
0010
0000
0001
0000
1000
0000
0010
0000
0100
0001
0100
0001
,
1000
0000
0100
0000
0010
0000
0001
0000
0010
0000
0100
0000
1000
0001
1000
0001
,
1000
0000
0010
0000
0100
0001
1000
0001
0100
0000
0000
0010
0000
0000
1000
0000
,
0001
0010
0001
0000
1000
0100
1000
0000
0001
0000
0010
0000
0100
1000
0100
1000
,
0001
0000
0100
0000
0010
0000
1000
0000
0001
0000
1000
0000
0001
0010
0100
1000
,
0001
0100
0001
0000
1000
0100
0010
0000
0001
0010
0100
0001
2000
0000
0000
0000
,
302M
0000
0000
0030
1000
0001
1000
0000
,
10M0
0000
0001
1000
0010
1000
0001
0000
1000
0000
0100
0000
0010
0000
0001
0000
,
1000
0000
0010
0000
1000
0000
0001
0000
0010
0000
0001
0000
1000
0000
0001
0100
,
0001
0000
0100
0010
1000
0010
0100
0000
0001
0000
0010
0000
0100
0000
1000
0000
,
0001
0000
0100
0000
0001
0000
1000
0100
0010
0001
1000
0000
0001
0100
0010
1000
,
0010
0000
1000
0100
0010
0001
1000
0000
0010
0000
1000
0000
0001
0000
0010
0000
,
0100
1000
0001
0100
0010
1000
0004
0000
,
0103
0000
0040
0000
0000
0000
1030
0001
0010
0100
1000
0001
0100
0000
0010
1000
,
0010
0100
0001
1000
0100
0010
0001
0100
,
0010
0000
0100
0000
0001
0000
0100
0000
0010
0000
1000
0000
0010
0100
0001
0100
,
0010
0000
1000
0001
1000
0000
0001
0100
0001
0000
0100
0000
0000
0000
0100
0000
,
0000
0000
0001
1000
0001
0000
0010
0000
0001
0010
0001
0000
1000
0000
0100
0000
,
001M
0000
0000
0000
0000
0000
0000
0000
0001
0000
0001
0000
1000
0010
1000
0000
,
0001
0010
0001
0000
1000
0000
0100
0000
1000
0000
0100
0000
1000
0000
0001
0000
,
0100
0010
0100
0001
1000
0010
0100
0001
,
1000
0100
0010
0001
0100
0000
0010
0001
,
0100
0010
0000
1000
0000
0000
0001
0000
0000
1000
0000
0000
1000
0000
0010
0000
,
0100
0001
0000
0100
0000
0000
0010
0000
0000
1000
0000
0000
1000
0000
0010
0000
,
1000
0001
0000
1000
0000
0000
0010
0000
0000
0100
0000
0000
0100
0000
0001
0000
,
0100
0010
0000
0000
1000
0000
0001
0000
0100
0010
0100
0000
0001
0000
1000
0000
,
0010
0000
0000
0010
0000
0000
0100
0000
0000
0001
0000
0000
1000
0000
0001
0000
,
0010
0100
1000
0010
0100
0000
0001
0100
,
0001
0000
1000
0000
0001
0000
1000
0001
,
0010
0000
0001
0000
0100
0000
0001
0000
1000
0000
0000
0000
0100
0000
0010
0100
,
0010
0000
0001
0000
1000
0001
1000
0000
0001
0000
0010
0001
0010
0000
0100
1000
,
0100
0000
0010
0000
0004
0000
0000
0000
0003
0000
0000
0000
0010
0000
0001
1000
,
0100
0000
0000
0000
0000
0000
0010
0000
0000
0000
0000
0000
0001
0000
0000
0010
0000
0000
0100
0000
0000
0000
0000
0000
1000
0000
0000
0000
0000
0000
0001
0000
0000
1000
0000
0000
0001
0000
0000
0000
0100
0000
0000
0000
0010
0000
0000
0000
,
0100
0000
0000
0000
0001
0000
0000
0000
1000
0000
0000
0000
0100
0000
0000
0000
0010
0000
0000
0000
0001
0000
0000
0000
1000
0000
0000
0000
0000
0000
0000
0000
0000
0000
0000
0000
0010
0000
0000
0000
0000
0000
1000
0000
0000
0100
0000
0000
,
0010
0000
0000
0000
0000
0000
0001
0000
0000
0000
0000
0000
1000
0000
0000
0010
0000
0000
1000
0000
0000
0000
0000
0000
0001
0000
0000
0000
0000
0000
0010
0000
0000
0001
0000
0000
1000
0000
0000
0000
0010
0000
0000
0000
0100
0000
0000
0000
,
0001
0000
0000
0000
1000
0000
0000
0000
0100
0000
0000
0000
0010
0000
0000
0000
0001
0000
0000
0000
1000
0000
0000
0000
0010
0000
0000
0000
0100
0000
0000
0000
0001
0000
0000
0000
0001
0000
0000
0000
0000
0000
1000
0000
0000
0100
0000
0000
,
1000
0000
0001
0010
0001
0000
1000
0100
0010
0000
0001
1000
0001
0000
0010
0100
,
0010
0000
0001
0000
1000
0100
1000
0000
0100
0000
0000
0000
1000
0010
0100
0001
,
0100
0000
0001
0010
0100
1000
0001
0000
0000
0000
0000
0000
0000
0000
1000
0100
,
0010
0001
1000
0000
0001
0100
0001
0010
0100
0000
1000
0010
0100
0001
0010
0100
,
1000
0000
0001
0100
0010
1000
0001
0000
0000
0000
0000
0000
0200
0000
0000
0000
,
0000
0000
0000
0000
0000
0000
0000
0000
0000
0000
0000
0000
0301
0010
0100
1000
,
0001
0000
1000
0100
0010
0001
1000
0000
0001
0000
0000
0000
0000
0000
1000
0010
,
0100
0010
1000
0000
0001
0100
0010
0100
0001
0000
1000
0100
0010
0001
0010
0001
,
1000
0000
0010
0100
0001
0010
0100
0000
0000
0000
0000
0000
1000
0000
0001
0000
,
0100
0000
0010
0000
1000
0000
0001
0000
1000
0000
0001
0000
1000
0010
0100
0001
,
1000
0000
0001
0010
0100
1000
0001
0000
0010
0000
0000
0001
0000
0000
0010
0001
,
0100
0010
1000
0000
0100
0010
0001
0100
0010
0000
1000
0001
0010
0001
1000
0001
,
0010
0000
0100
1000
0001
1000
0100
0000
0000
0000
0000
0000
0010
0000
0001
0000
,
1000
0000
0100
0000
0010
0000
0001
0000
0100
0000
0010
0000
0100
0001
1000
0010
,
0100
0000
0001
1000
0100
0010
0001
0000
0000
0000
0000
0000
0000
0000
1000
0010
,
0100
0001
1000
0000
0100
0010
0001
1000
0100
0000
0010
0001
1000
0000
0001
0000
,
0010
0000
0001
0000
0100
0000
0010
0000
0100
0000
0001
0000
10M0
0001
0100
0001
,
1000
0010
0000
0100
0000
0000
0000
0001
0000
0000
0001
0000
0010
0100
1000
0001
,
0100
0000
0000
0001
0000
0000
0000
0000
0000
1000
0000
0000
0000
0000
0000
0100
0000
0000
0000
0000
0000
0010
0000
0000
0000
0000
0000
0000
0000
0000
0001
0000
0000
0000
0000
0000
1000
0000
0000
0000
0100
0000
0000
0000
1000
0000
0000
0000
,
0100
0000
0000
0000
0000
0000
0000
0000
0000
0010
0000
0000
0001
0000
0000
0000
0000
0000
0000
0000
0000
0100
0000
0000
0000
0000
0000
0000
0000
0000
0010
0000
0000
0000
0000
0000
1000
0000
0000
0000
0001
0000
0000
0000
1000
0000
0000
0000
,
0010
0000
0000
1000
0100
0000
0000
0010
0000
0000
0001
0000
1000
0100
0010
0001
,
0100
0010
0000
1000
0000
0000
0000
0001
0000
0000
0100
0000
0010
1000
0100
0010
,
0001
0000
0000
1000
0000
0000
0000
0000
0000
0001
0000
0000
0000
0000
0000
0100
0000
0000
0000
0000
0000
0010
0000
0000
0000
0000
0000
0000
0000
0000
0100
0000
0000
0000
0000
0000
0001
0000
0000
0000
0010
0000
0000
0000
0100
0000
0000
0000
,
0010
0000
0000
0100
0010
0000
0000
0100
0000
0000
1000
0000
0002
0000
0000
0000
,
0000
0000
0000
0000
0000
0000
0000
0000
0003
0000
0000
0000
1M00
0000
0001
0010
,
0001
0000
1000
0000
0100
0010
0100
0000
0010
0000
0001
0000
1000
0001
1000
0001
,
1000
0000
0100
0000
0010
0000
0001
0000
0100
0000
0010
0000
1000
0000
0100
0010
,
0100
0000
1000
0000
0001
0100
0001
0000
1000
0000
0100
0000
0010
0001
0010
0000
,
0100
1000
0100
0000
0010
0000
0001
0000
1000
0100
0010
0001
1000
0000
0001
0010
,
0001
0000
0010
0000
0100
1000
0100
0000
0010
0000
0001
0000
1000
0100
1000
0000
,
0010
0100
0001
0010
0100
1000
0100
1000
,
1000
0010
0100
0100
0001
0100
0010
1000
,
0100
0000
0010
0000
0001
0000
1000
0000
0010
0000
0100
0000
1000
0000
0000
0100
,
0000
0000
0001
0000
0000
0100
0000
0000
0010
0000
0000
0000
0001
0000
0000
1000
,
0000
0000
0010
0000
0000
0100
0000
0000
0001
0000
0000
0000
1000
0000
0000
0001
,
0000
0000
1000
0000
0000
0100
0000
0000
0010
0000
0000
0000
0001
0000
0000
1000
,
0000
0000
0001
0000
0000
0010
0000
0000
0100
0000
1000
0000
0001
0000
0000
0001
,
0000
0000
0010
0000
0001
0000
0000
0001
0000
0000
0100
0000
0010
0000
0000
0010
,
0000
1000
0001
1000
0100
0010
0001
1000
,
0100
0010
0100
0010
0001
1000
1001
0000
,
0000
0000
1000
0100
0100
1000
0100
0100
,
0010
0001
0100
0010
0100
0010
1000
0100
,
1000
0000
0010
1000
1000
0010
0100
0100
,
0010
1000
0100
0001
0100
1000
0001
0100
,
0001
0000
1000
0100
0100
1000
0010
0001
,
0010
1000
0100
0010
0001
1000
0001
0100
,
0010
1000
0001
1000
,
0001
0000
0010
0000
0001
1000
0010
0000
1000
0000
0001
0000
1000
0000
0010
1000
,
0020
0000
0000
0000
0130
0001
0100
0001
0100
0000
0001
0000
1000
0000
0001
0000
,
0010
0001
1000
0100
0010
0100
1000
0001
,
0040
0000
0000
0000
0000
0000
0000
0000
0000
0000
0000
0000
0031
0000
0000
0000
0000
0000
0010
0000
0000
0100
0000
0000
0010
0000
0000
0000
0000
0000
0100
0000
0000
0000
0000
0000
1000
0000
0000
0000
0100
0000
0000
0000
1000
0000
0000
0000
,
0100
0000
1000
0000
0100
0000
1000
0000
0000
0000
0010
0000
0000
0000
0100
0000
0000
0000
0010
0000
0000
1000
0000
0000
,
0100
0010
0001
0100
0010
1000
0100
0010
,
0001
0010
0100
1000
0002
0000
1003
0000
,
0000
0000
1000
1000
0100
0010
0001
0001
,
0010
0000
0100
0100
1000
0100
0100
0010
,
0001
0000
1000
0010
1000
0010
0100
0001
,
0100
0000
0001
0000
0000
0000
0000
0000
1000
0010
0100
0001
1000
0100
0010
0001
,
1000
0010
0100
0001
0010
0100
1000
0001
0100
0010
1000
0100
0010
0001
1000
0010
,
1000
0001
0010
0100
1000
0001
0100
0010
1000
0100
0010
0001
1000
0010
0100
0001
,
0010
0100
1000
0010
0100
0001
1000
0001
1000
0000
0000
0000
0001
0000
0000
0000
,
0100
0000
0000
0000
0010
0000
0000
0000
1000
0001
0010
0100
0010
0001
1000
0100
,
1000
0001
0100
0010
1000
0001
0010
0100
1000
0001
0100
0001
1000
0010
0100
0010
,
1000
0001
0010
0100
1000
0001
0100
0001
1000
0010
0100
0010
1000
0001
0010
0100
,
1000
0001
0100
0010
1000
0100
0010
0001
1000
0010
0100
0001
1000
0100
1000
0010
,
0200
0000
0000
0000
0301
0000
0000
0001
,
0000
0000
1000
0100
0010
0001
0100
0010
,
0100
0001
1000
0100
1000
0000
0000
0100
,
0000
0010
0100
1000
0001
0100
0010
1000
,
0100
0010
0100
1000
0001
0000
0000
1000
,
0000
0000
0001
1000
0100
0010
0001
0100
,
0010
0100
0001
1000
0100
0000
0000
0010
,
0000
0000
0002
0023
,
0230
0000
0000
0000
1300
0000
0000
0000
0001
0100
0001
1000
0001
0010
0100
1000
,
0100
0010
0001
1000
0010
0100
0001
1000
0010
0100
0001
1000
0100
0010
0001
0100
,
0010
0100
0001
1000
0100
0010
0001
1000
0001
0000
0000
0000
0000
0000
0000
0000
;

//--------------- dance-single - XMOD STR JA JU XO- ----------------
#NOTES:
     dance-single:
     XMOD STR JA JU XO-:
     Challenge:
     21:
     1.39453,1.926118,0.375751,0.093938,1.565631,1247,1199,48,12,0,0,1.39453,1.926118,0.375751,0.093938,1.565631,1247,1199,48,12,0,0:
0000
0000
0000
0000
,
0000
0000
0000
0000
,
0000
0000
0000
0000
,
0000
0000
0000
0000
,
1000
0000
0001
0000
0001
0000
0100
0000
0010
0000
1000
0000
0001
0000
0100
0010
,
0100
0000
0010
0000
1000
0000
0100
0000
0010
0001
0010
0001
1000
0100
1000
0010
,
0100
0100
0001
0100
0100
0010
1000
0001
,
2002
0000
3003
0000
,
1000
0001
0100
0010
1000
0001
0010
0100
1000
0001
0100
0010
1000
0001
1000
0001
,
0010
0100
1000
0100
0010
0001
0100
0010
1000
0001
0010
0100
1000
0001
1000
0001
,
0100
0010
1000
0100
0010
0001
1000
0010
0100
0001
1000
0100
0010
0001
0010
0001
,
1000
0100
0010
0001
1000
0001
0100
0000
0010
0000
0000
0010
0000
0000
0010
0000
,
1000
0100
0010
0001
1000
0001
0100
0010
1000
0100
0010
0100
1000
0001
0010
0100
,
1000
0001
1000
0100
0010
0001
0100
0001
1000
0010
0100
0010
1000
0001
0010
0100
,
1000
0010
0100
0001
1000
0100
1000
0001
0100
0010
1000
0001
2000
0000
0000
0000
,
301M
0000
0000
0000
1000
0001
1000
0000
,
10M0
0000
0001
1000
0010
1000
0001
0000
1000
0000
0100
0000
0001
0000
0100
0000
,
1000
0000
0010
0000
1000
0000
0001
0100
0001
0000
1000
0000
0010
0000
1000
0100
,
1000
0000
0100
0010
0001
0010
0100
0000
1000
0000
0001
0000
0010
0000
0001
0000
,
1000
0000
0100
0000
1000
0000
0001
1000
0100
1000
0001
0000
0010
0100
1000
0100
,
0010
0000
0100
1000
0001
0100
0001
0000
1000
0000
0100
0000
0001
0000
0100
0000
,
0010
0100
1000
0001
0100
1000
0200
0000
,
0301
0000
0020
0000
0000
0000
0031
0100
0010
0100
0001
1000
0100
0000
0010
0001
,
1000
0100
0010
0001
1000
0010
0100
0001
1000
0100
1000
0001
0010
0001
1000
0001
,
0010
0000
0100
0000
1000
0000
1000
0000
0001
0000
0001
0000
0010
0100
1000
0100
,
0010
0000
0001
1000
0001
0000
1000
0100
1000
0000
0010
0000
0000
0000
0110
0000
,
0000
0000
0100
0001
0100
0000
0001
0000
1000
0010
1000
0000
0001
0000
0100
0000
,
M004
0000
0000
0000
0003
0000
1000
0000
0M01
0000
0001
0000
1000
0010
1000
0000
,
0001
0100
0001
0000
1000
0010
1000
0001
0100
0000
0001
0010
0100
1000
0100
0010
,
0001
0000
1000
0100
1000
0001
0010
0001
1000
0010
0100
0001
1000
0100
0010
0001
,
1000
0010
1000
0100
0010
0001
0100
0001
1000
0000
0000
0000
0010
0000
1000
0000
,
0001
1000
0000
0010
0000
0000
0100
0000
0000
1000
0000
0000
0100
0000
0010
0000
,
1000
0001
0000
0100
0000
0000
0010
0000
0000
0001
0010
0000
0001
0000
1000
0000
,
0001
0100
0000
0010
0000
0000
0001
0000
0000
0010
0000
0000
0100
0000
1000
0000
,
0100
0010
0100
0010
0001
0000
1000
0000
0100
0010
0100
0000
1000
0000
0001
0000
,
1000
0000
0000
0010
0000
0000
0100
0000
0000
0001
0000
0000
1000
0000
1000
0000
,
0100
0000
0010
0100
0010
0000
0001
0000
0010
0000
0000
0000
0001
0000
0010
0000
,
0100
1000
0100
0010
0001
1000
0010
0100
0001
1000
0100
0010
0001
0000
1000
0000
,
0001
0100
0001
0010
0100
1000
0010
0100
0001
1000
0100
0010
0001
0000
1000
0100
,
1000
0000
0010
0000
1000
0001
1000
0000
0010
1000
0010
0100
0001
0000
0100
0010
,
0100
0000
0001
0100
0010
1000
0001
1000
0020
0000
0000
0000
0130
0000
0001
1000
,
0001
0000
0000
0000
0000
0000
0010
0000
0000
0000
0000
0000
0001
0000
0000
0010
0000
0000
0001
0000
0000
0000
0000
0000
1000
0000
0000
0000
0000
0000
0100
0000
0000
0010
0000
0000
0001
0000
0000
0000
0100
0000
0000
0000
0010
0000
0000
0000
,
0100
0000
0000
0000
0001
0000
0000
0000
1000
0000
0000
0000
0100
0000
0000
0000
0010
0000
0000
0000
0001
0000
0000
0000
2000
0000
0000
0000
0000
0000
0000
0000
0000
0000
0000
0000
3010
0000
0000
0000
0000
0000
1000
0000
0000
0100
0000
0000
,
0010
0000
0000
0000
0000
0000
0001
0000
0000
0000
0000
0000
0001
0000
0000
1000
0000
0000
0100
0000
0000
0000
0000
0000
0010
0000
0000
0000
0000
0000
0001
0000
0000
0010
0000
0000
0001
0000
0000
0000
0100
0000
0000
0000
0010
0000
0000
0000
,
1000
0000
0000
0000
0100
0000
0000
0000
1000
0000
0000
0000
0001
0000
0000
0000
0100
0000
0000
0000
0001
0000
0000
0000
1000
0000
0000
0000
0010
0000
0000
0000
0100
0000
0000
0000
0001
0000
0000
0000
0000
0000
1000
0000
0000
0100
0000
0000
,
0010
0000
0001
0010
0001
0000
1000
0100
0010
0000
0001
1000
0001
0000
0010
0100
,
0010
0000
0001
0000
1000
0100
1000
0000
0100
0000
0000
0000
1000
0010
0100
0001
,
0010
0000
0001
0100
0010
1000
0100
0000
1000
0000
0000
0000
0000
0000
0001
0010
,
0100
1000
0001
0000
1000
0100
0010
0001
1000
0000
0001
0100
0010
1000
0010
0100
,
0001
0000
1000
0100
0010
0100
1000
0000
0100
0000
0000
0000
0020
0000
0000
0000
,
0000
0000
0000
0000
0000
0000
0000
0000
0000
0000
0000
0000
0031
0010
0100
1000
,
0001
0000
0100
1000
0001
1000
0100
0000
1000
0000
0000
0000
0000
0000
0001
0010
,
0100
1000
0001
0000
1000
0010
0100
0001
1000
0000
0001
0010
0100
1000
0100
0010
,
0001
0000
1000
0001
0100
0010
1000
0000
0000
0000
0000
0000
0001
1000
0100
0010
,
0001
0000
1000
0010
1000
0001
1000
0000
0010
0001
1000
0100
0010
0001
1000
0001
,
0010
0000
0100
1000
0001
1000
0100
0000
0010
0000
0000
0001
0000
0000
0010
0001
,
1000
0001
0010
0000
0100
1000
0001
1000
0100
0000
1000
0100
0010
0001
1000
0001
,
0010
0000
0100
1000
0001
1000
0100
0000
0000
0000
0000
0000
0010
0000
0001
0000
,
1000
0000
0100
0000
0010
0000
0001
0000
0100
0000
0010
0000
0100
0001
1000
0010
,
0100
0000
0001
1000
0100
0010
0001
0000
0000
0000
0000
0000
0000
0000
1000
0100
,
0010
0001
1000
0000
0100
0010
0001
1000
0100
0000
0010
0001
1000
0001
1000
0100
,
0010
0001
0010
0100
1000
0001
1000
0010
0100
0001
1000
0010
1M00
0001
0010
0001
,
0010
0001
0000
0010
0000
0000
0000
0100
0000
0000
0010
0000
0010
0001
0100
0010
,
1000
0000
0000
0100
0000
0000
0000
0000
0000
0010
0000
0000
0000
0000
0000
0001
0000
0000
0000
0000
0000
1000
0000
0000
0000
0000
0000
0000
0000
0000
0100
0000
0000
0000
0000
0000
0000
0000
0000
0000
1000
0000
0000
0000
0010
0000
0000
0000
,
0100
0000
0000
0000
0000
0000
0000
0000
0000
0001
0000
0000
0100
0000
0000
0000
0000
0000
0000
0000
0000
0010
0000
0000
0000
0000
0000
0000
0000
0000
0010
0000
0000
0000
0000
0000
0000
0000
0000
0000
1000
0000
0000
0000
0100
0000
0000
0000
,
0010
0000
0000
0001
1000
0000
0000
0100
0000
0000
0010
0000
0001
0100
0010
1000
,
0001
1000
0000
0100
0000
0000
0000
0010
0000
0000
0001
0000
0000
1000
0100
1000
,
0010
0000
0000
1000
0000
0000
0000
0000
0000
0001
0000
0000
0000
0000
0000
0100
0000
0000
0000
0000
0000
0010
0000
0000
0000
0000
0000
0000
0000
0000
1000
0000
0000
0000
0000
0000
0000
0000
0000
0000
0001
0000
0000
0000
0100
0000
0000
0000
,
0001
0000
0000
0000
0000
0000
1000
0000
0000
0020
0000
0000
0000
0000
0000
0000
0000
0000
0230
0000
0000
0000
0000
0000
0000
0000
0000
0000
0000
0000
0301
0000
0000
0000
0000
0000
0000
0000
0000
0000
1000
0000
0000
0000
0010
0000
0000
0000
,
1000
0000
0001
0000
0200
0000
0000
0000
0300
0000
0000
0000
00M1
0000
1000
0100
,
1000
0000
0001
0000
0100
0010
0100
0000
0010
0000
1000
0000
0001
0100
0010
1000
,
0001
0000
1000
0000
0010
0000
1000
0000
0100
0000
0010
0000
0001
0000
0100
0010
,
0100
0000
0001
0000
1000
0100
1000
0000
0001
0000
0100
0000
0010
1000
0010
0000
,
0100
0001
0100
0000
0010
0000
1000
0000
0001
0100
0010
1000
0001
0000
1000
0010
,
1000
0000
0010
0000
0100
0001
0100
0000
0010
0000
1000
0000
0001
0100
0010
0000
,
1000
0000
0100
0000
0010
0000
0001
0000
0010
0000
0100
0000
1000
0000
0100
1000
,
0100
0000
0010
0000
0001
0010
0001
0000
1000
0000
0001
0000
1000
0000
0100
0000
,
0010
0000
0001
0000
1000
0000
0010
0000
0100
0000
0001
0000
0101
0000
0000
1010
,
0000
0000
1100
0000
0000
0110
0000
0000
0011
0000
0000
0000
0011
0000
0000
0011
,
0000
0000
0110
0000
0000
1100
0000
0000
1000
0000
0001
0000
1001
0000
0000
0011
,
0000
0000
0110
0000
0000
1100
0000
0000
1001
0000
0000
0000
0011
0000
0000
0110
,
0000
0000
1100
0000
0000
1001
0000
0000
1000
0100
0010
0001
1000
0000
0000
1000
,
0000
0000
0010
0000
0100
0000
0000
0100
0000
0000
0001
0000
1000
0000
0000
1000
,
0000
0000
0001
0000
1000
0000
0001
0000
0100
0010
1000
0001
0010
0100
1000
0001
,
0100
0010
1000
0001
0100
0010
0100
0001
0100
0010
1000
0001
1000
0000
0000
0000
,
0000
0000
0000
0000
0001
0000
0100
0010
0100
0000
0001
0000
0100
0010
0100
0000
,
0001
1000
0010
0100
0001
1000
0010
1000
0001
0000
0000
0000
1000
0000
0000
0000
,
0001
1000
0001
0000
0010
0000
0100
1000
0100
0000
0010
0000
0001
1000
0010
0000
,
0100
0000
0001
1000
0010
0100
0001
0100
0010
0000
1000
0000
0001
0000
0100
0010
,
1000
0001
0100
0000
0010
0000
1000
0001
1000
0000
0010
0000
0100
0001
0100
0000
,
0010
0000
1000
0001
0100
0010
1000
0100
0010
0000
0001
0100
0010
0000
1000
0001
,
1000
0010
1000
0100
0010
0001
1000
0001
0100
0010
1000
0100
0010
0000
0001
0100
,
0010
1000
0001
0000
0100
0010
0100
0001
1000
0010
0100
0001
1000
0000
0010
1000
,
0020
0000
0000
0000
0130
0001
0100
0001
0100
0000
0010
0000
1000
0001
0100
0000
,
0010
0000
1000
0001
1000
0000
0010
1000
0010
0000
0100
0000
0100
0000
0001
0100
,
0010
0000
0000
1000
0000
0000
0010
0000
0000
1000
0000
0000
0001
0000
0000
0000
0000
0000
0010
0000
0000
0100
0000
0000
1000
0000
0000
0000
0000
0000
0001
0000
0000
0000
0000
0000
1000
0000
0000
0000
0100
0000
0000
0000
0010
0000
0000
0000
,
0001
0000
0000
0000
0100
0000
0000
0000
0010
0000
0000
0000
1000
0000
0000
0000
0000
0000
0000
0000
1000
0000
0000
0000
0000
0000
0000
0000
1000
0000
0000
0000
0000
0000
0000
0000
0001
0000
0000
0010
0000
0000
0001
0000
0000
0000
0000
0000
,
1000
0100
1000
0000
0001
0000
0010
0100
0010
0000
0000
0000
0001
1000
0001
0000
,
0010
0000
0010
0000
0100
0000
1000
0100
0020
0000
0000
0000
0031
0000
0000
0000
,
0000
0000
0000
0000
0001
1000
0001
1000
0001
0000
0010
0100
0010
0100
0010
0000
,
0001
0000
0010
0000
0100
1000
0100
1000
0100
0000
0010
0001
0010
0001
0010
0000
,
0001
1000
0100
1000
0010
0100
0001
1000
0100
0010
0001
1000
0010
0100
0001
1000
,
0100
1000
00M1
0000
0000
0000
0000
0000
1000
0100
0010
0001
1000
0010
0100
0001
,
0010
0100
1000
0010
0100
0001
1000
0100
0010
0001
1000
0010
0100
0001
0010
0100
,
1000
0001
0100
0010
1000
0100
0010
0001
1000
0010
0100
0001
0010
0100
1000
0001
,
0100
0001
1000
0100
0010
0001
1000
0010
1000
0100
0010
0001
0100
0010
1000
0001
,
1000
0000
0010
0000
0100
0000
0000
0000
0001
1000
0010
0100
0001
1000
0100
0010
,
0100
1000
0001
0010
0001
1000
0010
0100
0001
1000
0100
0010
0001
1000
0010
0100
,
0001
0010
0100
1000
0001
1000
0010
0100
0001
1000
0100
0010
0001
1000
0100
1000
,
0001
0100
0010
1000
0001
1000
0100
0010
0001
1000
0001
0010
0100
1000
0010
0100
,
0001
1000
0100
0010
0001
0100
0010
1000
0001
0000
0000
0000
0000
0000
1000
0000
,
0000
0000
0001
0100
0010
1000
0100
0010
,
0100
1000
0001
0100
0001
0000
0000
0001
,
0000
0100
0010
1000
0001
1000
0010
1000
,
0100
0010
0100
1000
0001
0000
0000
1000
,
0000
0000
1000
0001
0100
0010
1000
0100
,
0001
0100
1000
0001
0100
0000
0000
0001
,
0000
0000
2000
3020
,
0230
0000
0000
0000
0301
0000
0000
0000
1000
0100
0010
0001
1000
0010
0100
0001
,
0010
0100
1000
0010
0100
0001
1000
0100
0010
0001
1000
0010
0100
0001
0010
0100
,
1000
0001
1000
0010
0100
0001
0010
0100
0010
0000
0000
0000
0000
0000
0000
0000
;
