#TITLE:Atmosphere;
#SUBTITLE:;
#ARTIST:Cosmo Nova;
#TITLETRANSLIT:;
#SUBTITLETRANSLIT:;
#ARTISTTRANSLIT:;
#GENRE:;
#CREDIT:Braeden;
#MUSIC:atmosphere.ogg;
#BANNER:;
#BACKGROUND:;
#CDTITLE:;
#SAMPLESTART:60.168;
#SAMPLELENGTH:12.000;
#SELECTABLE:YES;
#OFFSET:0.008;
#BPMS:0.000=73.744
,34.000=147.488
,258.750=294.976
;
#STOPS:34.000=1.220;
#DISPLAYBPM:74.000:147.000;
#BGCHANGES:;
#FGCHANGES:;

//--------------- dance-single - ----------------
#NOTES:
     dance-single:
     :
     Beginner:
     4:
     0.251,0.312,0.13,0.65,0:
0000
0000
0000
0000
,
2000
0000
3002
0203
,
0320
0000
2030
0000
,
3002
0000
0203
0320
,
2030
0000
3002
1003
,
2001
0001
0001
3002
,
1000
1000
2003
0010
,
0010
0010
3020
0100
,
0100
0130
1001
2000
,
0000
3002
0000
0103
,
0000
0000
0000
0020
,
0000
2030
0000
3001
,
0000
0000
0000
2000
,
0000
3002
0000
1003
,
0000
0000
0001
2000
,
0000
0000
0000
3010
,
0100
0100
0100
2002
,
0000
0000
0000
0000
,
3003
2000
3020
0230
,
0000
0000
0000
0302
,
0000
0023
0130
0220
,
0000
0000
0000
0300
,
0000
2030
3001
2002
,
0000
0000
3003
0220
,
0000
0000
0330
1001
,
0000
1001
0000
1000
,
0001
1000
0001
2002
,
0000
0000
3003
2001
,
0000
0000
0000
3020
,
0000
0230
0000
0302
,
0000
0000
0000
2003
,
0000
0000
0000
3020
,
0000
0000
0000
0230
,
0000
0302
0000
2003
,
0000
0000
0000
3020
,
0000
1030
0001
2001
,
0000
0000
0000
3020
,
0000
0230
0000
0302
,
0000
0000
0000
2003
,
0000
0000
0000
3020
,
0000
0000
0000
0000
,
0000
2030
0000
3002
,
0000
2003
0000
3200
,
0000
0310
0001
1002
,
0000
0000
0000
0000
,
0000
0023
0230
2300
,
0000
0000
0000
3002
,
0000
0023
0230
2300
,
0000
0000
0000
0000
,
0000
3002
0023
0230
,
0000
0000
0000
2300
,
0000
0000
0000
3020
,
0000
0230
0000
0302
,
0000
2003
3200
0320
,
0000
0000
0000
0000
,
0000
0000
0000
0031
,
0000
1000
0000
0001
,
0000
1000
0000
0001
,
0001
1000
1000
1001
,
1001
1001
0000
0000
;

//--------------- dance-single - ----------------
#NOTES:
     dance-single:
     :
     Easy:
     5:
     0.212,0.312,0.121,0.381,0:
0000
0000
0000
0000
,
2000
0000
0000
0000
,
3002
0000
0000
0000
,
0013
0000
0000
0000
,
0002
0000
0203
0300
,
0220
0330
0010
1000
,
0002
0000
2003
0000
,
3010
0100
0001
0010
,
0100
1000
0001
1001
,
1000
0001
1000
0010
,
0000
1000
0000
0001
,
1000
0010
0100
0100
,
0000
0001
1000
1000
,
0010
0010
0100
0001
,
0000
0000
1000
0002
,
0000
0203
0000
0310
,
1010
1001
1001
2000
,
0000
0000
0000
0000
,
0000
3001
0100
0020
,
0000
0000
0000
2030
,
0000
3002
1003
2002
,
0000
0000
0000
0003
,
0000
0010
3010
2002
,
0000
0000
3003
0220
,
0000
0000
0330
1001
,
0001
0010
0001
1000
,
0001
0100
0010
1000
,
0000
0001
0001
2000
,
0000
0000
0000
3020
,
0000
0230
0000
0302
,
0000
0000
0000
0023
,
0000
0100
0100
0230
,
0000
0000
0000
2300
,
0000
3002
0000
0203
,
0000
0000
0000
0320
,
0000
1030
0001
2001
,
0000
0000
0000
3020
,
0000
0230
0000
0302
,
0000
0000
0000
0023
,
0000
0000
0000
0032
,
0000
1000
0000
0100
,
0000
2003
3000
1001
,
0000
0100
0000
1001
,
0000
1000
0001
0102
,
0000
0000
0000
0000
,
0000
1000
0100
2003
,
0000
0000
0000
3002
,
0000
0013
0100
1002
,
0000
0000
0000
0000
,
0000
0203
0310
1010
,
1000
0001
0010
0100
,
1000
0001
1000
1001
,
0001
0100
0010
0110
,
0100
0110
0001
2002
,
0000
0000
0000
0000
,
3000
1003
0100
1001
,
1000
0001
0010
0100
,
1000
0001
0010
0001
,
1000
0100
0010
1001
,
1001
1001
0000
0000
;

//--------------- dance-single - XMOD SJ- FL ----------------
#NOTES:
     dance-single:
     XMOD SJ- FL:
     Medium:
     10:
     0.408,0.737,0.225,0.502,0.134:
0000
0000
0000
0000
,
2000
0000
0001
0100
,
0002
0000
3003
0000
,
0002
0000
0100
0010
,
1000
0000
0000
0000
0003
0000
1000
0001
,
1001
1000
0010
0100
0001
0010
0100
1000
,
0001
1000
0010
1000
0001
0100
0010
1000
,
0001
1000
0010
0100
0001
1000
0100
0010
,
0001
1000
0010
1000
1M01
0000
1001
0000
,
1000
0000
0010
0000
0100
0010
0100
0000
,
1000
0001
0100
0010
,
0010
0000
1000
0000
0010
1000
0010
0000
,
1000
0001
0100
0010
,
1000
0000
0001
0000
0100
0010
0100
0000
,
0001
0010
0100
2000
,
0000
0000
0002
3000
0000
0000
1003
0000
,
1100
1001
0101
2002
,
0000
0000
0000
0000
,
3000
0203
0320
2030
,
0000
0000
0000
0020
,
0030
0001
3100
2002
,
0000
0000
3000
0200
,
0300
2003
3010
2020
,
0000
0000
3030
0202
,
0000
0000
0303
1001
,
1000
0010
1010
0000
0001
0100
0110
0000
,
1000
0001
1001
0000
0001
0100
0010
0000
,
0000
0000
1000
0000
0001
0100
0002
0000
,
1000
0100
1000
0200
,
0003
2000
0300
0200
,
0000
0000
3000
0002
,
0300
0000
0010
0000
1000
1000
2003
0000
,
0010
0000
0001
0001
0001
0000
3002
0000
,
0000
0200
0003
2000
,
0300
0000
0000
0200
,
3000
0000
0302
0000
1003
0010
2010
0000
,
3001
0000
0100
0010
0200
0000
0302
0000
,
2003
0000
3001
0100
0020
0000
2030
0000
,
3200
0000
0310
0001
0010
0000
0001
1000
,
0001
0000
1000
0010
1000
0000
0202
0000
,
0000
0000
0000
0000
,
0303
0020
0030
1010
,
0001
1000
0001
1010
,
0100
1000
0001
2001
,
0010
0001
0020
0000
,
3030
0002
1000
0010
,
1000
0000
0010
1003
,
0000
0000
2000
0000
3001
0100
0102
0000
,
0010
0000
1000
0000
,
0013
0000
1000
0000
0001
0100
0001
0010
,
0100
1000
0001
0100
0010
1000
0001
0010
,
0100
1000
0001
1000
0001
1000
1100
0000
,
1000
0010
0100
0001
1000
0001
0012
0000
,
1003
2010
3001
2002
,
0000
0000
0000
0000
,
3003
0000
0000
0000
0000
0000
0000
0000
0000
0000
0000
0000
1000
0000
0100
0000
1000
0000
0100
0000
0000
0000
0000
0100
,
0010
0000
0000
0000
0000
0010
0100
0000
0000
0000
0000
0001
1000
0000
0000
0000
0000
1000
0010
0000
0000
0000
0000
0010
,
0100
0000
0000
0000
0000
0100
0001
0000
0000
0000
0000
0001
1000
0000
0000
0000
0000
0000
0001
0000
0010
0000
0001
0000
,
1000
0100
1000
0001
0010
0001
1000
0100
1000
0001
0000
0000
,
1001
0202
0000
0000
,
0303
0000
0000
0000
;

//--------------- dance-single - XMOD STR FL DS SJ- ----------------
#NOTES:
     dance-single:
     XMOD STR FL DS SJ-:
     Hard:
     16:
     0.756,0.969,0.182,0.234,1:
0000
0000
0000
0000
,
0002
0000
0000
1000
0100
1000
0203
0000
,
0320
0000
0000
1000
0230
0000
1300
0001
,
2000
0000
3020
2030
,
3002
0000
0000
0000
0000
0000
0000
0000
0000
0000
0000
0000
1003
0100
1000
0001
1000
0001
0100
0001
1000
0100
1000
0001
,
1001
0000
0000
0001
0100
0010
1000
0000
0000
0001
0100
0010
1000
0000
0000
0001
0100
0010
1000
0001
0010
0001
1000
0001
,
1000
0000
0000
0001
1000
0001
1000
0000
0000
0001
0100
0001
0100
0000
0000
0010
1000
0010
1000
0001
0100
0001
0100
0001
,
1000
0000
0000
0001
0100
0010
1000
0000
0000
0001
1000
0010
0100
0000
0000
0001
0010
0001
0010
0100
1000
0100
1000
0100
,
0010
0100
0010
0001
0010
0100
1000
0001
0010
0100
1000
0001
10M1
0000
0000
0000
0000
0000
1001
0000
0000
0000
0000
0000
,
1000
0000
0010
0000
0100
0001
0100
0000
,
0010
1000
0010
1000
,
0001
0000
0100
0000
0010
1000
0010
0000
,
0100
0001
0010
0100
,
1000
0000
0001
0000
0100
0010
0100
0000
,
0001
0010
0100
2000
,
0000
3002
0000
0103
,
1010
1001
0101
0002
,
0000
0000
0000
0000
,
0000
2003
3020
0230
,
0000
0000
0000
0302
,
0000
0023
0130
0220
,
0000
0000
0330
2000
,
0000
3001
1000
2002
,
0000
0000
3003
0220
,
0000
0000
0000
0000
0000
0000
0000
0000
0330
0000
0000
0000
1000
0100
1000
0010
,
0100
0001
0010
0001
1000
0100
1000
0010
0100
0001
0010
0001
1000
0100
1000
0100
,
0010
0001
0010
0001
0100
0010
1000
0001
1000
0000
0001
0000
1000
0000
0000
0000
,
0000
0000
1001
0000
0001
1000
1010
0010
,
1000
0000
0001
0010
0100
0000
1000
0010
1000
0000
0001
0000
0010
0000
0100
0000
,
1000
0000
0001
0010
0001
0000
1000
0100
1000
0000
0001
0100
0001
0000
1000
0010
,
1000
0000
0001
0000
1000
0000
0001
0010
0001
0000
1000
0100
0010
0000
0001
0010
,
0001
0000
1000
0100
1000
0000
0001
0000
1000
0000
1000
0000
0100
0000
0010
0001
,
0010
0000
0001
0100
0000
0001
0100
0001
0100
0000
0010
1000
0010
0000
1000
0100
,
0010
0000
0001
1000
0000
0001
1000
0001
1000
0000
0010
0100
0001
0100
0010
0000
,
1000
0000
0010
1000
0000
0001
0100
0010
1000
0000
0001
1000
0010
1000
0001
0000
,
1000
0000
0001
0100
0000
0001
0100
0001
1000
0000
1000
0000
1001
0000
1000
0000
,
0001
0000
0100
0010
0000
1000
0100
0010
0001
1000
0010
0000
0100
0001
0100
0000
,
0001
0000
1000
0010
0000
1000
0001
0100
0010
1000
0100
0000
1000
0001
1000
0000
,
0001
0000
1000
0100
0000
0010
0001
0100
0010
1000
0001
0000
1000
0100
1000
0000
,
0001
0100
0001
0100
0000
0010
1000
0100
0010
0100
1000
0000
0001
0100
0001
0000
,
1000
0010
0100
0001
0000
1000
0100
0010
0100
1000
0001
0000
1000
0100
1000
0001
,
1000
0010
1000
0001
0000
1000
0010
0100
0001
1000
0100
0000
1100
0000
1000
0000
,
0100
0010
0001
0010
0000
0001
1000
0000
0001
0010
0001
1000
0001
1000
0100
0010
,
0001
0100
0010
0100
0001
1000
0100
0010
0001
0000
1000
0000
1100
0000
0010
0000
,
0011
0000
0001
1000
0100
0010
0001
1000
0001
0000
1000
0001
0100
0001
1000
0001
,
1000
0000
0001
0100
0001
1000
0001
0010
0001
0000
1000
0100
1000
0001
0010
0001
,
1000
0000
0001
0100
0010
0100
0001
1000
0001
0000
1000
0100
0010
0001
0100
0010
,
0100
0000
0100
0001
0100
0010
0100
0001
1000
0000
0001
0000
1001
0000
1000
0100
,
1000
0000
0001
0010
0000
0001
0100
0010
1000
0100
0010
0100
1000
0001
0100
0010
,
1000
0001
0010
0100
1000
0001
0010
0001
0100
0010
1000
0001
0010
0100
1000
0001
,
0100
0001
1000
0100
0010
0001
1000
0010
1000
0001
0010
0100
0010
0001
1000
0010
,
0100
0001
0010
0100
1000
0010
0100
0001
1000
0000
0001
0000
1000
0100
1000
0001
,
0100
0010
1000
0100
1000
0001
0100
0010
1000
0100
0010
0001
1000
0100
1000
0001
,
0010
0001
0100
0001
1000
0100
1000
0001
1000
0000
0000
0000
0202
0000
0000
0000
,
0000
0000
0000
0000
,
0000
0000
0000
0000
0000
0000
0000
0000
0000
0000
0000
0000
0303
0000
0000
0000
1000
0000
0100
0000
1000
0000
0100
0000
1000
0000
0000
0000
0000
0000
0000
0001
,
0100
0000
0000
0000
0000
0000
0000
0010
1000
0000
0000
0000
0000
0000
0000
0001
1000
0000
0000
0000
0000
0000
0000
0010
1000
0000
0000
0000
0000
0000
0000
0100
,
0010
0000
0000
0000
0000
0000
0000
0000
0000
0000
0000
0000
0000
0000
0000
0000
0000
0000
0000
0000
0000
0001
0000
0000
0100
0000
0000
0000
0000
0000
0000
0000
0000
0000
0000
0000
0000
0000
0000
0000
0000
0000
0000
0000
0000
0001
0000
0000
1000
0000
0000
0000
0000
0000
0000
0000
0000
0000
0000
0000
0000
0000
0000
0000
0000
0000
0000
0000
0000
0010
0000
0000
1000
0000
0000
0000
0000
0000
0000
0000
0001
0000
0000
0000
0000
0000
0000
0000
1000
0000
0000
0000
0000
0000
0000
0000
,
0010
1000
0001
0100
0010
1000
0001
1000
0001
1001
0000
0000
,
1100
2002
3003
0000
;

//--------------- dance-single - XMOD STR DS BU+ ----------------
#NOTES:
     dance-single:
     XMOD STR DS BU+:
     Challenge:
     18:
     0.939,1,0.208,0.459,1:
0000
0000
0000
0000
,
2000
0001
0100
0001
0100
0001
3200
0000
,
0320
0000
0000
0001
0230
0000
0301
1000
,
0002
0000
0023
0032
,
1003
0010
0100
0010
1000
0100
0010
0001
0100
0001
0100
0010
1000
0010
0100
0001
0010
0100
1000
0010
0100
0001
1000
0001
,
1001
0000
0000
1000
0100
0010
0001
0000
0000
1000
0010
0100
0001
0000
0000
1000
0100
0010
0001
1000
0010
1000
0001
1000
,
0001
0100
0010
1000
0001
1000
0001
0010
0001
1000
0010
0100
0001
0010
0100
0010
0001
0010
0001
1000
0010
0100
0001
1000
,
0001
1000
0010
0100
0001
0010
0001
1000
0100
1000
0001
0010
0001
1000
0010
0100
0001
1000
0010
0100
0001
1000
0001
0100
,
0010
0100
0010
1000
0100
1000
0001
1000
0010
0100
0001
1000
10M1
0000
0000
0000
0000
0000
2001
0000
0000
0000
0000
0000
,
3002
0000
0023
0000
0130
1000
0200
0000
,
0320
0032
0023
0032
,
2003
0000
3200
0000
0310
0001
0020
0000
,
0230
2300
3020
0230
,
0302
0000
2003
0000
3100
0010
0200
0000
,
2300
3020
0230
0302
,
0000
2003
0000
3100
,
0011
0000
1001
0000
1100
0000
2000
3200
,
0320
0000
0031
1000
0000
1000
0001
0000
1000
0100
1000
0000
0002
0000
0023
0000
,
0032
0003
0002
0000
0023
0000
0230
0000
,
0000
0000
0000
2300
,
0000
3020
0130
0220
,
0000
0000
0330
0001
,
0000
0001
1000
2002
,
0000
0000
3003
0220
,
0000
0000
0000
0000
0000
0000
0000
0000
0330
0000
0000
0000
0001
0100
0001
0010
,
0001
0000
0000
1000
0000
0000
0010
0000
0000
0100
0000
0000
0001
0000
0000
1000
0000
0000
0001
0000
0000
0100
0000
0000
0010
0000
0000
1000
0000
0000
0010
0000
0000
1000
0000
0000
0001
0000
0010
0000
0001
0000
1000
0000
0010
0000
0100
0000
,
0001
0000
1000
0000
0100
0000
0010
0000
0001
0000
0100
0000
0010
0000
1000
0000
0001
0000
0010
0000
0100
0000
1000
0000
0001
0000
0000
0000
0000
0000
1000
0000
0000
0000
0000
0000
1001
0000
0000
0000
0000
0000
1000
0000
0000
0100
0000
0000
,
0000
0010
0001
0000
1000
0100
0000
0010
0001
0000
0010
0000
0011
0000
0010
0000
,
0001
0000
1000
0010
0100
0001
0010
0100
1000
0001
1000
0000
0010
0100
0001
0010
,
0100
1000
0001
0100
0010
1000
0100
0010
0001
1000
0001
0100
0001
1000
0010
0100
,
0001
0010
0100
1000
0001
0100
0010
1000
0001
0010
0001
0100
0001
1000
0010
0100
,
0001
0010
0100
1000
0001
0100
0010
1000
0010
0000
1000
0000
1010
0000
0010
0100
,
0010
1000
0001
0010
0100
1000
0010
0100
0001
0000
1000
0010
1000
0100
1000
0010
,
1000
0001
0100
0010
1000
0100
0010
0001
1000
0000
0001
0100
0010
1000
0100
0000
,
0010
0000
0001
0100
0001
1000
0010
0100
0001
0100
0001
0010
0001
0000
1000
0010
,
0100
0001
0010
0100
1000
0001
0100
0010
1000
0000
0001
0000
1001
0000
1000
0010
,
0100
0000
0001
0100
0010
1000
0100
1000
0010
1000
0001
0000
1000
0000
0001
0100
,
0010
1000
0100
0010
0100
1000
0010
0100
0001
1000
0001
0010
0001
0000
0100
0010
,
0100
0010
1000
0001
0010
0100
1000
0010
0100
0000
0001
0000
1000
0010
0100
0001
,
1000
0100
0010
0001
0100
0010
1000
0100
0010
0000
0001
0000
0010
0000
0001
1000
,
0010
1000
0100
1000
0010
1000
0001
0100
0001
0000
0010
0100
1000
0010
0100
0001
,
1000
0100
0010
0001
0100
0010
1000
0001
0100
0010
0100
0000
0101
0000
0001
1000
,
0010
0000
0100
0001
1000
0100
0010
0100
1000
0010
0100
0000
0101
0000
0001
1000
,
0001
0000
0100
0000
0010
0000
1000
0000
0100
0000
0010
0000
0001
0000
1000
0000
0010
0000
1000
0000
0001
0000
0010
0000
0001
0000
1000
0000
0010
0000
1000
0000
0100
0000
1000
0000
0001
0000
0000
0010
0000
0000
0001
0000
0000
0000
0000
0000
,
1000
0000
0010
0100
0001
1000
0100
0010
0001
1000
0001
0000
1000
0010
0100
0001
,
0100
0010
1000
0001
0010
0100
1000
0010
0100
0000
0001
1000
0001
0000
0100
0010
,
0100
1000
0010
0100
0001
0100
0010
1000
0001
0100
0001
1000
0100
0010
0001
1000
,
0010
0100
0001
1000
0001
0100
0001
1000
0100
0000
0010
0000
0011
0000
0001
0100
,
0001
1000
0001
1000
0100
0010
0001
0010
0100
1000
0001
0100
0010
1000
0001
0010
,
0100
0000
0000
1000
0000
0000
0010
0000
0000
0100
0000
0000
0001
0000
0000
1000
0000
0000
0100
0000
0000
0010
0000
0000
0001
0000
0000
1000
0000
0000
0010
0000
0000
1000
0000
0000
0001
0000
0010
0000
0100
0000
1000
0000
0001
0000
0100
0000
,
0010
1000
0100
0010
0001
1000
0010
1000
0001
0010
0100
1000
0001
0010
0001
1000
0010
0100
0001
1000
0100
0010
0001
1000
,
0010
1000
0100
0010
0001
0100
0010
1000
0001
0010
0100
1000
0001
0100
0001
1000
0100
0010
0001
1000
0010
0100
0001
0010
,
0100
1000
0010
0100
0001
1000
0100
0010
0001
1000
0010
1000
0001
0010
0100
1000
0010
0100
0001
1000
0100
0010
0001
1000
,
0010
0100
0001
0010
0100
1000
0001
0100
0010
1000
0001
0010
0100
0000
0000
0000
0000
0000
2002
0000
0000
0000
0000
0000
,
0000
0000
0000
0000
,
3003
0000
0000
0000
0000
0000
0000
0000
0000
0000
0000
0000
0000
0000
0000
0000
0000
0000
0000
0000
0000
0000
0000
0000
0000
0000
0000
0000
0000
0000
0000
0000
0000
0000
0000
0000
0000
0000
0000
0000
0000
0000
0000
0000
0000
0000
0000
0000
0001
0000
0000
0000
1000
0000
0000
0000
0001
0000
0000
0000
1000
0000
0000
0000
0001
0000
0000
0000
1000
0000
0000
0000
0001
0000
0000
0000
0000
0000
0000
0000
0000
0000
0000
0000
0000
0000
0000
0000
0000
0000
1000
0000
0000
0010
0000
0000
,
1000
0000
0000
0000
0000
0000
0001
0100
0001
0000
0000
0000
0000
0000
1000
0010
1000
0000
0000
0000
0000
0000
0001
0100
0010
0000
0000
0000
0000
0000
1000
0010
,
0100
0000
0000
0000
0000
0000
0000
0000
0000
0000
0000
0000
0000
0000
0000
0000
0000
0000
0001
0000
0000
0100
0000
0000
0010
0000
0000
0000
0000
0000
0000
0000
0000
0000
0000
0000
0000
0000
0000
0000
0000
0000
1000
0000
0000
0001
0000
0000
1000
0000
0000
0000
0000
0000
0000
0000
0000
0000
0000
0000
0000
0000
0000
0000
0000
0000
0001
0000
0000
1000
0000
0000
0001
0000
0000
0000
0000
0000
0000
0000
1000
0000
0000
0000
0000
0000
0000
0000
0001
0000
0000
0000
0000
0000
0000
0000
,
0010
0001
1000
0100
0010
0001
1000
0001
1000
1001
0000
0000
,
2002
0020
0000
3033
;
