#TITLE:Anthem;
#SUBTITLE:;
#ARTIST:Perdique Darron;
#TITLETRANSLIT:;
#SUBTITLETRANSLIT:;
#ARTISTTRANSLIT:;
#GENRE:;
#CREDIT:;
#MUSIC:anthem.ogg;
#BANNER:Anthem-ban.png;
#BACKGROUND:Anthem-bg.png;
#CDTITLE:;
#SAMPLESTART:62.140;
#SAMPLELENGTH:12.000;
#SELECTABLE:YES;
#OFFSET:0.000;
#BPMS:0.000=170.139;
#STOPS:30.500=0.353
,125.000=0.353
;
#BGCHANGES:;
#FGCHANGES:;

//--------------- dance-single - ----------------
#NOTES:
     dance-single:
     :
     Beginner:
     4:
     0.217,0.344,0.141,0,0:
0000
0000
0000
0000
,
0000
0000
0000
0000
,
0000
0000
0000
0000
,
1000
0000
0001
0000
,
1000
0000
0010
0010
,
0010
0000
0100
0100
,
0100
0000
0001
0000
,
1000
0000
0001
0000
,
1001
0000
1001
0000
,
0110
0000
0110
0000
,
1001
0000
1001
0000
,
0110
0000
0110
0000
,
1001
0000
1001
0000
,
1000
0000
0001
0000
,
1000
0000
0010
0000
,
0100
0000
0001
0000
,
0000
0000
0000
1000
,
0000
0000
0000
0010
,
0000
0000
0000
0100
,
0000
0000
0000
0001
,
0000
0000
0000
1000
,
0000
0000
0000
0010
,
0000
0000
0000
0100
,
0000
0000
0000
1001
,
0000
0000
0000
0010
,
0000
0000
0000
1000
,
0000
0000
0000
0010
,
0000
0000
0000
1000
,
0000
0000
0000
0001
,
0000
0000
0000
1000
,
0000
0001
0000
1000
,
1000
1000
0000
1001
,
0000
0010
0000
1000
,
0000
0001
0000
1000
,
1000
1000
1000
0000
,
0001
0000
1000
0000
,
0010
0010
0010
0000
,
0100
0100
0100
0000
,
0010
0000
1000
0000
,
0001
1001
1000
0000
,
0001
0000
1000
0000
,
0001
0000
1000
0000
,
0001
0000
1000
0000
,
0001
0000
1000
1000
,
1000
0000
0010
0010
,
0010
0000
0100
0000
,
0001
0000
1000
0000
,
0001
0000
1000
1000
,
1000
0010
0010
0010
,
0100
0100
0001
0010
,
0001
1000
0100
1000
,
0100
1000
0001
0100
,
0001
0100
0010
1000
,
0010
1000
0001
1000
,
0000
1000
0000
0001
,
0000
0000
1000
0000
,
0000
0000
0010
0000
,
0000
0000
1000
0000
,
0000
0000
0010
0000
,
0000
0000
0100
0000
,
0001
0000
1000
0000
,
0001
0000
1000
1000
,
1000
0000
0001
0001
,
0001
0000
0001
0000
;

//--------------- dance-single - ----------------
#NOTES:
     dance-single:
     :
     Easy:
     11:
     0.498,0.598,0.249,0.119,0:
0000
0000
0000
0000
,
0000
0000
0000
0000
,
0000
0000
0000
0000
,
0000
0000
1000
0000
,
0001
0000
1000
0010
,
0100
0000
0001
0010
,
0100
1000
0001
0100
,
0010
1000
0000
0001
1000
0001
1000
0000
,
1001
0000
1010
0000
,
0101
0000
1001
0010
,
1000
0000
0001
0000
0100
0000
0010
1000
,
0000
0001
1000
0001
0000
1000
0010
1000
,
0000
0001
1000
0000
0010
0000
1000
0001
,
0000
1000
0010
0100
,
0001
1000
0001
0000
1000
0000
0010
1000
,
0000
1000
0010
1000
0000
0000
1001
0000
,
0001
1000
0000
0010
1000
0010
0000
0100
,
0001
0000
0010
0001
0000
1000
0001
0000
,
0100
0010
0000
1000
0100
0010
0001
0000
,
1000
0001
0000
0100
0010
1000
0001
0000
,
0010
0100
0000
1000
0001
0100
0000
0010
,
1000
0000
0001
0100
0000
0010
1000
0000
,
0100
0010
0000
0001
0100
0010
1000
0000
,
0001
1000
0000
0010
1000
0001
0100
0000
,
0010
1000
0000
0001
0100
0000
0010
1000
,
0000
0001
0100
0000
0010
1000
0001
0000
,
1000
0010
0000
1000
0001
0100
0010
0000
,
1000
0100
0000
0010
0001
0100
0010
0000
,
1000
0010
0000
1000
0001
0000
1000
0010
,
0000
0100
0001
0000
0010
0100
1000
0000
,
0001
0100
0000
0010
1000
0001
0100
0000
,
0001
1000
1001
0000
1000
0010
0000
1000
,
0010
0000
0100
0000
0001
0010
0000
0001
,
0010
0001
1000
0010
,
0100
0000
0001
0000
0010
0001
0000
1000
,
0001
1000
0000
0001
1000
0001
0000
0000
,
1000
0000
0010
0000
1000
0010
0000
0000
,
1000
0001
0100
0010
,
1000
0000
0001
0000
0010
0001
0000
1000
,
0001
1000
1001
0000
1000
0000
1010
0000
,
0010
0110
0100
0101
,
0001
0011
0020
0031
,
0200
0310
2000
3001
,
0200
0310
1000
1001
,
0010
1001
0010
1001
,
0100
1001
0002
0103
,
0200
0310
0020
1030
,
2000
3001
1000
0101
,
1000
0101
0010
1100
,
0010
0000
1100
0000
0001
0100
1000
0100
,
0001
0010
1000
0010
0001
0100
1000
0100
,
0100
0001
0100
0010
1000
0100
0001
0100
,
0010
0001
0100
0010
0001
0010
1000
0001
,
0100
1000
0100
0001
1000
0000
1010
0000
,
0100
0101
0001
1001
,
2000
0000
3001
0000
,
0100
0010
1000
0000
,
0001
1000
0010
0010
,
1000
1000
0001
0001
,
0000
0000
0100
0000
0010
1000
0000
0010
,
1000
0001
1000
0100
,
1000
0001
0100
0100
,
0010
0010
1000
0001
,
0100
0010
0220
0000
,
0000
0000
0000
0000
,
0330
0000
0000
0000
;

//--------------- dance-single - SJ ----------------
#NOTES:
     dance-single:
     SJ:
     Medium:
     13:
     0.692,0.664,0.682,0.271,0.125:
0000
0000
0000
0000
,
0000
0000
0000
0000
,
0000
0000
0000
0000
,
0000
0000
0000
0000
0000
0000
0000
1000
,
0100
1000
0000
0001
0100
0001
0100
0000
,
0001
1000
0000
1000
0010
1000
0001
0100
,
0001
0000
0010
0001
0010
0000
0001
1000
,
0001
1000
0000
0010
1000
0010
1000
0000
,
1010
0010
0000
0010
1010
0000
0000
0001
,
1001
1000
0000
0010
1010
0000
1001
0000
,
1000
0001
0100
0000
0010
0000
1000
0010
,
1010
0000
0100
0001
0101
0000
1000
0001
,
0101
0000
0001
1000
0010
0100
0001
0010
,
0011
0000
0001
1000
0010
0100
0001
1000
,
1001
0000
0010
1000
0110
0000
0001
0100
,
1010
0000
1000
0010
0101
0000
0001
0000
,
1001
2000
0000
3001
0100
0002
0000
1003
,
1020
0000
0100
0100
0000
1000
1030
0000
,
1001
1000
0000
0010
0100
0001
0010
0000
,
0011
0000
0001
0000
0000
0000
0010
0100
0010
0000
0100
0000
1000
0000
0000
0000
,
2010
0010
0000
3010
0100
0001
0000
1000
,
0002
0000
0100
0203
0000
0010
0320
0000
,
0100
0130
0000
1000
0001
0100
0010
0000
,
1010
0000
0010
0000
0000
0000
1000
0010
1000
0000
0000
0000
2010
0000
0000
0000
,
3001
0200
0000
0301
0200
0000
0310
2000
,
0000
3010
0200
0000
0301
0010
0100
0000
,
0001
1001
0000
0001
0100
0010
1000
0000
,
1000
0000
0100
0000
0000
0000
0100
0010
0100
0000
0010
0000
0001
0000
0000
0000
,
1001
0001
0000
1000
1010
0000
0010
1000
,
1001
0000
1000
0001
0100
0010
1000
0000
,
1001
0001
0000
1000
0010
0100
0001
0000
,
1000
0001
1100
0000
1001
0000
1010
0000
,
0100
0001
0010
0100
1000
0000
1001
0000
,
0010
0100
0001
0010
0100
0100
1000
1000
,
0001
0100
0010
1000
0001
1000
0000
0001
,
1000
0001
0000
0100
0010
1000
0001
0000
,
1100
0000
0101
0000
0001
0010
0100
1000
,
0001
0100
0010
1000
0001
0001
0100
0100
,
0010
1000
0001
1000
0010
0100
0000
0001
,
1000
0000
0000
0001
0000
0000
1001
0000
0000
0000
0000
0000
1000
0000
0000
0000
1000
0000
0010
0000
0000
0000
0010
0000
,
0100
0000
0100
0001
0000
0001
0010
0000
0010
0001
0000
0001
,
0010
0000
0010
0001
0000
0001
1000
0000
0000
1001
0000
0000
,
0010
1001
0100
1001
,
0010
0000
0000
1001
0000
0000
1000
0000
1000
0010
0000
0010
,
0100
0000
0100
0001
0000
0001
0010
0000
0010
0001
0000
0001
,
1000
0000
1000
0001
0000
0000
0010
0000
0000
1001
0000
0000
,
0100
1100
0010
0011
,
0001
1001
1000
1100
,
0010
0011
0001
1001
,
1000
0000
1010
0000
1000
0010
0101
0000
,
0001
0010
1100
0000
0001
0100
1010
0000
,
1000
0100
0011
0000
0001
1000
1010
0000
,
1000
0010
0101
0000
0001
1000
0010
0010
,
0100
0000
0000
0001
0000
0000
0011
0000
0000
0000
0000
0000
0001
0000
0000
0000
0001
0000
1000
0000
0000
0000
1000
0000
,
0010
0000
0010
0100
0000
0100
0001
0000
0001
1000
0000
0000
,
1001
0000
1001
0000
0020
2030
3000
0020
,
0230
0300
1001
0000
0020
2030
3000
0020
,
2030
3000
1001
0000
0010
1000
0020
0000
,
0130
0001
0020
0000
0130
1000
0001
2000
,
0000
3001
0101
0000
1000
0010
1010
0000
,
0001
0000
0101
0000
1000
0010
0101
0000
,
0001
0000
1100
0000
0001
1000
1010
0100
,
0001
0100
0101
0001
1000
0001
1000
0001
,
0000
1000
0001
1000
2002
0000
0000
0000
,
0000
0000
3003
0000
;

//--------------- dance-single - BU SJ- XO ----------------
#NOTES:
     dance-single:
     BU SJ- XO:
     Hard:
     14:
     0.778,0.771,0.238,0.292,0.406:
0000
0000
0000
0000
,
0000
0000
0000
0000
,
0000
0000
0000
0000
,
0000
0000
0000
1000
0001
1000
0000
0001
,
0100
0001
0000
1000
0010
1000
0001
0100
,
0001
1000
0000
0010
0100
0001
1000
0100
,
0010
0000
0000
0001
1000
0001
1000
0000
0000
0010
0000
0000
1000
0000
0000
0100
0000
0000
0010
0000
0000
0001
0000
0000
,
0010
0001
0000
1000
0001
10M0
0001
1000
,
1001
0001
0100
0010
1010
1000
0001
1000
,
1000
0000
0000
0001
0000
0000
0100
0000
0000
0010
0000
0000
1000
0000
0000
0001
0000
0000
1000
0000
0000
0001
0100
0001
,
0100
0010
1000
0001
1001
1000
0010
0100
,
0000
0100
0001
0100
0010
1000
0001
1000
,
1001
0001
0000
1000
1010
0000
0000
0001
,
1001
0000
0000
1000
0000
0000
0000
0000
0000
0001
0000
0000
0100
0000
0000
0010
0000
0000
0010
0000
0000
1000
0001
1000
,
0001
1000
0010
0100
0101
0001
1000
0001
,
1001
1000
0010
1000
1001
0000
0002
0000
,
1003
0000
0200
0010
0000
0000
0310
0000
0001
0000
0200
0000
0000
0000
0310
0000
,
1000
0000
0000
0010
1000
0000
0001
1000
0001
0000
1000
0000
0002
0000
0000
0000
,
0103
0000
0020
1000
0000
0000
1030
0000
0001
0000
0000
0101
0000
0000
0100
0000
,
0001
0000
0200
0000
0000
0000
0310
1000
0010
0000
1000
0000
0002
0000
0000
0000
,
1003
0000
0000
1010
0000
0000
0010
0000
0100
0000
0002
0000
0000
0000
1003
0000
,
0010
0000
0000
0100
0001
0000
0100
0001
0100
0000
0010
0000
2000
0000
0000
0000
,
3001
0000
0000
0101
0000
0000
0100
0000
0010
0000
1000
0100
1000
0000
0100
0000
,
0110
0000
0020
0000
0000
0000
0031
1000
0010
0000
0100
0000
0020
0000
0000
0000
,
1030
0100
0000
0100
0001
0000
0001
0100
,
0000
0000
0100
0000
1000
0000
0001
1000
0001
0000
1000
0000
0010
0000
0000
0000
,
0001
0000
0010
0000
0000
0000
1000
0000
0100
0000
0010
0100
2000
0000
0000
0000
,
0001
0000
3002
0000
0000
0000
1003
0010
1000
0000
0001
0000
1000
0000
0000
0000
,
1001
0000
0001
0100
0000
0000
0010
0000
1000
0000
0000
0000
1000
0000
0010
0000
,
0000
0000
0010
0000
0100
0000
0001
0010
0001
0000
1000
0000
0001
0000
0000
0000
,
1001
0000
0001
1000
0000
0000
0010
0000
0100
0000
0001
1000
0001
0000
1000
0000
,
0010
1000
0010
1000
001M
0000
0000
0000
1000
0000
0100
0000
0000
0000
0100
0000
,
0001
0100
0010
0001
1000
0100
0000
0100
,
0010
0000
0000
0001
0000
0000
0100
0000
0000
0010
0000
0000
1000
0000
0000
0001
1000
0001
1000
0000
0000
0010
0000
0000
,
0100
0001
0010
0100
1000
0100
0000
0100
,
0001
0100
0000
0100
1000
0100
0000
0010
,
0001
0100
1000
0100
0001
0100
0000
0010
,
1000
0000
0000
0100
0000
0000
0010
0000
0000
0001
0000
0000
1000
0000
0000
0001
0100
0001
1000
0000
0000
0001
0000
0000
,
0100
0010
1000
0100
0010
0001
0000
0100
,
0010
0000
0000
0100
0000
0000
0110
0000
0000
0000
0000
0000
1000
0000
0000
0000
1000
0000
0100
0000
0000
0000
0100
0000
,
0010
0000
0010
0001
0000
0001
0010
0000
0010
0100
0000
0100
,
1000
0000
1000
0100
0000
0100
0010
0000
0000
0001
0000
0001
,
0100
0000
0000
0010
0000
0010
1000
0000
0000
0001
0000
0001
,
1000
0000
1000
0100
0000
0100
0010
0000
0010
0001
0000
0001
,
0100
0000
0100
0010
0000
0010
1000
0000
1000
0100
0000
0100
,
0010
0000
0010
0001
0000
0001
0010
0000
0000
1001
0000
1000
,
0010
0000
0000
0101
0000
0001
0100
0000
0100
0010
0000
0010
,
1000
0000
0001
0000
0000
0000
1001
0000
1000
0010
0000
0100
,
0001
0000
0100
0010
0000
1000
0100
0000
0010
0001
0000
0010
,
0100
0000
0000
0000
1000
0000
0100
0000
0000
0000
0010
0000
0001
0000
0000
0100
0000
0000
0001
0000
0000
0100
0000
0000
,
1000
0100
1000
0100
0001
0100
0001
0100
,
0001
0010
0001
0010
1000
0010
1000
0010
,
0001
0010
0001
0010
0100
1000
0100
1000
,
0001
0000
0000
0100
0000
0000
0001
0000
0000
1000
0000
0000
0001
0000
0000
0000
0010
0000
0100
0000
0000
0000
1000
0000
,
0100
0000
0010
0001
0000
0010
0100
0000
1000
0100
0000
0010
,
0001
0000
0000
0000
1001
0000
0000
0000
2000
0000
3020
0000
0130
0000
0001
1000
,
0002
0000
0100
0000
0103
0000
0010
0000
2000
0000
3020
0000
0130
0000
0001
1000
,
0020
0100
0130
0001
1000
1000
0100
0001
,
0100
0100
0010
0001
0100
0100
0010
1000
,
0000
0000
0001
0000
0100
0000
0010
0000
2000
0000
3020
0000
0130
0000
0001
0100
,
0020
0000
1030
0000
0001
0000
0100
0000
0020
0000
2030
0000
3001
0000
0100
0010
,
2000
0001
3001
0000
1000
0100
0001
0100
,
1000
0100
0001
0100
1000
0010
0001
0010
,
0000
1000
0001
0010
2002
0000
0000
0000
,
0000
0000
0000
3003
;

//--------------- dance-single - BU SJ- XO FS ----------------
#NOTES:
     dance-single:
     BU SJ- XO FS:
     Challenge:
     15:
     0,0,0,0,0:
0000
0000
0000
0000
,
0000
0000
0000
0000
,
0000
0000
0000
0000
,
0000
0000
0000
1000
0001
0100
00M0
0100
,
1000
0001
0000
1000
0010
1000
0001
0100
,
0001
0010
0M00
0010
0100
0001
1000
0100
,
0010
0000
0000
0001
0100
0010
1000
0000
0000
0010
0000
0000
1000
0000
0000
0100
0000
0000
0010
0000
0000
0001
0000
0000
,
0010
0100
00M0
0100
0001
10M0
0001
1000
,
1100
1000
0100
0001
0101
0100
1000
0001
,
1000
0000
0000
0001
0000
0000
0100
0000
0000
0010
0000
0000
1000
0000
0000
0001
0000
0000
1000
0000
0000
0001
0100
0010
,
1000
0001
0100
1000
1100
0100
0010
0100
,
0001
1000
0001
0010
0100
1000
0001
1000
,
1010
0010
0100
0001
0100
1000
0100
0001
,
1001
0000
0000
1000
0000
0000
0001
0000
0000
0100
0000
0000
0010
0000
0000
1000
0000
0000
0010
0000
0000
1000
0010
0100
,
0001
1000
0010
0100
0101
0001
0010
1000
,
1010
0010
0100
1000
1001
0000
0002
0000
,
1003
0000
0100
0010
0001
0000
0010
0000
0001
0000
0200
0000
0010
0000
0310
0000
,
1000
0000
0000
0010
1000
0000
0001
1000
0001
0000
1000
0000
0001
0000
1000
0000
,
0100
0000
0010
0001
0010
0000
0001
0000
1000
0000
0001
0100
0010
0000
0100
0000
,
0001
0000
0200
0000
0000
0000
0310
1000
0010
0000
1000
0000
0002
0000
0000
0000
,
1003
0000
0001
0010
0100
0000
1000
0000
0010
0000
0200
0000
0000
0000
0301
0000
,
0010
0000
0000
0100
1000
0000
0001
0010
0001
0000
1000
0000
0002
0000
0000
0000
,
1003
0000
0100
0010
0001
0000
0100
0000
0010
0000
1000
0100
1000
0000
0100
0000
,
0010
0000
0020
0000
0000
0000
0031
1000
0010
0000
0100
0000
0020
0000
0000
0000
,
1030
0000
0100
0010
0001
0000
0100
0000
0001
0000
0000
0000
1000
0000
0010
0000
,
0100
0000
0001
0010
0001
0000
1000
0001
1000
0000
0001
0000
0010
0000
0000
0000
,
0100
0000
1000
0001
1000
0000
0001
0000
0010
0000
0100
0010
0002
0000
1000
0000
,
1003
0000
0001
0000
0100
0000
0001
0100
0001
0000
1000
0000
0001
0000
0000
0000
,
1001
0000
1000
0010
0100
0000
0001
0000
0010
0000
0100
0000
1000
0000
0100
0000
,
0010
0000
0000
0100
0010
0000
0001
0100
0001
0000
1000
0000
0001
0000
0000
0000
,
1001
0000
1000
0001
0100
0000
0010
0000
1000
0000
0001
0010
0100
0000
1000
0000
,
0001
1000
0010
1000
0M01
0000
0000
0000
0001
0000
0010
0000
0M00
0000
0010
0000
,
1000
0100
0010
0001
1000
0010
000M
0010
,
0100
0000
0000
1000
0000
0000
0010
0000
0000
0100
0000
0000
0001
0000
0000
1000
0010
0100
0001
0000
0000
0100
0000
0000
,
0010
1000
0100
0010
0001
0100
00M0
0100
,
1000
0010
0M00
0010
0001
0010
0M00
0010
,
1000
0010
0001
0010
1000
0100
00M0
0100
,
0001
0000
0000
0010
0000
0000
0100
0000
0000
1000
0000
0000
0001
0000
0000
1000
0010
1000
0001
0000
0000
1000
0000
0000
,
0010
0100
0001
0010
0100
1000
0000
0001
,
0100
0000
0000
0001
0000
0000
0101
0000
0000
0000
0000
0000
0001
0000
0000
0000
0001
0000
0010
0000
0000
0000
0010
0000
,
0100
0000
0100
1000
0000
1000
0100
0000
0100
0010
0000
0010
,
0001
0000
0001
0010
0000
0010
0100
0000
0000
1000
0000
1000
,
0010
0000
0000
0100
0000
0100
0001
0000
0000
1000
0000
1000
,
0001
0000
0001
0010
0000
0010
0100
0000
0100
1000
0000
1000
,
0010
0000
0010
0100
0000
0100
0001
0000
0001
0010
0000
0010
,
0100
0000
0100
1000
0000
1000
0100
0000
0000
1001
0000
0001
,
0100
0000
0000
1010
0000
1000
0010
0000
0010
0100
0000
0100
,
0001
0000
1000
0000
0000
0000
1001
0000
0001
0100
0000
0010
,
1000
0000
0010
0100
0000
0001
0010
0000
0100
1000
0000
0100
,
0010
0000
0000
0000
0001
0000
0010
0000
0000
0000
0100
0000
1000
0000
0000
0010
0000
0000
1000
0000
0000
0010
0000
0000
,
0001
0010
0001
0010
1000
0010
1000
0010
,
1000
0100
1000
0100
0001
0100
0001
0100
,
1000
0100
1000
0100
0010
0001
0010
0001
,
1000
0000
0000
0010
0000
0000
1000
0000
0000
0001
0000
0000
1000
0000
0000
0000
0100
0000
0010
0000
0000
0000
0001
0000
,
0010
0000
0100
1000
0000
0100
0010
0000
0001
0010
0000
0100
,
1000
0000
0000
0000
1001
0000
0000
0000
0002
0000
0203
0000
0310
0000
1000
0001
,
2000
0000
0010
0000
3010
0000
0100
0000
0002
0000
0203
0000
0310
0000
1000
0001
,
0200
0010
0310
1000
0001
0001
0010
1000
,
0010
0010
0100
1000
0010
0010
0100
0001
,
0000
0000
1000
0000
0010
0000
0100
0000
0002
0000
0203
0000
0310
0000
1000
0010
,
0200
0000
0301
0000
1000
0000
0010
0000
0200
0000
0302
0000
1003
0000
0010
0100
,
0002
1000
1003
0000
0001
0010
1000
0010
,
0001
0010
1000
0010
0001
0100
1000
0100
,
0000
0001
1000
0100
2002
0000
0000
0000
,
0000
0000
0000
3003
;
