#TITLE:Alone;
#SUBTITLE:;
#ARTIST:Trevor Daniel;
#TITLETRANSLIT:;
#SUBTITLETRANSLIT:;
#ARTISTTRANSLIT:;
#GENRE:;
#CREDIT:Braeden;
#MUSIC:Alone.ogg;
#BANNER:;
#BACKGROUND:;
#CDTITLE:;
#SAMPLESTART:0.000;
#SAMPLELENGTH:0.000;
#SELECTABLE:YES;
#OFFSET:-0.221;
#BPMS:0.000=168.000;
#STOPS:;
#BGCHANGES:;
#FGCHANGES:;

//--------------- dance-single - ----------------
#NOTES:
     dance-single:
     :
     Beginner:
     3:
     0,0,0,0,0:
0000
0000
0000
0000
,
0000
0000
0000
0000
,
0000
0000
0000
0000
,
0000
0000
0000
0000
,
0000
0000
0001
0000
,
0000
0000
0000
0000
,
0000
0000
0000
0000
,
0000
0000
0000
0000
,
1000
0000
0001
0000
,
0100
0000
0010
0000
,
1000
0000
0100
0000
,
0010
0000
0001
0000
,
0100
0000
0010
0000
,
1000
0000
0001
0000
,
0100
0000
0010
0000
,
1000
0000
0001
0000
,
1000
1000
0000
0001
,
0001
0000
0100
0000
,
0010
0010
0000
1000
,
1000
0000
0001
0000
,
1000
1000
0000
0010
,
0010
0000
0100
0000
,
0010
0010
0000
1000
,
1000
0000
0001
0000
,
0000
0000
1000
0000
,
0000
0000
0001
0000
,
0000
0000
0100
0000
,
0000
0000
0010
0000
,
0000
0000
1000
0000
,
0000
0000
0001
0000
,
0000
0000
1000
0000
,
0000
0000
0000
0000
,
0001
0000
0100
0000
,
0000
0000
0010
0000
,
0000
0000
1000
0000
,
0000
0000
0001
0000
,
0000
0100
0100
0000
,
0000
0000
0010
0000
,
0000
0000
1000
0000
,
0000
0000
0100
0000
,
1001
0000
0000
0000
,
0001
0000
0000
0000
,
1000
0000
0000
0000
,
0010
0010
0010
0000
,
1001
0000
0100
0000
,
0000
0000
0001
0000
,
0000
0000
1000
0000
,
0000
0000
0001
0000
,
1000
0000
1001
0000
,
0000
0000
1001
0000
,
0000
0000
1001
0000
,
0000
0000
1001
0000
,
0100
0000
1001
0000
,
0010
0000
0110
0000
,
0100
0000
0110
0000
,
0010
0000
0000
0000
,
0001
0001
0000
1000
,
1000
0000
0010
0000
,
0100
0100
0000
0000
,
0001
0000
1000
0000
,
0001
0001
0000
0100
,
0100
0000
0010
0000
,
1000
1000
0000
0001
,
0001
0000
1000
0000
,
0000
0000
0001
0000
,
0000
0000
0100
0000
,
0000
0000
0010
0000
,
0000
0000
1000
0000
,
0000
0000
0100
0000
,
0000
0000
0010
0000
,
0000
0000
0001
0000
,
0000
0000
0000
0000
,
0001
0000
1000
0000
,
0000
0000
0001
0000
,
0100
0000
0010
0000
,
1000
0000
0100
0000
,
0010
0000
0001
0000
,
0100
0000
0010
0000
,
1000
0000
0001
0000
,
1000
0000
0010
0000
,
1001
0000
0100
0000
,
0010
0000
0100
0000
,
0001
0000
1000
0000
,
0100
0000
0010
0000
,
0001
0000
0100
0000
,
0010
0000
1000
0000
,
0001
0000
0100
0000
,
0010
0000
1000
0000
;

//--------------- dance-single - ----------------
#NOTES:
     dance-single:
     :
     Easy:
     7:
     0,0,0,0,0:
0000
0000
0000
0000
,
0000
0000
0000
0000
,
1000
0000
0001
0000
,
1000
0000
0010
0000
,
0100
0001
2000
3000
,
0002
0003
2000
3000
,
0002
0003
0010
0000
,
0001
0001
0001
0000
,
1000
0001
1001
1000
,
0010
0100
0101
0001
,
0010
0100
1100
1000
,
0001
0100
0110
0010
,
1000
0010
1010
1000
,
0001
0100
0101
0001
,
0010
0001
0101
0001
,
0100
0010
0110
0010
,
1000
1000
0001
1000
,
1000
0010
0100
0100
,
0001
0001
0100
0010
,
0010
1000
0100
0010
,
0001
0001
0100
0010
,
0010
1000
0001
0001
,
0100
0100
0010
1000
,
1000
0001
1000
0001
,
0000
0100
0010
0100
,
0001
0100
0010
0100
,
0000
0001
1000
0001
,
1000
0010
1000
0001
,
0000
1000
0100
1000
,
0010
1000
0001
0100
,
0000
0010
1000
0001
,
0100
0000
0000
0000
,
0001
1000
1001
0001
,
0100
0010
0101
0010
,
0100
0010
1010
1000
,
0001
1000
1001
0001
,
1000
0010
0110
0100
,
0001
0010
0011
0001
,
0100
0010
1010
1000
,
0001
1000
1001
0001
,
0100
0010
1000
0001
,
0001
0100
0010
1000
,
0100
0100
0010
0001
,
1000
0001
1000
0010
,
1000
0001
0101
0000
,
0010
1000
1010
0000
,
1000
0001
1001
0000
,
0001
0100
0110
0000
,
0010
0000
1010
1000
,
0000
0000
1001
0000
,
0001
0000
1001
1000
,
0000
0000
0001
0100
,
0001
0000
0101
0010
,
0000
0000
1000
0001
,
0100
0000
0110
0010
,
1000
0001
1000
0010
,
1000
1000
0001
0100
,
0100
0010
1000
0001
,
0100
0100
0010
1000
,
1000
0001
0100
0010
,
1000
1000
0100
0001
,
0001
0100
1000
0010
,
0100
0100
0001
0100
,
0010
0010
1000
0001
,
0100
0010
1000
0100
,
1000
0010
1000
0001
,
0000
1000
0100
1000
,
0010
1000
0001
0100
,
0000
0010
1000
0100
,
1000
0001
0100
0010
,
0000
1000
0100
0010
,
0001
0000
0000
0000
,
1000
0001
1001
1000
,
0010
0100
0110
0100
,
0001
0010
0011
0001
,
0100
0010
1010
1000
,
0100
0010
0011
0001
,
0100
0010
1001
1000
,
0010
0100
0101
0001
,
0010
0001
0101
0100
,
0110
0010
1000
0001
,
0001
0100
0010
1000
,
1000
0100
0010
0001
,
0001
0100
0100
0010
,
1000
0001
1000
0010
,
1000
0001
0100
0010
,
1000
1000
0001
0001
,
0100
0010
1000
0001
,
1001
0000
0000
0000
;

//--------------- dance-single - ----------------
#NOTES:
     dance-single:
     :
     Medium:
     10:
     0,0,0,0,0:
0000
0000
0000
0000
,
0000
0000
0000
0000
,
1000
0001
1000
0010
,
1000
0001
0100
0001
,
0100
0000
0001
0100
0001
0100
0000
0020
,
0000
0000
1030
0020
0000
0000
0130
0001
,
0100
0010
1000
0100
,
0010
0001
0100
0010
,
1000
0000
0010
0000
1010
0000
1000
0001
,
1000
0000
0010
0000
0100
0000
0001
0000
0100
0000
0010
0000
,
1000
0001
1000
0000
0010
0100
0010
1000
,
0001
0000
0100
0000
0010
0000
1000
0000
0001
0000
0100
0000
,
0010
1000
0010
0000
1010
0000
1000
0000
,
0001
0000
0100
0000
0010
0000
1000
0000
0001
0000
1000
0000
,
0001
0000
1000
0100
0010
0001
0100
0000
,
0010
1000
0000
0010
1000
0000
0010
0000
,
1010
0000
1000
0000
0001
0100
0020
0000
,
0130
0000
0010
1000
0002
0000
0103
0000
,
0200
0000
0310
0000
0001
0100
0001
0000
,
0100
0000
0000
0000
0001
0000
0000
0000
1000
0000
0000
0000
0010
0000
0000
0000
0000
0000
1000
0000
0000
0010
0000
0000
,
0100
0001
0100
0000
0001
0010
0001
0100
,
0010
1000
0010
0000
1000
0010
1000
0000
,
0001
1000
1001
0001
,
0100
0000
0000
0000
0010
0000
0000
0000
1000
0000
0000
0000
0001
0000
0000
0000
0000
0000
1000
0000
0000
0010
0000
0000
,
1000
0002
0203
0320
,
2030
0000
3200
0000
0320
0000
0031
0100
,
0001
2000
3020
0230
,
0302
0000
0203
0000
0320
0000
1030
0001
,
0100
0002
2003
3020
,
2030
0000
3002
0000
2003
0000
3001
0100
,
0010
2000
3002
2003
,
3001
0000
0000
0000
,
1001
0000
1000
0010
0100
0001
0000
0200
,
0000
0000
0310
1000
0001
0000
1000
0010
,
0200
0000
0301
0000
0100
0010
0100
0001
,
0100
0010
1000
0002
0000
0000
0103
0010
,
1000
0000
0100
0010
0001
0010
0000
0002
,
0000
0000
1003
0010
1000
0000
0001
0100
,
0001
0100
0110
0010
,
1000
0001
0000
1000
0001
0000
0100
0010
,
1010
0000
1000
0001
1000
0000
0001
0100
,
0001
0000
0100
0010
0100
0000
0001
0010
,
0001
0000
1000
0010
1000
0000
0001
0100
,
0001
0010
0001
0100
0001
0010
0001
0100
,
0001
0000
1000
0010
1000
0001
0000
2000
,
0000
0000
3010
0100
0001
0000
0100
0010
,
1000
0001
0010
0100
,
1000
0010
0000
1000
0010
0000
0100
0001
,
2000
0000
3001
0100
0010
0000
1000
0000
,
0010
0100
0000
0001
0100
0010
0100
0001
,
0020
0000
0031
0100
0000
0010
1000
0000
,
0001
0100
0000
0010
1000
0100
1000
0001
,
2000
0000
3001
0010
0000
0100
1000
0000
,
0010
0100
0000
0001
0010
0001
0100
0010
,
0200
0000
0301
0010
0000
0100
1000
0100
,
0010
0000
0001
1000
0001
0000
1000
0001
,
0201
0000
0301
0000
1000
0010
0100
0001
,
0100
0000
0010
1000
0000
0001
0100
0000
,
0010
1000
1001
0001
,
2000
0000
3001
0100
0000
0010
0100
0000
,
0001
0100
0110
0010
,
1000
0000
0001
1000
0000
0010
1000
0000
,
0001
0010
1100
1000
,
0001
0000
0000
0000
0000
0000
0000
0000
1000
0000
0000
0000
0000
0000
0000
0000
0010
0000
0000
0000
0000
0000
0000
0000
0100
0000
0000
0000
0000
0000
0000
0000
0000
0001
0000
0000
0000
0000
0000
0000
0000
0000
0100
0000
0000
0000
0000
0000
,
0010
1000
1001
0001
,
0100
0000
0010
0000
1010
0000
1000
0001
,
1000
0010
0110
0100
,
0001
0000
0010
0000
1100
0000
1000
0001
,
1000
0001
0101
0100
,
0010
0000
1000
0000
1001
0000
0001
0100
,
0010
1000
1001
0001
,
0100
0000
0000
0000
,
1001
0000
0001
0100
0010
1000
0000
0002
,
0000
0000
1003
0010
0100
0000
0001
0010
,
0001
0000
0100
0000
0010
1000
0000
0002
,
0000
0103
0001
0100
0010
0000
1000
0100
,
1000
0000
0001
0010
0100
1000
0000
0002
,
0000
0000
0103
0010
1000
0000
0001
0010
,
0001
0100
0010
1000
,
0100
0010
0000
0001
0000
0000
0100
0010
,
1010
0000
1000
0001
0100
0000
0010
1000
,
0001
0000
0100
0010
0100
0000
0001
0010
,
0001
0000
0100
0010
0100
0000
0001
1000
,
0001
0100
0010
0100
0001
0100
0010
0100
,
0001
0000
1000
0100
1000
0001
0000
2000
,
0000
0000
3010
0100
0001
0000
0100
0010
,
1000
0001
0010
0100
,
1000
0001
0000
1000
0000
0000
0001
1000
,
0001
0000
0000
0000
;

//--------------- dance-single - XO JA SJ- ----------------
#NOTES:
     dance-single:
     XO JA SJ-:
     Hard:
     13:
     0,0,0,0,0:
0000
0000
0000
0000
,
0000
0000
0000
0000
,
1000
0010
1000
0000
0001
0100
0001
0000
,
1000
0010
1000
0000
0001
0100
0001
0000
,
1000
0100
0010
0000
0001
0010
0100
0000
,
1000
0010
0100
0000
0001
0100
0010
0000
,
1000
0100
0010
0000
0001
0010
0100
0000
,
2000
0000
0000
3000
,
0001
0100
0001
0010
0001
0001
0100
0010
,
1000
0001
0010
0100
1000
1000
0010
0100
,
0001
1000
0010
0100
0001
0001
1000
0100
,
0010
0001
0010
0100
1000
1000
0010
0100
,
0001
0010
1000
0010
0001
0001
0100
0010
,
1000
0100
0001
0100
1000
1000
0010
0100
,
0001
0010
0100
1000
0001
0001
0100
0010
,
1000
0100
0010
0001
0100
0100
0010
0000
,
1010
1000
0010
1000
0100
0010
0100
0010
,
0010
0001
0010
0100
1000
0010
0001
0010
,
0100
0001
1000
0001
0100
1000
0100
0001
,
0100
0010
0100
0100
0001
0100
0010
1000
,
0001
0100
1000
0100
0010
0100
0001
0001
,
0100
0100
0010
1000
0100
0001
0100
1000
,
0001
0100
0001
0100
0100
0010
1000
0100
,
0010
0000
0000
0000
0001
0000
0000
0000
0100
0000
0000
0000
0020
0000
0000
0000
0000
0000
1030
0000
0000
0001
0000
0000
,
0100
0020
2030
3002
,
2003
0000
3200
0000
0320
0000
0031
0100
,
0001
2000
3020
2030
,
3020
0000
0230
0000
0302
0000
1003
0010
,
1000
0002
2003
3020
,
0230
0000
0302
0000
2003
0000
3001
0100
,
0001
2000
3020
0230
,
0301
0000
1000
0000
0010
0000
0100
0001
,
0100
0001
0010
0001
1000
0100
0010
0001
,
1000
0001
0100
0001
0001
1000
0100
0001
,
0100
1000
0001
0100
0010
0100
0001
1000
,
0010
1000
0100
1000
1000
0010
0100
0001
,
0010
0100
1000
0010
0100
0001
0010
0001
,
1000
0001
1000
0010
0010
0100
0001
0100
,
0001
1000
0100
0010
0001
0100
0001
0010
,
0100
0010
0001
0100
0100
0010
1000
0010
,
1010
1000
0010
0100
0101
0000
0001
0010
,
0001
0100
0010
1000
1010
0000
1000
0100
,
0010
0001
0100
0010
1010
0000
1000
0100
,
0001
0100
1000
0010
0100
0001
0010
0001
,
0100
0010
1000
0100
1000
1000
0001
0100
,
0010
1000
0001
0010
0100
0100
0010
0001
,
0100
0010
1000
0001
0100
0100
0010
1000
,
0001
0010
0100
1000
0001
1000
0010
0100
,
0002
0000
1003
0100
0010
0001
0200
0000
,
0310
1000
0000
0001
0100
0001
0010
0001
,
0200
0000
0310
1000
0001
0100
0002
0000
,
1003
0100
0000
0000
0011
0001
0100
0010
,
0200
0000
0301
0100
0001
0100
0020
0000
,
1030
0001
0000
1000
0010
0100
0001
0100
,
0002
0000
1003
0100
0010
0001
0100
0001
,
0100
0000
0001
0010
0001
0000
0100
0001
,
1000
0100
1000
0010
0100
0100
0001
0010
,
0001
0010
0100
0010
0001
0100
0010
1000
,
0001
0010
0001
0100
0001
0010
0001
0100
,
0010
0100
0001
0100
0010
0010
1000
0100
,
0010
0001
0010
0100
1000
0010
0100
0001
,
0010
0001
0010
0001
0100
0010
1000
0001
,
0010
0100
1000
0001
1000
0001
1000
0010
,
0100
0010
0100
0010
1000
0100
0010
0001
,
0100
0010
1010
2000
,
3020
0000
0130
0000
0110
0000
0100
0001
,
0100
0001
1010
2000
,
3020
0000
0130
0000
1001
0000
1000
0010
,
1000
0001
0120
0230
,
0320
0000
1030
0000
1001
0000
0001
0100
,
0010
1000
1001
0020
,
0130
0000
0001
0000
1000
0000
0010
1000
,
0001
0010
0100
0010
0001
0100
0010
1000
,
0100
1000
0001
0010
1000
0010
0001
0100
,
0010
0100
0001
0010
0001
0100
0001
1000
,
0010
1000
0010
0100
0001
0010
1000
0010
,
0001
0100
0010
1000
0001
0010
0001
0100
,
0010
0100
0010
0100
0001
1000
0100
0010
,
0001
0100
0001
0010
0001
1000
0100
0001
,
0100
1000
0010
0100
0001
0010
0100
1000
,
1001
0000
0001
0100
0001
0010
0001
0100
,
0010
0100
0100
0001
0100
0000
0010
1000
,
0100
1000
0001
0010
0100
0000
1000
0100
,
0001
0100
1000
0010
0100
0001
0010
0001
,
0100
0010
0100
0001
0010
0100
1000
0010
,
0100
0001
0010
0100
1000
0010
0100
0001
,
1000
0010
1000
0100
1000
0010
1000
0001
,
0010
0001
0100
0010
1000
0001
1000
0010
,
0100
0000
0000
0000
;
