#TITLE:All That She Wants;
#SUBTITLE:;
#ARTIST:Ace of Base;
#TITLETRANSLIT:;
#SUBTITLETRANSLIT:;
#ARTISTTRANSLIT:;
#GENRE:;
#CREDIT:Braeden;
#MUSIC:All That She Wants.ogg;
#BANNER:All That She Wants-ban.png;
#BACKGROUND:All That She Wants-bg.png;
#JACKET:All That She Wants-bg.png;
#CDTITLE:;
#SAMPLESTART:51.450;
#SAMPLELENGTH:12.000;
#SELECTABLE:YES;
#OFFSET:-0.276;
#BPMS:0.000=93.770;
#STOPS:;
#DISPLAYBPM:94.000;
#BGCHANGES:;
#FGCHANGES:;

//--------------- dance-single - ----------------
#NOTES:
     dance-single:
     :
     Beginner:
     2:
     0,0,0,0,0:
0000
0000
0000
0000
,
0000
0000
0000
0000
,
1000
0000
0000
0000
,
0001
0000
1001
0000
,
1001
0000
1000
0000
,
0001
0000
0100
0000
,
0010
0000
1000
0000
,
0001
0000
0100
0000
,
0010
0000
0000
1000
,
1000
0000
0001
0000
,
0100
0000
0000
0001
,
0001
0000
0000
1001
,
1001
0000
1000
0000
,
0001
0000
0100
0000
,
0010
0000
1000
0000
,
0001
0000
0010
0000
,
0100
0000
1000
0000
,
0001
0000
0010
0000
,
0001
0000
1000
0000
,
0010
0000
0100
0000
,
0002
0000
0003
0000
,
1000
1000
1000
1000
,
2000
0000
3000
0000
,
0010
0010
0010
0010
,
0020
0000
0030
0000
,
0100
0100
0100
0100
,
0200
0000
0300
0000
,
0001
0001
0001
0001
,
0002
0000
0003
0000
,
2000
0000
3000
0000
,
0020
0000
0030
0000
,
0100
0000
0001
0000
,
2000
0000
3000
0000
,
0002
0000
0003
0000
,
0200
0000
0300
0000
,
0010
0000
0000
0000
;

//--------------- dance-single - ----------------
#NOTES:
     dance-single:
     :
     Easy:
     4:
     0.145,0.147,0.021,0.085,0,86,2,8,0,0,0,0.145,0.147,0.021,0.085,0,86,2,8,0,0,0:
0000
0000
0000
0000
,
0000
0000
0000
0000
,
2000
0000
3002
0203
,
0320
0030
1001
0000
,
1001
1000
0001
0100
,
0010
1000
0100
0010
,
0001
0100
0001
1000
,
0100
0010
0001
1000
,
0001
0000
1000
0000
0001
0000
0100
0100
,
0100
0010
1000
0001
,
1000
0000
0001
0000
0010
0000
0001
1000
,
0001
0100
0010
1010
,
1000
0001
0100
0010
,
1000
0001
0200
0300
,
0010
1000
0100
0010
,
0001
0100
0010
1000
,
0001
1000
0001
0010
,
0100
0100
2000
3000
,
0001
1000
0010
0100
,
0001
1000
0100
0010
,
0012
0000
1003
0010
,
2000
3200
2300
3200
,
0320
0000
0031
0100
,
0002
0203
0320
2030
,
3200
0000
0310
0001
,
2000
3002
0203
0320
,
2030
0000
3001
0100
,
0020
2030
3002
1003
,
0002
0000
0103
0010
,
2000
0000
3010
0100
,
0002
0000
1003
0010
,
0100
0000
0001
0000
,
2000
0000
3001
0100
,
0020
0000
1030
0001
,
0200
0000
0310
1000
,
2002
0000
0000
3003
;

//--------------- dance-single - ----------------
#NOTES:
     dance-single:
     :
     Medium:
     8:
     0.226,0.208,0.127,0.095,0,129,12,9,0,0,0,0.226,0.208,0.127,0.095,0,129,12,9,0,0,0:
0000
0000
0000
0000
,
0000
0000
0000
0000
,
2000
0000
0000
0000
3001
1000
0002
0000
,
0103
0000
0000
0010
0000
0000
1000
0000
1001
0000
0000
0000
0001
0000
0000
0000
,
0101
0000
0100
0000
0010
0000
0100
0000
0001
0000
0000
1000
0000
0000
0001
0000
,
1000
0100
0010
0000
0001
0010
0001
0000
,
1000
0000
0100
0000
1000
0000
0010
0000
1000
0000
0000
0001
0000
0000
1000
0000
,
1000
0000
0000
0010
0010
0100
0001
0100
,
0001
0000
0100
0010
0100
0000
0001
1000
,
0001
0000
0000
1000
0000
0000
0010
0000
1000
0000
0001
0000
0010
0000
0100
0000
,
1000
0000
0001
0010
0001
0000
1000
0100
,
0001
0000
0000
0100
0000
0000
0010
0000
0001
0000
0000
0000
1001
0000
0000
0000
,
1000
0000
0010
0000
0200
0000
0000
0000
0301
0000
0000
0010
0000
0000
0001
0000
,
1000
0001
0100
0100
0002
0000
1003
0000
,
0001
0010
0001
0000
0100
0010
0100
0000
,
0001
1000
0001
1000
0010
0000
0100
0000
,
0001
0100
0001
1000
0020
0000
0130
0001
,
1000
0100
0001
0100
2000
0000
3001
0000
,
1000
0000
0010
0000
0001
0000
0000
0010
0000
0000
1000
0000
0100
0000
0000
0010
,
0000
0001
0100
0010
1000
0000
0001
0000
,
2001
0000
0001
0000
3100
0010
0100
0010
,
2000
3002
0203
0302
,
1003
0000
0001
0000
0100
0001
0100
0010
,
2000
0000
3002
0000
0203
0000
0310
1000
,
0002
0000
1000
0000
0013
0100
0001
1000
,
0002
2003
3200
0320
,
0032
0000
1000
0000
0013
0100
0020
0000
,
2030
0000
3001
1000
0100
0000
0010
0000
,
0001
2000
0000
3010
0100
0001
0010
0001
,
1000
2000
0000
3001
0100
0010
1000
0001
,
1000
0002
0000
1003
0010
0001
0010
1000
,
0100
0100
0000
0010
0001
1000
0100
0010
,
0002
0000
1003
0001
1000
0100
0001
0100
,
1000
1000
0010
0100
0001
0010
1000
0010
,
0001
0001
0100
0010
1000
1000
0001
0000
,
0220
0000
0000
0330
;

//--------------- dance-single - ----------------
#NOTES:
     dance-single:
     :
     Hard:
     11:
     0.613,0.619,0.317,0.866,0.428,294,30,82,0,0,0,0.613,0.619,0.317,0.866,0.428,294,30,82,0,0,0:
0000
0000
0000
0000
,
0000
0000
0000
0000
,
0002
0000
0000
1000
0000
0000
1003
0000
0001
0010
0001
0000
1000
0000
0100
0000
,
0010
0000
0000
0010
0000
0000
0001
0000
1001
0000
1000
0100
1000
0010
0000
0100
,
0001
0000
1000
0000
0100
0000
0001
0000
0100
0000
1000
0001
1000
0000
0100
0000
,
0010
0000
0001
0100
0001
0000
1000
0000
0100
0000
0010
0001
1000
0000
0020
0000
,
1030
0000
0001
0100
0010
0000
1000
0000
0001
0000
0100
0000
0001
0000
1000
0000
,
1000
0000
0100
0000
0001
0000
0100
0000
0100
0000
1000
0100
1000
0100
1000
0100
,
0010
0000
0000
0001
0100
0000
0010
0000
1000
0000
0001
0000
1000
0000
0010
0000
,
0100
0000
0010
1000
0000
0001
0100
0000
0010
0000
1000
0100
1000
0100
1000
0100
,
0010
0000
0000
0001
0100
0000
0010
0000
1000
0000
0100
0000
0010
0000
0001
0000
,
0100
0000
0010
1000
0000
0010
1000
0000
0001
0000
0000
0000
1100
0000
1000
0100
,
1000
0000
0100
0000
0010
0000
0001
0100
0001
0000
1000
0001
1000
0000
0001
0100
,
0001
0000
1000
0000
0100
0000
1000
0020
1000
0000
1030
0000
0100
0000
1000
0000
,
0100
0000
0001
0000
0100
0000
1000
0001
1000
0000
0001
0000
0010
0000
0100
0000
,
0100
0000
1000
0000
0001
0000
1000
0200
0000
0000
1300
0000
0001
0000
1000
0000
,
0001
0010
0001
0010
0100
0000
1000
0010
0000
1000
0000
0000
0100
0000
0010
0001
,
0010
0001
0010
0100
0020
0001
0031
1000
,
0100
0000
1000
0010
1000
0000
0100
0020
0000
0000
0130
0000
1000
0000
0001
0000
,
0010
0000
0100
1000
0100
0000
1000
0000
0001
0000
1000
0100
1000
0001
0000
1000
,
0200
0000
0000
0000
0010
0000
0000
0000
1300
0001
1000
0000
0010
0000
0100
0000
,
0001
0000
1000
0000
0001
0000
0010
0000
0100
0000
1000
0010
0000
1000
0010
0000
,
2000
0000
0000
0000
0001
0000
0000
0000
3100
0010
0100
0000
1000
0000
0001
0010
,
0001
0010
0001
0000
1000
0000
0100
0010
0001
0000
0100
0000
0010
0000
1000
0000
,
0002
0000
0000
0000
1000
0000
0000
0000
0103
0010
0100
0000
0010
0000
1000
0000
,
0001
0000
0100
0000
0010
0000
0001
0000
0010
0000
0100
0001
0000
1000
0010
0000
,
2000
0000
0000
0000
0001
0000
0000
0000
3100
0010
0100
0000
0010
0000
0001
0000
,
1000
0010
0000
1000
0010
0000
1000
0000
0020
0000
0000
0000
1030
0000
0100
0000
,
0010
0000
0001
1000
0001
0000
1000
0000
0100
0000
0001
0000
0100
0000
0010
0000
,
0001
0000
1000
0010
1000
0000
0001
0000
1000
0000
0010
0000
0001
0000
0010
0000
,
0100
0000
0001
0000
1000
0000
0010
0000
0100
0001
0100
0000
0010
0000
1000
0000
,
0100
0000
0010
0001
0010
0000
0001
0000
1000
0000
0010
1000
0010
0000
1000
0000
,
0002
0000
0000
0000
1003
0000
0010
1000
0001
0010
0001
0000
1000
0000
0001
0000
,
1000
0000
0100
0000
0001
0000
0100
0000
1000
0010
1000
0000
0001
0000
0100
0000
,
0020
0000
0000
0000
1030
0000
0001
0000
1000
0010
1000
0000
0001
0000
0010
0000
,
2002
0000
0000
3003
;

//--------------- dance-single - FS DS XO- ----------------
#NOTES:
     dance-single:
     FS DS XO-:
     Challenge:
     13:
     0,0,0,0,0:
0000
0000
0000
0000
,
0000
0000
0000
0000
,
0002
0000
0000
1000
0000
0000
0013
0000
0100
1000
0100
0000
0010
0000
0001
0000
,
2000
0000
0000
0001
0000
0000
3010
0000
1010
0000
1000
0100
0010
0001
0000
1000
,
0001
0000
1000
0100
1000
0000
0100
1000
0001
0100
00M0
0100
1000
0000
0001
0000
,
1000
0000
0100
0010
0100
0000
1000
0001
0010
0000
0001
0100
0001
1000
0200
0000
,
0310
0001
0010
0001
0010
0000
0001
0000
1000
0010
0M00
0010
0001
0000
1000
0100
,
0010
0001
0000
0100
0010
0000
1000
0010
0100
0001
1000
0010
1000
0010
1000
0010
,
0100
0000
0000
0001
0100
0000
0010
0000
1000
0000
0001
0010
0001
0000
0100
0000
,
0010
0000
1000
0010
0M00
0010
0001
0000
1000
0000
0001
0100
0010
1000
0010
0100
,
0001
0000
0000
1000
0100
0000
0010
0000
0001
0100
M000
0100
0010
0000
0001
0010
,
0100
1000
0100
0010
0001
0100
0010
1000
0001
0000
0000
0000
0011
0000
0010
0100
,
1000
0000
0100
0001
0100
0000
1000
0010
0100
0000
0001
0100
0001
0000
1000
0100
,
0010
0000
1000
0010
0100
0000
0010
0001
0010
0100
1000
0010
1000
0000
0001
0000
,
1000
0000
0100
0010
0100
0000
1000
0100
0010
0000
0001
0100
0010
0000
1000
0000
,
0001
0000
1000
0100
0010
0000
0001
0100
0010
0000
0010
1000
0001
0000
0100
0000
,
0010
1000
0010
1000
0100
0000
1000
0010
000M
0010
0100
1000
0100
0000
1000
0010
,
0100
0000
0001
1000
0001
0000
0100
0000
1000
0000
0100
0010
0100
0000
0001
0000
,
1001
0000
1000
0100
0010
0000
0001
0010
0100
0000
0010
1000
0010
0001
1000
0001
,
0010
0000
0001
0100
0010
0000
1000
0000
0001
0000
1000
0100
1000
0100
00M0
0100
,
0002
0000
0000
0000
1003
0000
0100
0000
1000
0000
0000
0000
0001
0000
0000
0000
0100
00M0
0100
0000
1000
0000
0001
0000
1000
0000
0000
0000
0010
0000
0100
0000
,
0001
0100
0000
0010
1000
0000
0100
0010
0001
1000
0001
0100
0010
1000
0001
0000
,
2000
0000
0000
0000
3001
0000
0010
0000
0001
0000
0000
0000
1000
0000
0000
0000
0010
0M00
0010
0000
0001
0000
1000
0000
0001
0000
0000
0000
1000
0000
0100
0000
,
1000
0100
0000
1000
0001
0000
1000
0010
1000
0010
0000
0100
0001
0000
1000
0000
,
0002
0000
0000
0000
1003
0000
0100
0000
0010
0000
0000
0000
0001
0000
0000
0000
0100
00M0
0100
0000
1000
0000
0001
0000
1000
0000
0000
0000
0001
0000
0100
0000
,
0010
1000
0000
0010
0100
0000
0001
0010
0100
1000
0100
0010
0100
1000
0001
0000
,
2000
0000
0000
0000
3001
0000
0100
0000
0010
0000
0000
0000
1000
0000
0000
0000
0100
00M0
0100
0000
0001
0000
1000
0000
0001
0000
0000
0000
1000
0000
0100
0000
,
1000
0100
0000
1000
0001
0000
1000
0100
0010
0001
0000
0100
0010
0000
1000
0000
,
0002
0000
1000
0000
0103
0000
0010
0000
1000
0100
1000
0000
0002
0000
0010
0000
,
1003
0000
0100
0010
0100
0000
1000
0000
0001
0010
0100
0000
2000
0000
0001
0000
,
3010
0000
0100
1000
0100
0000
1000
0000
0010
0100
0010
0000
2000
0000
0001
0000
,
3010
0000
0100
1000
0100
0000
0010
0000
0001
0000
0100
0010
0100
0000
0001
0000
,
2000
0000
3001
0010
0001
0000
1000
0000
0001
0010
0001
0000
2000
0000
0001
0000
,
3010
0000
0001
0100
0010
0000
1000
0000
0010
0100
0001
0000
2000
0000
0001
0000
,
3010
0000
0100
1000
0100
0000
1000
0000
0010
0100
0001
0000
2000
0000
0001
0000
,
3020
0000
0030
0000
;

//--------------- dance-double - ----------------
#NOTES:
     dance-double:
     :
     Easy:
     4:
     0,0,0,0,0:
00000000
00000000
00000000
00000000
,
00000000
00000000
00000000
00000000
,
00020000
00000000
00031000
00010000
,
00002000
00003000
00011000
00000000
,
00001000
01000000
00100000
10000000
,
00010000
00100000
00001000
00010000
,
00000100
00001000
00000001
00001000
,
00000100
00000010
00000001
00000010
,
00000100
00001000
00000001
00001000
,
00000010
00001000
00000100
00010000
,
00001000
00100000
00010000
10000000
,
00010000
01000000
00010000
10010000
,
10000000
00010000
01000000
00001000
,
00010000
00000010
00000200
00000310
,
00000100
00000001
00000010
00000100
,
00001000
00000100
00000010
00000001
,
00000100
00000010
00010000
00000100
,
00010000
00000000
00000000
00000000
00000000
00000000
00000000
00000000
00000000
00000000
00000000
00000000
00000000
00000000
00000000
00000000
00000000
00000000
00000000
00000000
00000000
00000000
00000000
00000000
00000000
00000000
00000000
00000000
00000000
00000000
00000000
00000000
00000000
00000000
00000000
00000000
00000000
00000000
00000000
00000000
00000000
00000000
00000000
00000000
00000000
00000000
00000000
00000000
00001000
00000000
00000000
00000000
00000000
00000000
00000000
00000000
00000000
00000000
00000000
00000000
00000000
00000000
00000000
00000000
00000000
00000000
00000000
00000000
00000000
00000000
00000000
00000000
00000000
00000000
00000000
00000000
00000000
00000000
00000000
00000000
00000000
00000000
00000000
00000000
00000000
00000000
00000000
00000000
00000000
00000000
00000000
00000000
00000000
00000000
00000000
00000000
00020000
00000000
00000000
00000000
00000000
00000000
00000000
00000000
00000000
00000000
00000000
00000000
00000000
00000000
00000000
00000000
00000000
00000000
00000000
00000000
00000000
00000000
00000000
00000000
00000000
00000000
00000000
00000000
00000000
00000000
00000000
00000000
00000000
00000000
00000000
00000000
00000000
00000000
00000000
00000000
00000000
00000000
00000000
00000000
00000000
00000000
00000000
00000000
00000000
00000000
00000000
00000000
00000000
00030000
00000000
00000000
00000000
00000000
00000000
00000000
00000000
00000000
00000000
00000000
00000000
00000000
00000000
00000000
00000000
00000000
00000000
00000000
00000000
00000000
00000000
00000000
00000000
00000000
00000000
00000000
00000000
00000000
00000000
00000000
00000000
00000000
00000000
00000000
00000000
00000000
00000000
00000000
00000000
00000000
00000000
00000000
,
00001000
00100000
00010000
10000000
,
00010000
00100000
01000000
10000000
,
00020000
00000000
10030000
00010000
,
01000000
00001000
01000000
00001000
,
00020000
00000000
00031000
00010000
,
00000010
00001000
00000010
00001000
,
00000002
00000000
00001003
00000010
,
00010000
00001000
00010000
00000100
,
00002000
00000000
00003100
00001000
,
00000001
00001000
00000010
00000100
,
00000002
00000000
00001003
00000010
,
00020000
00000000
00031000
00100000
,
00020000
00000000
10030000
00100000
,
01000000
00010000
10000000
01000000
,
00200000
00000000
00301000
00010000
,
00000200
00000000
00001300
00000010
,
00000200
00000000
00000301
00001000
,
00000020
00000000
00000030
00000000
;

//--------------- dance-double - ----------------
#NOTES:
     dance-double:
     :
     Medium:
     8:
     0,0,0,0,0:
00000000
00000000
00000000
00000000
,
00000000
00000000
00000000
00000000
,
00020000
00000000
00000000
00000000
00030100
00010000
00000100
00000000
,
00010000
00000000
00000000
00001000
00000000
00000000
00100000
00000000
00110000
00000000
00010000
00000000
10000000
00000000
00000000
00000000
,
00010000
00000000
01000000
00000000
10000000
00000000
01000000
00000000
00010000
00000000
00000000
00100000
00000000
00000000
00001000
00000000
,
00010000
00000100
00010000
00000000
00000010
00001000
00000001
00002000
,
00000000
00000000
00003010
00000000
00000100
00000000
00000001
00000000
00000010
00000000
00000000
00000100
00000000
00000000
00001000
00000000
,
00000010
00010000
00001000
00010000
00001000
00100000
00100000
00100000
,
00010000
00000000
10000000
00010000
10000000
00000000
00010000
01000000
,
00100000
00000000
00000000
10000000
00000000
00000000
01000000
00000000
00100000
00000000
00001000
00000000
00001000
00000000
00001000
00000000
,
00010000
00000000
00000100
00001000
00000100
00000000
00010000
00000100
,
00010000
00000000
00000000
00000010
00000000
00000000
00000100
00000000
00000001
00000000
00000000
00000000
00001001
00000000
00000000
00000000
,
00000001
00000010
00001000
00000000
00010000
01000000
10000000
00000000
,
01000000
00100000
01000000
10000000
00020000
00000000
01030000
00000000
,
00001000
00010000
00001000
00000000
00010000
00000100
00010000
00000100
,
00001000
00000000
00000010
00000000
00001000
00000001
00001000
00000010
,
00000100
00000010
00001000
00000001
00000010
00000100
00001000
00000000
,
00000010
00010000
00000010
00010000
00000200
00000000
00010300
00000000
,
00001000
01000000
00001000
00100000
00010000
01000000
00100000
00000000
,
10000000
01000000
10000000
00010000
10000000
00000000
00010000
00000000
,
02010000
00000000
03200000
00000000
10300000
00010000
10000000
00001000
,
00010000
00011000
00001000
00011000
,
00020000
00000000
00030200
00000000
00001300
00000001
00001000
00000010
,
00001000
00000000
00000001
00000100
00000010
00000000
00001000
00000001
,
00002000
00000000
00003020
00000000
00000130
00000001
00001000
00000100
,
00020000
00000000
00032000
00000000
00013000
00001000
01000000
00100000
,
20000000
00000000
30010000
01000000
00100000
10000000
01000000
00100000
,
00010000
00000000
01000000
00001000
00010000
00000000
00001000
00010000
,
00000200
00000000
00001300
00000010
00000001
00000010
00001000
00000001
,
00002000
00000000
00003100
00010000
00001000
00100000
00001000
00010000
,
00000200
00000000
00001300
00000001
00000010
00000100
00002000
00000000
,
00003100
00000000
00010000
00001000
00100000
00000000
00010000
10000000
,
00020000
00000000
10030000
01000000
00100000
00010000
20000000
00000000
,
30020000
00000000
01030000
00001000
00100000
00001000
00010000
00001000
,
00020000
00000000
00030100
00001000
00000010
00001000
00000100
00000000
,
00020000
00000000
00030000
00000000
;

//--------------- dance-double - ----------------
#NOTES:
     dance-double:
     :
     Hard:
     12:
     0.285,0.296,0.053,0.158,0,169,5,15,0,0,0,0.285,0.296,0.053,0.158,0,169,5,15,0,0,0:
00000000
00000000
00000000
00000000
,
00000000
00000000
00000000
00000000
,
00020000
00000000
00000000
00001000
00000000
00000000
00031000
00000000
00100000
00010000
00100000
00000000
00020000
00000000
00000000
00000000
,
10030000
00000000
00000000
00010000
00000000
00000000
10000000
00000000
10010000
00000000
00010000
01000000
00100000
10000000
00000000
00010000
,
01000000
00000000
00100000
10000000
00100000
00000000
01000000
00000000
00001000
00000000
00010000
00001000
00010000
00000000
00001000
00000000
,
00010000
00000000
00000010
00000100
00000010
00000000
00001000
00000000
00000001
00000000
00001000
00000010
00000100
00000000
00000002
00000000
,
00001003
00000100
00001000
00000100
00001000
00000000
00000010
00000000
00010000
00001000
00010000
00001000
00010000
00000000
00001000
00100000
,
00010000
01000000
00100000
00000000
00100000
00000000
10000000
01000000
00100000
00010000
00100000
01000000
10000000
01000000
10000000
01000000
,
00100000
00000000
00010000
00100000
00010000
00000000
00100000
00000000
00001000
00010000
00001000
00010000
00000100
00000000
00001000
00000000
,
00000001
00000000
00001000
00000100
00000000
00000001
00000100
00000000
00001000
00000000
00000100
00010000
00000100
00010000
00000100
00010000
,
00000010
00000000
00000100
00000001
00000100
00000000
00000010
00000000
00001000
00000100
00001000
00000100
00001000
00000000
00000010
00000000
,
00001000
00000000
00000100
00010000
00000000
00001000
00010000
00000000
00001000
00000000
00000000
00000000
00011000
00000000
00001000
00100000
,
00001000
00000000
00100000
01000000
00100000
00000000
00001000
00010000
00001000
00000000
00100000
00010000
01000000
00100000
10000000
00010000
,
01000000
00000000
00100000
00000000
10000000
00000000
00010000
10000000
00000000
00100000
10000000
00010000
01000000
00000000
00010000
00000000
,
00100000
00000000
00001000
00100000
00001000
00000000
00100000
00010000
00000000
00000000
00100000
00001000
00100000
00000000
00001000
00000000
,
00010000
00000000
00000010
00000100
00000010
00000000
00001000
00000000
00000010
00000000
00000100
00000001
00000010
00000000
00000100
00000000
,
00001000
00000010
00001000
00000010
00010000
00000000
00001000
00010000
00000000
00001000
00100000
00000000
00010000
00000000
10000000
01000000
,
10000000
00000000
00010000
00000000
01000000
00000000
00100000
00000000
10000000
00000000
01000000
00100000
00010000
00000000
01000000
00000000
,
00001000
00000000
00010000
00001000
00010000
00000000
00001000
00010000
00000100
00000000
00001000
00000010
00001000
00000000
00000000
00000000
,
00000001
00000000
00001000
00000010
00001000
00000000
00000001
00000000
00001000
00000000
00000010
00000100
00000001
00001000
00000000
00000010
,
00002000
00000000
00000000
00000000
00000001
00000000
00000000
00000000
00003100
00000010
00000100
00000000
00000001
00000000
00001000
00000000
,
00000100
00010000
00000100
00010000
00001000
00000000
00100000
00000000
00010000
10000000
00100000
10000000
00010000
00000000
01000000
00010000
,
20000000
00000000
00000000
00000000
00010000
00000000
00000000
00000000
31000000
00100000
01000000
00000000
00010000
00000000
10000000
00100000
,
10000000
00010000
00000000
01000000
00010000
00000000
00100000
00001000
00010000
00001000
00000000
00100000
00001000
00000000
00010000
00000000
,
00002000
00000000
00000000
00000000
00010000
00000000
00000000
00000000
00013000
00000100
00010000
00000000
00000100
00000000
00001000
00000001
,
00001000
00000010
00000000
00010000
00001000
00000000
00010000
00000100
00001000
00000000
00000010
00000000
00000100
00000000
00000010
00000000
,
00002000
00000000
00000000
00000000
00000001
00000000
00000000
00000000
00003010
00000100
00000010
00000000
00010000
00000000
00001000
01000000
,
00100000
10000000
00000000
00100000
01000000
00000000
00010000
00100000
00001000
00100000
00000000
00001000
00010000
00000000
00001000
00000000
,
00010000
00000000
00001000
00010000
00001000
00000000
00010000
00000000
00000010
00000100
00000010
00000000
00010000
00000000
00001000
00000000
,
00010000
00000000
00010000
00001000
00010000
00000000
00001000
00000000
01000000
00100000
01000000
00000000
00010000
00000000
00010000
00000000
,
10000000
00000000
00010000
10000000
00010000
00000000
01000000
00000000
00001000
00010000
00001000
00000000
00100000
00000000
00010000
00000000
,
01000000
00000000
00100000
01000000
00100000
00000000
10000000
00000000
00010000
00000000
01000000
00010000
01000000
00000000
00010000
00000000
,
00100000
00000000
00001000
00010000
00001000
00000000
00010000
00000000
00000010
00000100
00000010
00000000
00001000
00000000
00000010
00000000
,
00000100
00000000
00000001
00000010
00000100
00000000
00001000
00000000
00010000
00100000
01000000
00000000
00100000
00000000
00010000
00000000
,
01000000
00000000
00010000
00100000
00010000
00000000
01000000
00000000
00001000
00010000
00000010
00000000
00000100
00000000
00000001
00000000
,
00000022
00000000
00000000
00000033
;
