#TITLE:is it?;
#SUBTITLE:;
#ARTIST:goreshit;
#TITLETRANSLIT:;
#SUBTITLETRANSLIT:;
#ARTISTTRANSLIT:;
#CREDIT:;
#BANNER:../banner.png;
#BACKGROUND:../fallback-bg.png;
#LYRICSPATH:;
#CDTITLE:;
#MUSIC:is it.ogg;
#OFFSET:0.002;
#SAMPLESTART:56.037;
#SAMPLELENGTH:12.000;
#SELECTABLE:YES;
#BPMS:0.000=227.000,60.000=113.500,68.000=227.000,196.000=56.750,198.000=227.000,326.000=113.500,334.000=227.000,462.000=113.500;
#STOPS:;
#BGCHANGES:;

//---------------dance-single - ----------------
#NOTES:
     dance-single:
     :
     Medium:
     14:
     0.416,0.519,0.085,0.075,0.060:
0000
0000
0000
0000
,
0000
0000
0000
0000
,
0000
0000
0000
0000
,
1001
0000
0000
0001
0100
0000
0010
0000
,
1001
0000
0000
0001
0100
0000
0010
0000
,
1010
0000
0000
1000
0001
0000
0001
0000
,
0110
0000
0000
0010
0000
0000
1000
0010
,
1000
0000
0000
1000
0001
0000
0001
0000
,
0101
0000
0000
0010
0100
0000
0010
0000
,
1010
0000
0000
0100
0001
0000
0001
0000
,
1001
0000
0010
1000
0000
1000
0100
0010
,
0001
0000
0000
0001
0100
0000
0010
1000
,
0100
0010
0000
0001
0100
0000
0010
1000
,
0010
0000
0000
0100
0001
0000
1000
0010
,
0100
0000
0001
0010
,
1001
0000
0000
1000
0000
0000
0001
0100
0001
0000
0000
0100
0000
0000
0010
1000
,
0010
0000
0000
0000
0000
0000
0100
0000
0000
0000
0000
0000
0001
0000
1000
0000
0100
0000
0000
0010
0000
0000
0001
0000
0010
0000
0100
0000
1000
0000
0001
0000
,
1000
0100
1000
0100
1000
0000
0001
0000
,
0100
0010
0100
0010
0100
0000
0001
0000
,
1000
0100
1000
0100
1000
0000
0001
0000
,
0100
0010
0100
0010
0100
0000
0001
0000
,
1000
0100
1000
0100
1000
0000
0001
0000
,
1000
0100
1000
0000
0001
0000
0100
0000
,
0010
1000
0010
0000
0100
0000
0001
0000
,
1000
0100
1000
0000
0001
0000
0100
0000
,
0010
1000
0010
0000
0100
0000
0001
0000
,
0100
0010
0100
0000
0001
0000
0100
0000
,
0010
1000
0010
0000
0100
0000
0001
0000
,
1000
0100
1000
0000
0001
0000
0100
0000
,
0010
1000
0010
0000
0100
0000
0001
0000
,
1000
0100
0010
0000
0001
0000
0100
0000
,
0010
1000
0010
0000
0100
0000
0001
0000
,
1000
0100
1000
0000
0001
0000
0100
0000
,
0010
1000
0010
0000
0100
0000
0001
0000
,
0100
0010
1000
0000
0001
0000
0100
0000
,
0010
1000
0010
0000
0100
0000
0001
0000
,
1000
0100
1000
0000
0001
0000
0100
0000
,
0010
1000
0010
0000
0100
0000
0001
0000
,
1000
0100
1000
0000
0001
0000
0100
0000
,
0010
1000
0100
0000
0010
0000
0001
0000
,
0100
0010
1000
0000
0100
0000
0010
0000
,
0001
0100
0001
0100
0001
0100
0001
0100
,
0010
1000
0010
1000
0010
1000
0010
1000
,
0001
0010
0001
0010
0001
0010
0001
0010
,
0100
1000
0100
1000
0100
1000
0100
1000
,
0001
0100
0010
1000
,
0001
0100
0010
0000
1000
0000
0100
0000
,
0010
0001
0100
0000
0010
0000
1000
0000
,
0001
1000
0010
0000
0100
0000
0001
0000
,
0002
0000
0000
0000
0000
0000
0000
0000
0010
0000
0000
0000
0010
0000
0000
0003
1000
0000
0000
0000
0000
0000
0000
0000
2002
0000
0000
0000
0000
0000
0000
0000
,
0000
0000
0000
0000
,
0000
3003
1000
0001
,
0100
0010
1000
0100
,
0010
0001
0100
0202
,
0000
0000
0000
0000
,
0000
0303
1000
0010
,
0100
0010
1000
0001
,
0100
0010
1000
2002
,
0000
0000
0000
0000
,
0000
3003
1000
0010
,
0100
0010
1000
0001
,
0100
0010
1000
0202
,
0000
0000
0000
0000
,
0000
0303
1000
0010
,
0100
0001
0010
0010
,
0100
0000
0100
1000
0100
0000
2002
0000
,
0000
0000
0000
0000
,
3003
0001
0100
0010
,
1000
0100
0010
0001
,
0100
0010
1000
2002
,
0000
0000
0000
3003
,
1000
0010
0100
0001
,
0010
0000
0100
0000
0010
0000
1000
0100
,
1000
0000
0001
0010
0001
0000
1000
0000
,
0001
0100
0001
0000
1000
0000
0010
0000
,
0100
0001
0100
0000
0010
0000
1000
0000
,
0100
0010
0001
0000
0100
0000
0010
0000
,
1000
0100
1000
0000
0001
0000
0100
0000
,
0010
1000
0010
0000
0100
0000
0001
0000
,
0100
0010
0100
0000
0001
0000
0100
0000
,
0010
1000
0010
0000
0100
0000
0001
0000
,
1000
0000
0000
0000
0001
0000
0000
0000
1000
0000
0000
0000
0010
1000
0100
0010
,
0000
0001
0000
0100
0000
0010
0000
1000
0000
0100
0000
0010
0000
0001
0000
0100
,
0000
0010
0000
1000
0000
0001
1000
0001
1000
0000
0100
0000
0010
0000
0001
0000
,
0100
0010
1000
0100
1000
0001
0100
0010
,
1000
0100
0010
0100
1000
0001
0100
0010
,
1000
0100
0010
0001
0100
0010
1000
0001
,
1000
0001
1000
0000
0001
0100
0001
0100
,
0001
1000
0010
1000
0100
0010
0100
1000
,
0001
0100
0010
1000
0100
1000
0001
0100
,
0010
1000
0100
0010
0100
1000
0001
0100
,
0010
1000
0001
0000
1000
0000
0010
0000
,
0100
0010
0100
0010
1000
0001
1000
0000
,
0010
0000
0100
0001
0100
0000
0010
0000
,
1000
0100
0010
0001
,
0100
0010
1000
0100
,
0010
0001
0100
0010
,
1000
0100
0010
0001
,
1000
0100
1000
0000
0001
0010
0001
0000
,
1000
0001
1000
0000
0001
0000
0100
0000
,
0010
1000
0100
0000
0010
0001
0100
0000
,
0010
1000
0100
0000
0010
0001
0100
0000
,
0010
1000
0010
0000
0100
0001
0100
0000
,
1001
0000
0010
0000
0010
0000
1000
0100
,
1000
0000
0001
0100
0010
0000
1000
0100
,
1000
0000
0001
0100
0010
0000
1000
0100
,
0010
0000
0001
0100
0010
0000
1001
0000
,
0010
0000
0100
0000
0001
0100
0010
0000
,
1000
1000
0001
0001
,
1000
1000
0100
0010
,
0001
0100
0010
1000
,
0100
1000
0001
0100
,
0010
1000
0100
0010
,
0100
1000
0001
0100
,
0010
1000
0001
0100
,
0001
0100
2002
3003
;

//---------------dance-single - Copied from----------------
#NOTES:
     dance-single:
     Copied from:
     Challenge:
     21:
     0.949,0.951,0.124,0.015,1.000:
0000
0000
0000
0000
,
0000
0000
0000
0000
,
0000
0000
0000
0000
,
1001
0000
0000
0001
0101
0000
0010
0000
,
1001
0000
0000
0001
0101
0000
0010
0000
,
1010
0000
0000
1000
1001
0000
0001
0000
,
0110
0000
0000
0000
0000
0000
0010
0000
0000
0000
1000
0001
1000
0000
0010
0000
,
1010
0000
0000
1000
1001
0000
0001
0000
,
0101
0000
0000
0010
0110
0000
0010
0000
,
1010
0000
0000
0100
0101
0000
0001
0000
,
1001
0000
0000
0000
0010
0000
1001
0000
0000
0000
1000
0001
0100
0000
0010
0000
,
1000
0000
0000
0001
0101
0000
0010
1000
,
0100
0000
0010
0000
0000
0000
0001
0000
0100
0000
0000
0000
0010
1000
0010
1000
,
0010
0000
0000
0100
0101
0000
0010
1000
,
0010
0000
0000
0100
0001
0101
0100
0110
,
0010
0000
0000
1000
0000
0000
0001
0100
0001
0000
0000
0100
0000
0000
0010
1000
,
0010
0000
0000
0000
0000
0000
0100
0000
0000
0000
0000
0000
0001
0000
1000
0000
0100
0000
0000
0010
0000
0000
0001
0000
0010
0000
0100
0000
1000
0000
0001
0000
,
1000
0100
1000
0000
0001
0000
0100
0010
0100
0000
0001
0000
1000
0100
1000
0000
,
0001
0100
0001
0000
0100
0000
0010
0100
0010
0000
1000
0000
0100
0010
0001
0000
,
1000
0100
0010
0000
0001
0000
1000
0001
1000
0000
0100
0000
0010
0001
0010
0000
,
0100
1000
0010
0000
0100
0000
0001
0100
0010
0000
1000
0000
0100
0010
0001
0100
,
0010
1000
0100
0000
0010
0000
0001
0100
0010
0000
1000
0000
0100
1000
0001
0000
,
0100
0010
1000
0000
0001
0000
0100
0010
1000
0000
0100
0000
0010
0001
0100
0010
,
1000
0100
1000
0000
0001
0000
0100
0010
0100
0000
0001
0000
1000
0100
1000
0000
,
0001
0100
0010
0000
1000
0000
0010
0100
0010
0000
1000
0000
0100
0010
0001
0000
,
1000
0100
1000
0000
0001
0000
1000
0100
1000
0000
0001
0000
0100
0010
0100
0000
,
0001
1000
0100
0000
0010
0000
0001
0100
0010
0000
1000
0000
0100
0010
0001
0100
,
0010
1000
0100
0000
0010
0000
0001
0100
0010
0000
1000
0000
0100
0010
0001
0000
,
0100
0010
1000
0000
0100
0000
0010
0001
0100
0000
0010
0000
1000
0100
1000
0001
,
0100
0010
1000
0000
0100
0000
0010
0001
0100
0000
0010
0000
1000
0100
1000
0000
,
0001
0100
0001
0000
1000
0000
0010
0100
0010
0000
1000
0000
0001
0100
0001
1000
,
0010
0100
0001
0000
0100
0000
0010
1000
0010
0000
0100
0000
0001
0100
0001
0000
,
1000
0010
1000
0000
0001
0000
0100
0010
1000
0000
0100
0000
0010
0001
1000
0001
,
0010
0100
1000
0100
1000
0000
0001
0100
0010
0000
1000
0100
0010
0001
0010
0000
,
0100
1000
0100
0000
0010
0000
0001
1000
0001
0000
0100
0010
1000
0100
0010
0001
,
0100
0010
1000
0000
0100
0000
0010
0001
0010
0000
0100
1000
0100
1000
0100
0000
,
0010
0001
0010
0000
0001
0000
1000
0100
1000
0000
0001
0100
0010
1000
0100
0010
,
0100
1000
0001
0000
0100
0000
0010
1000
0010
0000
0100
0001
0100
0001
0100
0000
,
0010
1000
0010
0000
0100
0000
0001
0010
0001
0000
1000
0100
1000
0001
0100
0010
,
1000
0100
0010
0000
0001
0000
1000
0100
1000
0000
0001
0010
0001
0010
0001
0000
,
1000
0010
1000
0000
0001
0000
0100
0010
0100
0000
0001
0100
0010
1000
0100
0000
,
1100
0000
1000
0000
0001
0000
0100
0010
1000
0000
0010
0100
0001
1000
0001
0000
,
0100
0010
1000
0000
0100
0000
0010
0001
0010
0000
0100
1000
0001
0100
0010
1000
,
0100
0010
0001
0000
0100
0000
0010
1000
0010
0000
0100
0001
0100
0001
1000
0000
,
0010
0100
0010
0000
1000
0000
0100
0010
0001
0000
0100
0010
1000
0100
0010
0100
,
1000
0001
0100
0000
0010
0000
1000
0100
0010
0001
0100
0010
1000
0100
0010
0000
,
0001
1000
0001
1000
0001
0000
0100
0010
0100
0000
0010
1000
0100
0010
0100
1000
,
0001
1000
0001
0000
0100
0000
0010
1000
0010
0000
0100
0001
0100
0001
0100
0000
,
1010
0000
1010
0000
1001
0000
0001
0100
0010
0000
1000
0000
0100
0010
0001
1000
,
0002
0000
0000
0000
0000
0000
0000
0000
0010
0000
0010
0000
0010
0000
0010
0003
1001
0000
0000
0000
1000
0000
0000
0000
0100
0000
0000
0000
0010
0000
0000
0000
,
0001
0000
0100
0000
0010
0000
1000
0000
0001
0100
0001
0000
0100
0000
0010
1000
,
0010
0000
0100
0000
0001
1000
0001
0000
1000
0100
1000
0000
0001
0000
0100
0010
,
0100
0000
0001
0000
1000
0100
1000
0000
0001
0010
0001
0000
1000
0000
0100
0010
,
0100
0000
1000
0000
0001
1000
0001
0000
0100
0010
0100
0000
0001
0000
1000
0100
,
1000
0000
0001
0000
0100
0010
0100
0000
0001
1000
0001
0000
1000
0000
0001
0100
,
0001
0000
1000
0000
0001
0100
0001
0000
1000
0000
0100
0000
0001
0000
0100
0000
,
1000
0000
0001
0000
0100
0000
0010
0000
1000
0000
1000
0000
0001
0000
0010
0100
,
0010
0000
0100
0000
1000
0001
1000
0001
1000
0100
0010
0001
0010
0100
1000
0001
,
0100
0010
1000
0100
0010
0100
1000
0001
0100
0010
1000
0100
1000
0001
0010
0001
,
1000
0100
1000
0001
0100
0010
1000
0001
1000
0100
1000
0000
0001
0000
0100
0010
,
0100
0000
0001
0000
1000
0100
1000
0000
0001
0010
0001
0000
0100
0000
0010
1000
,
0010
0000
0100
0000
0001
1000
0001
0000
1000
0000
1000
0100
0010
0001
0100
0010
,
1000
0100
1000
0001
0100
0010
1000
0100
0010
0100
1000
0001
0100
0010
1000
0100
,
0010
0100
1000
0001
0100
0010
1000
0001
1000
0100
1000
0000
0001
0000
0100
0010
,
0100
0000
0001
0000
1000
0100
1000
0000
0001
0000
0001
0000
0001
0000
0010
0100
,
1000
0000
0001
0000
1000
0001
1000
0001
1000
0000
0010
0000
0100
0001
0100
0010
,
1000
0100
0010
0100
1000
0001
0100
0010
1000
0100
0010
0100
1000
0001
0100
0001
,
1000
0010
1000
0001
0100
0001
1000
0010
1000
0100
1000
0000
0001
0000
0100
0010
,
0100
0000
0001
0000
1000
0010
1000
0000
0001
0100
0001
0000
0100
0000
0010
1000
,
0010
0000
0100
0000
0001
0100
0001
0000
1000
0000
0001
0000
0100
0010
1000
0100
,
0010
0100
1000
0001
0100
0010
1000
0100
0010
0100
1000
0001
0100
0010
1000
0100
,
1000
0100
0010
0100
1000
0001
0100
0010
1000
0100
1000
0000
0001
0000
0010
0100
,
0010
0000
0001
0000
1000
0100
1000
0000
0001
0100
0001
0000
1000
0000
0010
0100
,
0010
0000
1000
0000
0001
1000
0001
1000
0001
0010
0100
1000
0100
0010
0001
0010
,
0100
1000
0001
0100
0010
1000
0100
0010
0100
1000
0001
0100
0010
1000
0010
0100
,
0001
1000
0100
0010
0001
0100
0001
1000
0010
1000
0010
0000
0100
0000
0001
0100
,
0001
0000
0010
0000
0100
1000
0100
0000
0010
0001
0010
0000
0001
0000
1000
0000
,
0001
1000
0001
0000
0100
0000
0010
1000
0010
0000
1000
0000
0001
0100
0010
1000
,
0100
0010
0100
1000
0001
0100
0010
1000
0100
0010
0100
1000
0001
0100
0010
1000
,
0100
0010
0100
1000
0001
0000
1000
0000
0001
0100
0001
0000
1000
0000
0010
1000
,
0010
0000
0100
0000
0001
0010
0001
0000
1000
0010
1000
0000
0001
0000
0100
0010
,
0100
0000
0001
0000
1000
0100
1000
0001
0100
0000
0000
0000
0010
1000
0100
0010
,
0000
0001
0000
0100
0000
0010
0000
1000
0000
0100
0000
0010
0000
0001
0000
0100
,
0000
0000
0010
0000
0000
0000
1000
0000
0000
0000
0001
0000
1000
0001
1000
0001
1000
0000
0100
0000
0010
0000
0001
0000
0100
0000
0010
0000
1000
0000
0100
0000
,
0010
0100
1000
0001
0100
0010
1000
0100
0010
0100
1000
0001
0100
0010
1000
0100
,
1000
0001
0100
0010
1000
0100
0010
0100
1000
0001
0100
0010
1000
0100
1000
0001
,
0100
0010
0100
0001
1000
0100
1000
0001
0100
0010
1000
0100
0010
0100
1000
0001
,
1000
0000
0001
1000
0001
0000
1000
0000
1000
0000
0001
0000
0100
0000
0010
0000
,
1000
0100
0010
0001
0100
0010
1000
0100
0010
0100
1000
0001
0100
0010
1000
0001
,
0100
0010
1000
0100
0010
0100
1000
0001
0100
0010
1000
0100
0010
0100
1000
0001
,
0100
0010
1000
0100
0010
0100
1000
0001
0100
0010
1000
0010
0100
0001
0100
0001
,
0010
0000
0100
0000
1000
0000
0100
0000
0010
0001
0010
0001
1000
0100
1000
0100
,
0010
0001
0100
0010
1000
0100
0010
0100
1000
0001
0100
0010
1000
0100
0010
0100
,
1000
0001
0010
0001
1000
0100
1000
0001
0100
0010
1000
0100
0010
0100
1000
0001
,
0100
0010
1000
0010
0100
0001
0100
0010
1000
0100
0010
0001
0100
0010
1000
0001
,
1000
0000
0001
1000
0001
0000
0100
0000
0010
1000
0010
1000
0001
0100
0001
0100
,
0010
1000
0100
0010
0100
1000
0001
0100
0010
1000
0100
0010
0001
0100
0010
1000
,
0100
0010
0100
1000
0001
0100
0010
1000
0001
0100
0010
1000
0100
0010
0100
1000
,
0001
0100
0010
1000
0100
0010
0001
1000
0100
0000
0010
0000
0001
0000
1000
0001
,
1000
0000
0001
0000
0010
0100
1000
0001
0010
0000
0000
0000
0100
1000
0100
1000
,
0001
0010
0001
0010
0100
1000
0100
1000
0001
0010
0001
0010
0100
1000
0100
1000
,
0001
0100
0010
1000
0100
0010
0100
1000
0001
0100
0010
1000
0100
0010
0100
1000
,
0001
0100
0010
1000
0100
0010
0100
1000
0001
0100
0010
1000
0100
0010
0001
0100
,
0010
1000
0100
0010
0100
1000
0001
0100
0010
1000
0100
0010
0001
0100
0001
0100
,
0010
1000
0010
1000
0001
0010
0100
1000
0001
0100
0010
1000
0100
0010
0100
1000
,
0001
0100
0010
0100
0001
0100
0010
1000
0100
0010
0001
0100
0010
1000
0100
0010
,
0100
1000
0100
0010
0001
0100
0010
1000
0100
0000
0010
0000
0001
0000
0100
0010
,
1000
0000
0100
0000
0010
0001
0100
0010
1000
0000
0100
0000
0010
0000
0001
0000
,
0100
0010
1000
0100
1000
0001
0100
0010
,
1000
0100
0010
0001
0100
0010
1000
0100
,
1000
0001
0100
0010
0100
0001
1000
0100
,
0010
0001
0100
0010
1000
0100
1000
0001
,
0100
0010
1000
0100
0010
0001
0100
0010
,
1000
0100
1000
0100
1000
0001
0100
0010
,
1000
0100
1000
0001
0100
0010
1000
0100
,
0010
0001
1000
0000
2002
0000
3003
0000
;

//---------------dance-single - Copied from----------------
#NOTES:
     dance-single:
     Copied from:
     Hard:
     19:
     0.770,0.778,0.065,0.015,0.565:
0000
0000
0000
0000
,
0000
0000
0000
0000
,
0000
0000
0000
0000
,
1001
0000
0000
0001
0100
0000
0010
0000
,
1001
0000
0000
0001
0100
0000
0010
0000
,
1010
0000
0000
1000
0001
0000
0001
0000
,
0110
0000
0000
0000
0000
0000
0010
0000
0000
0000
1000
0001
1000
0000
0010
0000
,
1000
0000
0000
1000
0001
0000
0001
0000
,
0101
0000
0000
0010
0100
0000
0010
0000
,
1010
0000
0000
0100
0001
0000
0001
0000
,
1001
0000
0000
0000
0010
0000
1000
0000
0000
0000
1000
0001
0100
0000
0010
0000
,
1000
0000
0000
0001
0100
0000
0010
1000
,
0100
0000
0010
0000
0000
0000
0001
0000
0100
0000
0000
0000
0010
1000
0010
1000
,
0010
0000
0000
0100
0001
0000
0010
1000
,
0010
0000
0000
0100
0001
0010
0100
1000
,
0010
0000
0000
1000
0000
0000
0001
0100
0001
0000
0000
0100
0000
0000
0010
1000
,
0010
0000
0000
0000
0000
0000
0100
0000
0000
0000
0000
0000
0001
0000
1000
0000
0100
0000
0000
0010
0000
0000
0001
0000
0010
0000
0100
0000
1000
0000
0001
0000
,
1000
0100
1000
0000
0001
0000
0100
0010
0100
0000
0001
0000
1000
0100
1000
0000
,
0001
0100
0001
0000
0100
0000
0010
0100
0010
0000
1000
0000
0100
0010
0001
0000
,
1000
0100
0010
0000
0001
0000
1000
0001
1000
0000
0100
0000
0010
0001
0010
0000
,
0100
1000
0010
0000
0100
0000
0001
0100
0010
0000
1000
0000
0100
0010
0001
0100
,
0010
1000
0100
0000
0010
0000
0001
0100
0010
0000
1000
0000
0100
1000
0001
0000
,
0100
0010
1000
0000
0001
0000
0100
0010
1000
0000
0100
0000
0010
0001
0100
0010
,
1000
0100
1000
0000
0001
0000
0100
0010
0100
0000
0001
0000
1000
0100
1000
0000
,
0001
0100
0010
0000
1000
0000
0010
0100
0010
0000
1000
0000
0100
0010
0001
0000
,
1000
0100
1000
0000
0001
0000
1000
0100
1000
0000
0001
0000
0100
0010
0100
0000
,
0001
1000
0100
0000
0010
0000
0001
0100
0010
0000
1000
0000
0100
0010
0001
0100
,
0010
1000
0100
0000
0010
0000
0001
0100
0010
0000
1000
0000
0100
0010
0001
0000
,
0100
0010
1000
0000
0100
0000
0010
0001
0100
0000
0010
0000
1000
0100
1000
0001
,
0100
0010
1000
0000
0100
0000
0010
0001
0100
0000
0010
0000
1000
0100
1000
0000
,
0001
0100
0001
0000
1000
0000
0010
0100
0010
0000
1000
0000
0001
0100
0001
1000
,
0010
0100
0001
0000
0100
0000
0010
1000
0010
0000
0100
0000
0001
0100
0001
0000
,
1000
0010
1000
0000
0001
0000
0100
0010
1000
0000
0100
0000
0010
0001
1000
0001
,
0010
0100
1000
0100
1000
0000
0001
0100
0010
0000
1000
0100
0010
0001
0010
0000
,
0100
1000
0100
0000
0010
0000
0001
1000
0001
0000
0100
0010
1000
0100
0010
0001
,
0100
0010
1000
0000
0100
0000
0010
0001
0010
0000
0100
1000
0100
1000
0100
0000
,
0010
0001
0010
0000
0001
0000
1000
0100
1000
0000
0001
0100
0010
1000
0100
0010
,
0100
1000
0001
0000
0100
0000
0010
1000
0010
0000
0100
0001
0100
0001
0100
0000
,
0010
1000
0010
0000
0100
0000
0001
0010
0001
0000
1000
0100
1000
0001
0100
0010
,
1000
0100
0010
0000
0001
0000
1000
0100
1000
0000
0001
0010
0001
0010
0001
0000
,
1000
0010
1000
0000
0001
0000
0100
0010
0100
0000
0001
0100
0010
1000
0100
0000
,
1100
0000
1000
0000
0001
0000
0100
0010
1000
0000
0010
0100
0001
1000
0001
0000
,
0100
0010
1000
0000
0100
0000
0010
0001
0010
0000
0100
1000
0001
0100
0010
1000
,
0100
0010
0001
0000
0100
0000
0010
1000
0010
0000
0100
0001
0100
0001
1000
0000
,
0010
0100
0010
0000
1000
0000
0100
0010
0001
0000
0100
0010
1000
0100
0010
0100
,
1000
0001
0100
0000
0010
0000
1000
0100
0010
0001
0100
0010
1000
0100
0010
0000
,
0001
1000
0001
1000
0001
0000
0100
0010
0100
0000
0010
1000
0100
0010
0100
1000
,
0001
1000
0001
0000
0100
0000
0010
1000
0010
0000
0100
0001
0100
0001
0100
0000
,
1000
0000
0001
0000
1000
0000
0001
0100
0010
0000
1000
0000
0100
0010
0001
1000
,
0002
0000
0000
0000
0000
0000
0000
0000
0010
0000
0010
0000
0010
0000
0010
0003
1001
0000
0000
0000
1000
0000
0000
0000
0100
0000
0000
0000
0010
0000
0000
0000
,
0001
0000
0100
0000
0010
0000
1000
0000
0001
0100
0001
0000
0100
0000
0010
1000
,
0010
0000
0100
0000
0001
1000
0001
0000
1000
0100
1000
0000
0001
0000
0100
0010
,
0100
0000
0001
0000
1000
0100
1000
0000
0001
0010
0001
0000
1000
0000
0100
0010
,
0100
0000
1000
0000
0001
1000
0001
0000
0100
0010
0100
0000
0001
0000
1000
0100
,
1000
0000
0001
0000
0100
0010
0100
0000
0001
1000
0001
0000
1000
0000
0001
0100
,
0001
0000
1000
0000
0001
0100
0001
0000
1000
0000
0100
0000
0001
0000
0100
0000
,
1000
0000
0001
0000
0100
0000
0010
0000
1000
0000
1000
0000
0001
0000
0010
0100
,
0010
0000
0100
0000
1000
0001
1000
0001
1000
0000
0100
0000
0010
0000
0001
0000
,
0100
0010
1000
0100
0010
0100
1000
0001
,
0100
0000
0010
0000
1000
0000
0100
0000
0010
0000
0001
0000
0001
0000
0100
0010
,
0100
0000
0001
0000
1000
0100
1000
0000
0001
0010
0001
0000
0100
0000
0010
1000
,
0010
0000
0100
0000
0001
1000
0001
0000
1000
0000
0010
0000
0100
0000
0001
0000
,
1000
0100
0010
0100
1000
0001
0100
0010
,
1000
0000
0100
0000
0010
0000
0001
0000
1000
0100
1000
0000
0001
0000
0100
0010
,
0100
0000
0001
0000
1000
0100
1000
0000
0001
0000
0001
0000
0001
0000
0010
0100
,
1000
0000
0001
0000
1000
0001
1000
0001
1000
0000
0010
0000
0100
0000
0001
0000
,
0100
0010
1000
0100
0010
0100
1000
0001
,
0100
0000
0010
0000
1000
0000
0001
0000
1000
0100
1000
0000
0001
0000
0100
0010
,
0100
0000
0001
0000
1000
0010
1000
0000
0001
0100
0001
0000
0100
0000
0010
1000
,
0010
0000
0100
0000
0001
0100
0001
0000
1000
0000
0001
0000
0100
0000
0010
0000
,
1000
0100
0010
0100
1000
0001
0100
0010
,
1000
0000
0100
0000
0010
0000
0001
0000
1000
0100
1000
0000
0001
0000
0010
0100
,
0010
0000
0001
0000
1000
0100
1000
0000
0001
0100
0001
0000
1000
0000
0010
0100
,
0010
0000
1000
0000
0001
1000
0001
1000
0010
0000
0100
0000
0001
0000
0100
0000
,
0010
1000
0100
0010
0100
1000
0001
0100
,
0010
0000
1000
0000
0100
0000
0010
0000
0001
1000
0010
0000
0100
0000
0001
0100
,
0001
0000
0010
0000
0100
1000
0100
0000
0010
0001
0010
0000
0001
0000
1000
0000
,
0001
1000
0001
0000
0100
0000
0010
1000
0010
0000
1000
0000
0001
0000
0100
0000
,
0010
0000
1000
0000
0100
0000
0010
0000
0001
0000
1000
0001
1000
0000
0010
0000
,
0100
0000
0001
0000
1000
0000
1000
0000
0001
0100
0001
0000
1000
0000
0010
1000
,
0010
0000
0100
0000
0001
0010
0001
0000
1000
0010
1000
0000
0001
0000
0100
0010
,
0100
0000
0001
0000
1000
0100
1000
0001
0100
0000
0000
0000
0010
1000
0100
0010
,
0000
0001
0000
0100
0000
0010
0000
1000
0000
0100
0000
0010
0000
0001
0000
0100
,
0000
0010
0000
1000
0000
0001
1000
0001
1000
0000
0100
0000
0010
0000
0001
0000
,
0100
0010
1000
0100
1000
0001
0100
0010
,
1000
0100
0010
0100
1000
0001
0100
0010
,
1000
0000
0100
0000
0010
0000
0001
0000
0100
0000
0010
0000
1000
0000
0001
1000
,
0001
0000
1000
0001
1000
0000
0010
0000
1000
0000
0001
0000
0100
0000
0010
0000
,
1000
0100
1000
0000
0010
0000
0100
0000
0001
0000
0100
0000
0010
0000
1000
0000
,
0001
0100
0001
0000
0100
0000
0010
0000
1000
0000
0100
0000
0010
0000
0100
0000
,
1000
0100
0010
0001
0100
0010
1000
0100
,
0010
0000
0100
0000
1000
0000
0100
0000
0010
0001
0010
0000
0100
0000
1000
0000
,
0001
1000
0001
0000
0100
0000
0010
0000
1000
0010
1000
0000
0100
0000
0010
0000
,
0001
1000
0001
0000
0100
0000
0010
0000
1000
0100
1000
0000
0001
0000
0100
0000
,
0010
1000
0010
0000
0100
0000
0001
0000
1000
0000
0100
0000
0010
0000
0001
0000
,
0100
0010
1000
0100
0010
0001
0100
0010
,
1000
0100
0010
0001
1001
1000
0100
0010
,
0001
0100
0010
1000
1010
1000
0001
1000
,
1001
0000
0001
0000
0100
0000
0100
0000
0010
0000
0010
0000
1000
0000
1000
0001
,
1000
0000
0001
0000
0010
0100
1000
0001
0010
0000
0000
0000
1000
0000
0100
0000
,
0001
0100
1000
0010
0100
0001
0100
0010
,
1000
0100
0010
0001
0100
0010
0100
0001
,
0100
0010
1000
0100
1000
0100
1000
0010
,
0100
0001
0100
0010
1000
0100
0010
0100
,
1000
0001
0100
0010
1000
0100
0010
0100
,
1000
0001
0100
0010
1000
0100
0010
0001
,
0100
0000
0010
0000
1000
0000
1000
0000
0100
0000
0010
0000
0001
0000
0100
0010
,
1000
0000
0100
0000
0010
0001
0100
0010
1000
0000
0100
0000
0010
0000
0001
0000
,
0100
0010
1000
0100
1000
0001
0100
0010
,
1000
0100
0010
0001
0100
0010
1000
0100
,
1000
0001
0100
0010
0100
0001
1000
0100
,
0010
0001
0100
0010
1000
0100
1000
0001
,
0100
0010
1000
0100
0010
0001
0100
0010
,
1000
0100
1000
0100
1000
0001
0100
0010
,
1000
0100
1000
0001
0100
0010
1000
0100
,
0010
0001
1000
0000
2002
0000
3003
0000
;

//---------------dance-single - Copied from----------------
#NOTES:
     dance-single:
     Copied from:
     Easy:
     9:
     0.304,0.288,0.040,0.075,0.000:
0000
0000
0000
0000
,
0000
0000
0000
0000
,
0000
0000
0000
0000
,
1001
0000
1000
0010
,
1000
0000
1000
0010
,
1000
0000
0001
0010
,
0100
0000
0000
1000
,
1000
0000
0001
0100
,
0001
0000
0100
0010
,
1000
0000
0001
1000
,
0001
0000
0000
0100
,
0001
0000
0100
0010
,
0100
0000
0100
0010
,
0100
0000
0001
1000
,
0100
0000
0001
0010
,
0001
1000
0010
0100
,
0001
1000
0001
1000
,
0001
0010
0100
1000
,
0001
0100
0010
1000
,
0100
0010
0100
1000
,
0001
0100
0010
1000
,
0100
0010
0100
1000
,
0001
0100
0010
1000
,
0100
0010
0100
1000
,
0001
0100
0010
1000
,
0100
0010
0100
1000
,
0001
0100
0010
1000
,
0100
0010
0100
1000
,
0001
0100
0010
1000
,
0100
1000
0100
1000
,
0001
0100
0010
0100
,
0001
0010
0001
1000
,
0100
1000
0001
0100
,
0010
1000
0100
1000
,
0001
0100
0010
1000
,
0100
0010
0100
1000
,
0001
0100
0010
1000
,
0100
0010
0001
0100
,
0010
1000
0100
1000
,
0001
0100
0010
1000
,
0100
0010
0100
1000
,
0001
0100
0010
1000
,
0100
0010
0100
1000
,
0001
0100
0010
1000
,
0100
1000
0001
0100
,
0010
1000
0100
1000
,
0001
0100
0010
1000
,
0100
0010
0100
1000
,
0001
0100
0010
1000
,
0002
0000
0000
0000
0000
0000
0000
0000
0010
0000
0000
0000
0000
0000
0000
0003
1000
0000
0000
0000
0000
0000
0000
0000
2002
0000
0000
0000
0000
0000
0000
0000
,
0000
0000
0000
0000
,
0000
3003
1000
0001
,
0100
0010
1000
0100
,
0010
0001
0100
0202
,
0000
0000
0000
0000
,
0000
0303
1000
0010
,
0100
0010
1000
0001
,
0100
0010
1000
2002
,
0000
0000
0000
0000
,
0000
3003
1000
0010
,
0100
0010
1000
0001
,
0100
0010
1000
0202
,
0000
0000
0000
0000
,
0000
0303
1000
0010
,
0100
0001
0010
0010
,
0100
1000
0100
2002
,
0000
0000
0000
0000
,
3003
0001
0100
0010
,
1000
0100
0010
0001
,
0100
0010
1000
2002
,
0000
0000
0000
3003
,
1000
0010
0100
0001
,
0010
0100
0010
1000
,
0100
0010
0001
1000
,
0001
0001
1000
0010
,
0100
0100
0010
1000
,
0100
0010
0100
0010
,
0001
1000
0001
0100
,
0010
1000
0100
0001
,
0100
1000
0001
0100
,
0010
0010
0100
0001
,
1000
0001
1000
0100
,
0010
0001
0010
0100
,
1000
0100
0010
0001
,
0100
0010
1000
0100
,
0010
0100
1000
0001
,
0100
0010
1000
0100
,
1000
0001
0100
0010
,
1000
0100
1000
0001
,
0100
0010
1000
0100
,
0010
0100
1000
0001
,
0100
0010
1000
0100
,
1000
0001
0100
0010
,
1000
0100
1000
0001
,
0100
0010
1000
0100
,
0010
0001
0100
0010
,
1000
0100
1000
0001
,
0100
0010
1000
0100
,
1000
0001
0100
0010
,
1000
0100
0010
0001
,
0100
0010
1000
0100
,
0010
0001
0100
0010
,
1000
0100
1000
0001
,
0100
0010
1000
0100
,
0010
0001
0100
0010
,
1000
0100
0010
0100
,
1000
0001
0100
0010
,
1000
0001
1000
0001
,
1000
1000
0001
0001
,
1000
1000
0100
0010
,
0001
0100
0010
1000
,
0100
1000
0001
0100
,
0010
1000
0100
0010
,
0100
1000
0001
0100
,
0010
1000
0001
0100
,
0001
0100
2002
3003
;

//---------------dance-single - ----------------
#NOTES:
     dance-single:
     :
     Beginner:
     3:
     0.092,0.173,0.025,0.055,0.000: // measure 1
0000
0000
0000
0000
,  // measure 2
0000
0000
0000
0000
,  // measure 3
0000
0000
0000
0000
,  // measure 4
1001
0000
0000
0000
,  // measure 5
1000
0000
0000
0000
,  // measure 6
0001
0000
0000
0000
,  // measure 7
0100
0000
0000
0000
,  // measure 8
1000
0000
0000
0000
,  // measure 9
0001
0000
0000
0000
,  // measure 10
1000
0000
0000
0000
,  // measure 11
0001
0000
0000
0000
,  // measure 12
0001
0000
0000
0000
,  // measure 13
0100
0000
0000
0000
,  // measure 14
0100
0000
0000
0000
,  // measure 15
1000
0000
0001
0000
,  // measure 16
1000
0000
0000
0000
,  // measure 17
0000
0000
0000
0000
,  // measure 18
0001
0000
0000
0000
,  // measure 19
1000
0000
0000
0000
,  // measure 20
0010
0000
0000
0000
,  // measure 21
0100
0000
0000
0000
,  // measure 22
0001
0000
0000
0000
,  // measure 23
1000
0000
0000
0000
,  // measure 24
0001
0000
0000
0000
,  // measure 25
0100
0000
0000
0000
,  // measure 26
0010
0000
0000
0000
,  // measure 27
1000
0000
0000
0000
,  // measure 28
0001
0000
0000
0000
,  // measure 29
1000
0000
0000
0000
,  // measure 30
0001
0000
0000
0000
,  // measure 31
1000
0000
1000
0000
,  // measure 32
0001
0000
0000
0000
,  // measure 33
1000
0000
0000
0000
,  // measure 34
0001
0000
0000
0000
,  // measure 35
0001
0000
0010
0000
,  // measure 36
0001
0000
0000
0000
,  // measure 37
0001
0000
0000
0000
,  // measure 38
0100
0000
0000
0000
,  // measure 39
0010
0000
0000
0000
,  // measure 40
0001
0000
0010
0000
,  // measure 41
0100
0000
0100
0000
,  // measure 42
0100
0000
0010
0000
,  // measure 43
1000
0000
0000
0000
,  // measure 44
0001
0000
0000
0000
,  // measure 45
1000
0000
0000
0000
,  // measure 46
0001
0000
0000
0000
,  // measure 47
0001
0000
0000
0000
,  // measure 48
1000
0000
0000
0000
,  // measure 49
0001
0000
0000
0000
,  // measure 50
0001
0000
0000
2002
,  // measure 51
0000
0000
0000
0000
,  // measure 52
0000
3003
0000
0000
,  // measure 53
0000
0000
0000
0000
,  // measure 54
0000
0000
0000
0220
,  // measure 55
0000
0000
0000
0000
,  // measure 56
0000
0330
0000
0000
,  // measure 57
0000
0000
0000
0000
,  // measure 58
0000
0000
0000
2002
,  // measure 59
0000
0000
0000
0000
,  // measure 60
0000
3003
0000
0000
,  // measure 61
0000
0000
0000
0000
,  // measure 62
0000
0000
0000
2000
,  // measure 63
0000
0000
0000
0000
,  // measure 64
0000
3000
0000
0000
,  // measure 65
0000
0000
0000
0000
,  // measure 66
0000
0000
0000
2000
,  // measure 67
0000
0000
0000
0000
,  // measure 68
3000
0000
0000
0000
,  // measure 69
0000
0000
0000
0000
,  // measure 70
0000
0000
0000
2000
,  // measure 71
0000
0000
0000
3000
,  // measure 72
1000
0000
1000
0000
,  // measure 73
0001
0000
0001
0000
,  // measure 74
0010
0000
0010
0000
,  // measure 75
1000
0000
1000
0000
,  // measure 76
0100
0000
0000
0000
,  // measure 77
0100
0000
0000
0000
,  // measure 78
0001
0000
0000
0000
,  // measure 79
0010
0000
0000
0000
,  // measure 80
0100
0000
0000
0000
,  // measure 81
0100
0000
0100
0000
,  // measure 82
0001
0000
0001
0000
,  // measure 83
0000
0000
0000
1000
,  // measure 84
0000
0000
0010
0000
,  // measure 85
1000
0000
0000
0000
,  // measure 86
0001
0000
0000
0000
,  // measure 87
0100
0000
0000
0000
,  // measure 88
0010
0000
1000
0000
,  // measure 89
0001
0000
0100
0000
,  // measure 90
0010
0000
0000
0000
,  // measure 91
1000
0000
0000
0000
,  // measure 92
0001
0000
0000
0000
,  // measure 93
0100
0000
0000
0000
,  // measure 94
0010
0000
0000
0000
,  // measure 95
1000
0000
0000
0000
,  // measure 96
0001
0000
0000
0000
,  // measure 97
0100
0000
0000
0000
,  // measure 98
0010
0000
0000
0000
,  // measure 99
1000
0000
0000
0000
,  // measure 100
0001
0000
0000
0000
,  // measure 101
0100
0000
0010
0000
,  // measure 102
1000
0000
1000
0000
,  // measure 103
0001
0000
0000
0000
,  // measure 104
0001
0000
0000
0000
,  // measure 105
1000
0000
0000
0000
,  // measure 106
0010
0000
0000
0000
,  // measure 107
0100
0000
0000
0000
,  // measure 108
0001
0000
0000
0000
,  // measure 109
1000
0000
0000
0000
,  // measure 110
0001
0000
0000
0000
,  // measure 111
1000
0000
0000
0000
,  // measure 112
0001
0000
0000
0000
,  // measure 113
0100
0000
0000
0000
,  // measure 114
0010
0000
0000
0000
,  // measure 115
1000
0000
0000
0000
,  // measure 116
0001
0000
2002
3003
;
