#TITLE:Who Let the Dogs Out;
#SUBTITLE:;
#ARTIST:Baha Men;
#TITLETRANSLIT:;
#SUBTITLETRANSLIT:;
#ARTISTTRANSLIT:;
#CREDIT:;
#BANNER:;
#BACKGROUND:;
#LYRICSPATH:;
#CDTITLE:;
#MUSIC:Who Let the Dogs Out.ogg;
#OFFSET:0.125;
#SAMPLESTART:32.146;
#SAMPLELENGTH:16.000;
#SELECTABLE:YES;
#DISPLAYBPM:129.300;
#BPMS:0.000=129.300;
#STOPS:;
#BGCHANGES:;

//---------------dance-single - ----------------
#NOTES:
     dance-single:
     :
     Hard:
     9:
     0.240,0.219,0.152,0.128,0.125:
0000
0000
0000
0000
,
0000
0000
0000
0000
,
0002
0000
0103
0010
2000
0000
3001
0000
,
1001
0000
0000
0000
0000
0000
0010
0000
0000
0000
1000
0000
0000
0001
0000
0000
,
2000
0000
3001
0100
0020
0000
1030
0000
,
1001
0000
0000
0000
0000
0000
1010
0000
0000
0000
0010
0000
0000
1000
0000
0000
,
2000
0000
3001
0100
0020
0000
1030
0000
,
0100
0010
0100
0010
,
0001
0000
1000
0000
0001
0010
0001
0000
0100
0000
0000
0010
0000
0000
1000
0000
,
0100
0000
0010
0000
0001
0000
0010
0000
0100
0000
0000
1000
0000
0000
0100
0000
,
0010
0000
0000
0000
0000
0001
1000
0001
1000
0001
0000
1000
0000
0000
0100
0000
,
0001
0000
0000
0000
0101
0000
0000
0000
0001
0000
0000
1000
0000
0000
0001
0000
,
1000
0000
0000
0000
0010
0000
0000
0000
0010
0000
0000
0100
0000
0000
0001
0000
,
0100
0000
1000
0000
0100
0000
0010
0000
0001
0000
0000
0001
0000
0000
0010
0000
,
0100
0000
0000
0000
1000
0000
0000
0000
0001
0000
0000
1000
0000
0000
0000
0000
,
1000
0010
0001
0010
,
1000
0100
0010
0001
0200
0000
0310
0000
,
1010
0000
0000
0000
0000
0000
1010
0000
0000
0000
0010
0000
0000
0100
0000
0000
,
2000
0000
3001
0100
0020
0000
1030
0000
,
1001
0000
0000
0000
0000
0000
0101
0000
0000
0000
0100
0000
0000
0010
0000
0000
,
1000
0001
0100
0010
2000
0000
3010
0000
,
0101
0000
0000
0000
0000
0000
0110
0000
0000
0000
1000
0000
0000
0001
0000
0000
,
0002
0000
0103
0010
0200
0000
0301
0000
,
0011
0000
0000
0000
0000
0000
1001
0000
0000
0000
1000
0000
0000
0001
0000
0000
,
1000
0000
0000
0000
0100
0000
0000
0000
1000
0100
0000
1000
0000
0100
0000
0000
,
0010
0001
0000
0010
0000
0001
0000
0010
0000
0001
0000
0000
0000
0000
0000
0000
,
1010
1000
1010
0100
,
0101
0011
1001
0110
,
1000
1000
1000
1000
1000
1000
1000
1000
,
0001
0001
0010
0010
0002
0000
0203
0000
,
0300
0000
0000
0000
1000
0000
0000
0000
0001
0000
0000
1000
0000
0000
0000
0000
,
1000
0000
0100
0000
0010
0000
0001
0000
0100
0000
0000
0010
0000
0000
1000
0000
,
0100
0000
0000
0000
0000
0000
0001
0000
0010
0000
0000
0100
0000
1000
0000
0100
,
0000
1000
0000
0000
0001
0000
1000
0000
0001
0000
0000
0100
0000
0000
0010
0000
,
0001
0000
1000
0000
0100
0000
1000
0000
0100
0000
0000
0010
0000
0001
0000
0000
,
0010
0000
0100
0000
1000
0000
0100
0000
1000
0000
0000
0010
0000
0000
1000
0000
,
0010
0000
1000
0000
0010
0000
1000
0000
0010
0000
0000
1000
0000
0001
0000
1000
,
0001
0010
0000
0010
0000
0010
0000
0010
,
0001
0100
0010
1000
0002
0000
0103
0000
,
0101
0000
0000
0000
0000
0000
0110
0000
0000
0000
1000
0000
0000
0010
0000
0000
,
2000
0000
3001
0010
0200
0000
1300
0000
,
1001
0000
0000
0000
0000
0000
0110
0000
0000
0000
0100
0000
0000
0010
0000
0000
,
0002
0000
0103
0010
2000
0000
3001
0000
,
1001
0000
0000
0000
0000
0000
0110
0000
0000
0000
0001
0000
0000
0010
0000
0000
,
0002
0000
1000
1000
2003
0000
3001
0000
,
1001
0000
0000
0000
;

//---------------dance-single - Copied from----------------
#NOTES:
     dance-single:
     Copied from:
     Challenge:
     12:
     0.313,0.314,0.365,0.128,0.237: // measure 1
0000
0000
0000
0000
,  // measure 2
MMMM
0000
0000
0000
,  // measure 3
1002
0000
0000
0000
0103
0000
0010
0000
2000
0000
0000
0000
3001
1000
0000
0000
,  // measure 4
1001
0000
0000
0000
0000
0000
0101
0000
0000
0000
0110
0000
0000
1010
0000
0000
,  // measure 5
2001
0000
0000
0000
3001
0000
0100
0000
0020
0000
0000
0000
1030
0001
0000
0000
,  // measure 6
1001
0000
0000
0000
0000
0000
1010
0000
0000
0000
0101
0000
0000
0110
0000
0000
,  // measure 7
2010
0000
0000
0000
3001
0000
0100
0000
0020
0000
0000
0000
1030
0001
0000
0000
,  // measure 8
0100
0010
0100
0010
,  // measure 9
1001
0000
1000
0000
0001
0010
0001
0000
0100
0000
0010
1000
0000
0000
0010
0000
,  // measure 10
0100
0000
0001
0000
1000
0000
0010
0000
0100
0000
0000
0001
0000
1000
0001
0000
,  // measure 11
1000
0000
0000
0000
0000
0001
0100
0001
0100
0010
0000
1000
0000
0010
1000
0000
,  // measure 12
0010
0000
0000
0000
0101
0000
0000
0000
0001
0000
0000
1000
0000
0001
0100
0000
,  // measure 13
0010
0000
0000
0000
1010
0000
0000
1000
0010
0000
0100
0001
0000
1000
0010
0000
,  // measure 14
0100
0000
0001
0000
0100
0000
0010
0000
1000
0000
0000
0001
0000
0100
0010
0000
,  // measure 15
1000
0000
0000
0000
1001
0000
0000
0000
0101
0000
0000
1001
0000
0000
0000
0000
,  // measure 16
1000
0010
0001
0010
,  // measure 17
1000
0000
0100
0000
0010
0000
0001
0000
0200
0000
0000
0000
0310
1000
0000
0000
,  // measure 18
1010
0000
0000
0000
0000
0000
1010
0000
0000
0000
0110
0000
0000
0101
0000
0000
,  // measure 19
0120
0000
0000
0000
1030
0000
0100
0000
0020
0000
0000
0000
0031
1000
0000
0000
,  // measure 20
1001
0000
0000
0000
0000
0000
0101
0000
0000
0000
0110
0000
0000
1010
0000
0000
,  // measure 21
1001
0000
0001
0000
0100
0000
0010
0000
2000
0000
0000
0000
3010
0100
0000
0000
,  // measure 22
0101
0000
0000
0000
0000
0000
0110
0000
0000
0000
1010
0000
0000
1001
0000
0000
,  // measure 23
0102
0000
0000
0000
0103
0000
0010
0000
0200
0000
0000
0000
0301
0010
0000
0000
,  // measure 24
0011
0000
0000
0000
0000
0000
1001
0000
0000
0000
0110
0000
0000
0011
0000
1000
,  // measure 25
0100
0000
0010
0001
0000
0100
0000
0000
1000
0010
0000
0100
0000
0001
0000
0000
,  // measure 26
1000
0100
0000
0010
0000
0001
0000
0010
0000
0001
0100
0000
0000
0000
0100
0000
,  // measure 27
1010
1000
0001
0100
1010
0010
0100
0001
,  // measure 28
0101
0001
0011
0001
1001
0010
0110
0010
,  // measure 29
1000
1000
1000
1000
1000
1000
1000
1000
,  // measure 30
0001
0100
0001
0100
0010
1000
0010
1000
0002
0000
0000
0000
0203
0000
0000
0000
,  // measure 31
0300
0000
0000
0000
0010
0000
1000
0010
0000
0100
0000
0001
0000
0100
0000
0010
,  // measure 32
1000
0000
0100
0000
0010
0000
0001
0000
0100
0000
0000
0010
0000
1000
0100
0000
,  // measure 33
0010
0000
0000
0000
0000
0001
0010
0100
1000
0000
0000
1001
0000
0000
0000
0010
,  // measure 34
0000
0010
0000
0000
1000
0000
0001
0000
1000
0000
0000
0010
0000
0100
0001
0000
,  // measure 35
1000
0000
0010
0100
0010
0000
1000
0000
0100
0000
0010
0001
0000
0100
0000
0010
,  // measure 36
1000
0000
0010
0000
0100
0000
0001
0000
0100
0000
0000
0010
0000
1000
0100
0000
,  // measure 37
0010
0001
0100
0010
1000
0010
0100
0000
0001
0000
0000
0010
0000
0100
0000
1000
,  // measure 38
0001
0010
0000
0010
0000
0010
0000
0010
,  // measure 39
1001
0000
0001
0000
0100
0000
0010
0000
2000
0000
0000
0000
3001
0100
0000
0000
,  // measure 40
0101
0000
0000
0000
0000
0000
0110
0000
0000
0000
1010
0000
0000
0110
0000
0000
,  // measure 41
0102
0000
0000
0000
1003
0000
0010
0000
0200
0000
0000
0000
0301
1000
0000
0000
,  // measure 42
1001
0000
0000
0000
0000
0000
0110
0000
0000
0000
1100
0000
0000
0110
0000
0000
,  // measure 43
0012
0000
0000
0000
0103
0000
0010
0000
2000
0000
0000
0000
3001
1000
0000
0000
,  // measure 44
1001
0000
0000
0000
0000
0000
0110
0000
0000
0000
0101
0000
0000
0110
0000
0000
,  // measure 45
0102
0000
0000
0000
1000
0000
1000
0000
2003
0000
0000
0000
3001
0100
0000
0000
,  // measure 46
1001
0000
0000
0000
;

//---------------dance-single - ----------------
#NOTES:
     dance-single:
     :
     Medium:
     7:
     0.177,0.178,0.049,0.109,0.064:
0000
0000
0000
0000
,
0000
0000
0000
0000
,
0002
0000
1003
0010
2000
0000
3001
0000
,
1001
0000
0000
0000
0000
0000
1000
0000
0000
0000
0001
0000
0000
1000
0000
0000
,
0002
0000
0103
0010
2000
0000
3001
0000
,
1000
0000
0000
0000
0000
0000
0010
0000
0000
0000
0010
0000
0000
1000
0000
0000
,
0002
0000
0103
0010
2000
0000
3100
0000
,
0010
0001
0100
0010
,
1000
0000
0000
0000
0001
0000
0000
0000
0100
0000
0000
0010
0000
0000
0000
0000
,
0010
0000
0000
0000
0001
0000
0000
0000
0010
0000
0000
0100
0000
0000
0000
0000
,
1000
0000
0000
0000
0001
0000
0000
0000
1000
0000
0000
0100
0000
0000
0010
0000
,
0001
0000
0000
0000
0100
0000
0000
0000
0001
0000
0000
1000
0000
0000
0001
0000
,
1000
0000
0000
0000
0010
0000
0000
0000
0010
0000
0000
0100
0000
0000
0001
0000
,
0100
0000
0000
0000
0010
0000
0000
0000
1000
0000
0000
0001
0000
0000
0010
0000
,
0100
0000
0000
0000
1000
0000
0000
0000
0001
0000
0000
1000
0000
0000
0000
0000
,
1000
0010
0001
0010
,
1000
0010
0200
0310
,
0010
0000
0000
1000
0000
0010
0000
0000
,
2000
0000
3001
0100
0020
0000
1030
0000
,
0001
0000
0000
0000
0000
0000
0001
0000
0000
0000
0100
0000
0000
0010
0000
0000
,
1000
0100
2000
3010
,
0100
0000
0000
0000
0000
0000
0100
0000
0000
0000
1000
0000
0000
0001
0000
0000
,
0002
0000
0103
0010
0200
0000
0301
0000
,
0001
0000
0000
0000
0000
0000
1000
0000
0000
0000
1000
0000
0000
0001
0000
0000
,
1000
0000
0100
0000
,
0010
0001
1000
0000
,
1010
0000
1010
0000
,
0101
0011
1001
0110
,
1000
1000
1000
1000
,
0001
0010
0002
0203
,
0300
0000
0000
0000
1000
0000
0000
0000
0001
0000
0000
1000
0000
0000
0000
0000
,
1000
0000
0000
0000
0010
0000
0000
0000
0100
0000
0000
0001
0000
0000
1000
0000
,
0100
0000
0000
0001
0020
0000
0000
0000
,
0030
0000
0000
0000
0001
0000
0000
0000
0010
0000
0000
0100
0000
0000
0010
0000
,
0001
0000
0000
0000
0100
0000
0000
0000
0010
0000
0000
1000
0000
0000
0000
0000
,
0010
0000
0000
0000
1000
0000
0000
0000
1000
0000
0000
0010
0000
0000
0000
0000
,
0010
0000
0000
0000
1000
0000
0000
0000
0010
0000
0000
1000
0000
0000
0000
0000
,
0001
0010
0000
0010
0000
0010
0000
0010
,
0001
0010
0002
0103
,
0001
0000
0000
0000
0000
0000
0010
0000
0000
0000
0100
0000
0000
1000
0000
0000
,
0001
0000
0001
0010
0100
0000
1000
0000
,
0001
0000
0000
0000
0000
0000
0100
0000
0000
0000
0001
0000
0000
0010
0000
0000
,
0002
0000
0103
0010
2000
0000
3001
0000
,
1000
0000
0000
0000
0000
0000
0010
0000
0000
0000
0001
0000
0000
0010
0000
0000
,
0001
0010
0100
0001
,
1001
0000
0000
0000
;

//---------------dance-single - Copied from----------------
#NOTES:
     dance-single:
     Copied from:
     Easy:
     5:
     0.135,0.178,0.043,0.091,0.000:
0000
0000
0000
0000
,
0000
0000
0000
0000
,
0002
0013
0100
1000
,
0001
0000
0000
0010
0000
0000
0000
0000
,
0001
0010
0100
1000
,
0001
0000
0000
0010
0000
0000
0000
0000
,
0002
0103
0020
1030
,
0100
0001
0100
0010
,
1000
0001
0100
0000
,
0010
1000
0010
0000
,
0100
0001
0100
0000
,
0001
0010
0001
0000
,
1000
0001
1000
0000
,
0001
0010
0001
0000
,
1000
0001
1000
0000
,
1000
0010
0001
0010
,
1000
0010
0200
0310
,
0010
0000
0000
1000
0000
0000
0000
0000
,
2000
3001
0020
0130
,
1000
0000
0000
0001
0000
0000
0000
0000
,
1000
0100
2000
3010
,
0100
0000
0000
0100
0000
0000
0000
0000
,
0002
0103
0020
1030
,
0001
0000
0000
1000
0000
0000
0000
0000
,
1000
0000
0100
0000
,
0010
0001
1000
0000
,
1010
0000
1010
0000
,
0101
0011
1001
0110
,
1000
1000
1000
1000
,
0001
0010
0002
0203
,
0300
1000
0001
0000
,
1000
0010
0100
0000
,
0001
0000
0020
0000
,
0030
0001
1000
0000
,
0100
0010
0001
0000
,
0100
0010
1000
0000
,
0100
0010
0001
0000
,
1000
0100
0000
0010
0000
0001
0000
0010
,
0001
0010
0002
0103
,
0001
0000
0000
0010
0000
0000
0000
0000
,
0001
0010
0100
1000
,
0001
0000
0000
0100
0000
0000
0000
0000
,
0002
1003
2000
3001
,
1000
0000
0000
0000
,
0001
0010
0100
1000
,
1001
0000
0000
0000
;

//---------------dance-single - ----------------
#NOTES:
     dance-single:
     :
     Beginner:
     2:
     0.065,0.068,0.006,0.061,0.000:
0000
0000
0000
0000
,
0000
0000
0000
0000
,
0002
0000
0003
0000
,
1000
0000
0000
0000
,
0020
0000
0030
0000
,
0100
0000
0000
0000
,
0002
0000
0003
0000
,
1000
0000
0000
0000
,
0001
0000
0001
0000
,
0010
0000
0010
0000
,
0100
0000
0100
0000
,
0001
0000
0001
0000
,
1000
0000
1000
0000
,
0001
0000
0001
0000
,
1000
0000
1000
0000
,
1000
0000
0000
0000
,
2000
0000
3000
0000
,
0001
0000
0000
0000
,
0200
0000
0300
0000
,
0010
0000
0000
0000
,
2000
0000
3000
0000
,
0001
0000
0000
0000
,
0200
0000
0300
0000
,
0010
0000
0000
0000
,
1000
0000
0100
0000
,
0010
0000
0001
0000
,
1000
0000
1000
0000
,
0001
0000
0001
0000
,
1000
1000
1000
1000
,
0000
0000
0000
0000
,
0001
0000
0001
0000
,
1000
0000
0100
0000
,
0001
0000
0100
0000
,
0000
1000
1000
0000
,
0100
0000
0100
0000
,
0001
0000
0001
0000
,
0100
0000
0100
0000
,
1000
0000
0000
0000
,
0002
0000
0003
0000
,
1000
0000
0000
0000
,
0020
0000
0030
0000
,
0100
0000
0000
0000
,
0002
0000
0003
0000
,
1000
0000
0000
0000
,
0001
0000
0000
0000
,
1001
0000
0000
0000
;
