#TITLE:Vacuum Cleaner;
#SUBTITLE:;
#ARTIST:Doin;
#TITLETRANSLIT:;
#SUBTITLETRANSLIT:;
#ARTISTTRANSLIT:;
#GENRE:;
#CREDIT:;
#BANNER:;
#BACKGROUND:;
#LYRICSPATH:;
#CDTITLE:;
#MUSIC:[High Speed] - Vacuum Cleaner.mp3;
#OFFSET:-0.319;
#SAMPLESTART:48.018;
#SAMPLELENGTH:16.040;
#SELECTABLE:YES;
#DISPLAYBPM:111.000:444.000;
#BPMS:0.000=111.110
,12.000=222.220
,268.000=444.440
,296.000=222.220
,348.000=111.110
,364.000=222.220
,484.000=444.440
,512.000=222.220
,515.000=444.440
,545.000=222.220
,547.000=444.440
,551.000=222.220
;
#STOPS:84.000=0.135,
84.500=0.135,
85.000=0.135,
86.500=0.135,
87.000=0.135,
87.500=0.135,
88.500=0.270,
90.000=0.135,
91.500=0.135,
92.000=0.135,
92.500=0.135,
93.500=0.135,
94.000=0.135,
95.000=0.135,
96.500=0.135,
97.000=0.135,
97.500=0.135,
203.000=0.135
;
#BGCHANGES:;
#KEYSOUNDS:;
#ATTACKS:;

//---------------dance-single - ----------------
#NOTES:
     dance-single:
     :
     Challenge:
     19:
     1.000,1.000,0.775,0.428,0.651,1056.000,116.000,64.000,0.000,0.000,0.000,1.000,1.000,0.775,0.428,0.651,1056.000,116.000,64.000,0.000,0.000,0.000:
0000
0000
0000
0000
,
2002
0000
0000
0000
,
3003
0000
0000
0000
1000
0000
0010
1000
0000
0010
0000
1000
0000
0001
0100
0010
,
1010
1010
0101
0101
,
1001
1001
0101
0002
,
1003
0000
0010
0000
0100
0000
0001
0000
1000
0000
0000
0010
0000
0000
1000
0000
,
1010
0000
0000
1001
0000
0000
0001
0100
,
0101
0000
0000
0000
0001
0000
1000
0010
,
0100
0001
1000
0100
0010
0001
1000
0001
,
1001
0000
0000
0000
1000
0001
1000
0010
,
1010
0000
0000
0000
0000
0000
1001
0000
0000
0000
0000
0000
0001
0010
0001
0010
,
0001
0000
0000
0000
1000
0001
1000
0001
0010
0100
0010
0100
1000
0001
1000
0001
,
1000
0000
0000
0010
0000
0000
0100
0000
0001
0000
1000
0000
0010
0000
0100
0000
,
0101
0000
2000
3000
,
1001
0000
0000
0101
0000
0000
1000
0010
,
1010
0000
0000
0000
0000
0000
0000
0000
1001
0000
0000
0001
0000
0000
1000
0000
,
0010
0000
0000
0100
0000
0000
0001
0000
1000
0000
0010
0000
0100
0000
0001
0000
,
0101
0000
0000
0000
0000
0000
0000
0000
0001
0010
0001
0010
0100
1000
0100
1000
,
0001
0000
0000
0000
0000
0000
1001
0000
0000
0000
0000
0000
1000
0100
1000
0100
,
1000
0000
0000
0000
0001
1000
0001
1000
0100
0010
0001
0010
0100
1000
0100
0010
,
0001
1000
0001
1000
0001
1000
0001
1000
0001
1000
0001
1000
0001
1000
0001
1000
,
0001
0100
0010
1000
0010
1000
0010
0100
,
0010
0100
1001
1000
0010
0101
0100
0010
,
1000
0001
0100
0010
1000
0010
1000
0001
,
0100
0001
1000
1000
1000
0010
1010
0000
,
1010
0101
0101
1001
,
1001
0101
2000
3001
,
0000
0100
0000
0101
0000
0000
1001
0000
,
0001
0000
1000
0000
0001
0010
0001
0010
0001
0000
0000
0000
0010
0001
0010
0001
,
0010
0000
0000
0000
0100
1000
0100
1000
0100
0000
1000
0000
0001
1000
0001
0000
,
1001
0000
0000
0000
1001
0000
0000
0000
1000
0010
1000
0000
1001
0000
0001
0000
,
1000
0001
1000
1010
1000
0010
1010
0000
,
0101
0000
0000
0000
1010
0000
0000
0000
1001
0000
0000
0000
0001
0100
0001
0100
,
0001
0000
1000
0000
0001
0100
0010
0100
0001
0000
1000
0000
0010
0100
0010
1000
,
0010
0000
0100
0000
0001
1000
0001
0000
1000
0010
1000
0000
1001
0000
0000
0000
,
0000
0000
1010
1000
0001
1000
1001
0000
,
0000
0000
0101
0000
0001
0100
0010
1000
0001
0000
0000
0000
1000
0001
1000
0001
,
0100
0010
0100
0010
1000
0100
1000
0100
0010
0001
0010
0001
1000
0000
0000
0000
,
1001
0000
0000
0000
1000
0001
1000
0000
0001
0100
0001
0000
1001
0000
0000
0000
,
0001
0100
0101
0000
0010
1000
1010
0000
,
0000
0000
1001
0000
1000
0010
1000
0010
1000
0000
0001
0000
2000
0000
0000
0000
,
3020
0230
0302
2003
,
3020
0000
0130
0001
1000
0010
2020
0000
,
3030
0202
0303
2010
,
0000
0010
0020
0000
3030
0000
2002
0000
,
3003
0022
0033
2002
,
3003
0000
0000
0000
0001
0000
1000
0000
0001
0000
0100
0010
0100
0000
0000
0000
,
0100
0000
0100
0100
0000
0000
2000
0000
,
0000
3002
0000
0000
0203
0000
0010
0310
,
0000
0000
1001
0000
0000
1010
0000
0000
,
1001
0101
1010
1001
,
1010
0000
1000
0000
0010
0000
0100
0001
0100
0000
0010
0000
1000
0000
0001
1000
,
0001
0100
0001
0010
0100
1000
0001
0100
,
0010
1000
0010
0000
0100
0001
0100
0000
0001
0010
0001
0000
1000
0100
1000
0000
,
0001
0100
0010
1000
0100
0100
0010
0010
,
0001
1000
0001
0000
1000
0100
1000
0000
0001
0010
0001
0000
1000
0001
1000
0000
,
0100
0010
0001
0100
1000
0100
0001
0010
,
1000
0010
0001
0100
1000
0100
0010
1000
,
0100
0001
0100
0010
1000
0100
0010
0000
,
1001
0000
1000
0001
1000
0000
0001
0000
0100
0001
0100
0001
0100
0000
0010
0000
,
1000
0010
1000
0001
1000
0000
0001
0000
1000
0100
0010
0100
1000
0000
0001
0000
,
0100
0010
0100
0001
0100
0000
0010
0000
1000
0010
0100
0010
1000
0000
0001
0000
,
1001
0000
0000
0000
0000
0000
1010
0000
1000
0001
0100
0010
1000
0000
0001
0000
,
1000
0010
1000
0000
1010
0000
0000
0000
1001
0000
0000
0000
0101
0000
0000
0000
,
1000
0100
1000
0100
0010
0000
0001
0000
0010
0100
0010
0100
1000
0000
0001
0000
,
0010
0100
1000
0100
0010
0000
0001
0000
1000
0100
0010
0100
1000
0000
0001
0000
,
1001
1010
0101
1001
,
1000
0001
1000
0001
1000
0001
1000
0001
,
1000
0010
1000
0010
1000
0010
1000
0010
,
0100
0001
0100
0001
0100
0001
0100
0001
,
1000
0100
0010
0100
1000
0100
0010
0100
,
1000
0001
0100
0001
1000
0001
0100
0001
,
1000
0010
0100
0001
0100
0010
1000
0001
,
1000
0100
0010
0001
0010
0100
1000
0010
,
1000
0001
1000
0001
2000
0000
0010
0000
3010
0100
0001
0100
0020
0000
1000
0000
,
1030
0100
1000
0100
2000
0000
0001
0000
3001
0010
0100
0010
0200
0000
1000
0000
,
1300
0001
1000
0001
2000
0000
0010
0000
3020
0000
0000
0000
0230
0000
0000
0000
,
0302
2003
3200
0320
,
0031
0100
0010
1000
1001
0000
1010
0000
,
0101
1001
1100
1001
,
0101
0000
1000
0010
1010
0000
0100
0001
,
0101
0002
1003
0020
,
0130
0000
1001
0000
0002
0000
0100
0103
,
0000
0000
0020
0000
1000
1030
0000
0000
,
0002
0000
0100
0103
0000
0000
0020
0000
,
1000
1030
0000
0000
2000
0000
0001
3001
,
0000
0010
1000
0002
,
1003
0100
1000
0100
0010
0001
0010
0001
1000
0001
1000
0001
0100
0010
0100
0010
,
1000
0100
1000
0100
0010
0001
0010
0001
1000
0100
0010
0100
1000
0001
0100
0001
,
1001
0000
0000
0000
0000
0000
0000
0000
1010
0000
0000
0000
0000
0000
0000
0000
0000
0000
0101
0000
0000
0000
0000
0000
0000
0000
1000
0001
1000
0000
0000
0000
,
0001
0010
0001
0010
0001
0010
0001
0010
0100
1000
0100
1000
0100
1000
0100
1000
0002
0000
0000
0000
0203
0000
0000
0000
0320
0000
0000
0000
1030
0000
0000
0000
,
1001
0000
0001
0100
0020
0000
2030
0000
,
3001
0000
0100
0000
0100
0000
0010
0000
1000
0000
0001
0100
0001
0000
0000
0000
,
2000
0000
3001
0100
0101
0010
1000
0000
,
0002
0000
0000
0000
1003
0000
0010
0000
1010
0000
0100
0001
0200
0000
0001
0000
,
0301
0010
0100
1000
1002
0000
0103
0000
,
0010
0000
1000
0000
0001
0000
0100
0000
1010
0000
1000
0010
2000
0000
0000
0000
,
3001
0100
0010
1000
1002
0000
0103
0000
,
0020
0000
0000
0000
1030
0000
0100
0000
0010
0000
0001
1000
0001
0000
1000
0000
,
1001
0001
0100
0010
2000
0000
3002
0000
,
0103
0010
1000
0100
0010
0001
0001
0000
,
1000
0010
0100
0001
1000
1000
0001
0000
,
1000
0000
0010
0000
0100
0000
0001
0000
1000
0000
0010
0100
0010
0000
1000
0000
,
0001
0001
0100
0010
2000
0000
3001
0000
,
0100
0000
0010
0000
1000
0000
0100
0000
0010
0000
0001
1000
0001
0000
0000
0000
,
1001
0000
0001
0100
1010
1000
0001
0000
,
1000
0100
1000
0100
1000
0100
1000
0100
1000
0100
1000
0100
1000
0100
1000
0100
,
1000
0001
0100
0010
1000
0000
0001
0000
1000
0100
0010
0100
1000
0000
0100
0000
,
0010
0001
0010
0100
0010
0000
0100
0000
1000
0100
0010
0100
0010
0000
0001
0000
,
1001
0000
1000
0010
1000
0000
0001
0000
0101
0000
0100
0010
0100
0000
0010
0000
,
1010
0000
1000
0001
1000
0000
1001
0000
0001
0100
0001
0100
0001
0000
1000
0000
,
1001
0000
0001
0100
0010
0000
1000
0000
1010
0000
1000
0001
0100
0000
0010
0000
,
1010
0000
1000
0001
1000
0000
1001
0000
0001
0100
0010
1000
0001
0000
1000
0000
,
0001
1001
1001
0101
,
0101
0000
0000
0000
1000
0000
0010
0000
1000
0100
0010
0100
1000
0000
0001
0000
,
0100
0010
0100
0001
0100
0000
0010
0000
1000
0100
0010
0100
1000
0000
0001
0000
,
0100
0010
1000
0100
0010
0000
0001
0000
1000
0100
0010
0100
1000
0000
1001
0000
,
0001
0010
0001
0000
1000
0100
1000
0000
0001
1000
0001
0000
0100
0001
0100
0000
,
0010
1000
0010
0000
1000
0001
1000
0000
0001
0100
0001
0000
1000
0001
1000
0000
,
1001
1001
1010
0101
,
1010
0000
1010
0000
1010
0000
2020
3030
,
1000
0001
1000
0010
1000
0001
1000
0100
,
0010
0001
0100
0001
1000
0001
0100
0001
,
1000
0100
0010
0100
1000
0001
0010
0100
,
0010
0001
1000
0100
1000
0001
0010
0001
,
1000
0100
0010
0001
0010
0100
1000
0001
,
0100
0010
1000
0001
0100
0010
1000
0100
,
0010
0001
1000
0010
0100
0001
1000
0001
,
1000
0100
1000
0100
1000
0000
0001
0000
1000
0001
1000
0001
1000
0000
0100
0000
,
1000
0100
0010
0001
0010
0001
1000
0010
,
1000
0010
0100
0001
0100
0001
1000
0100
,
0010
0100
1000
0001
0010
0100
1000
0001
,
0010
0100
0010
0001
1000
0100
0010
0001
,
0100
0010
1000
0100
0010
0100
1000
0001
,
0010
0001
1000
0100
0010
0001
1000
0100
,
1000
0001
0010
0001
0100
0001
0100
0001
,
1000
0001
1000
0000
0000
0000
1000
0100
,
0001
0100
1000
0010
0001
0010
1000
0000
,
0000
0000
2002
0000
,
0000
0000
0000
0000
,
3003
0000
0000
0000
;

//---------------dance-single - ----------------
#NOTES:
     dance-single:
     :
     Hard:
     18:
     0.993,1.000,0.648,0.408,0.317,883.000,97.000,61.000,0.000,0.000,0.000,0.993,1.000,0.648,0.408,0.317,883.000,97.000,61.000,0.000,0.000,0.000:
0000
0000
0000
0000
,
2002
0000
0000
0000
,
0000
0000
0000
3003
,
1010
1010
0101
0101
,
1001
1001
0101
0002
,
1003
0000
0010
0000
0100
0000
0001
0000
1000
0000
0000
0010
0000
0000
1000
0000
,
1010
0000
0000
1001
0000
0000
0001
0000
,
1001
0000
0000
0000
0001
0000
1000
0010
,
0100
0001
1000
0100
0010
0001
1000
0001
,
1001
0000
0000
0000
1000
0001
1000
0000
,
1001
0000
0000
0000
0000
0000
1001
0000
0000
0000
0000
0000
0001
0010
0001
0010
,
0001
0000
0000
0000
1000
0001
1000
0000
0001
0010
0001
0000
1000
0000
0001
0000
,
1000
0000
0000
0010
0000
0000
0100
0000
0001
0000
1000
0000
0010
0000
0100
0000
,
0102
0000
2000
3003
,
1001
0000
0000
0101
0000
0000
1000
0020
,
2000
0000
0000
0000
3030
0000
0000
0000
1001
0000
0000
0001
0000
0000
1000
0000
,
0010
0000
0000
0100
0000
0000
0001
0000
1000
0000
0010
0000
0100
0000
0001
0000
,
0101
0000
0000
0000
0000
0000
0000
0000
0001
0010
0001
0010
0001
0010
0001
0010
,
0001
0000
0000
0000
0000
0000
1001
0000
0000
0000
0000
0000
1000
0100
1000
0100
,
1000
0000
0000
0000
0001
0010
0001
0000
1000
0100
1000
0000
0001
0010
0001
0000
,
1000
0100
1000
0010
1000
0001
0100
0001
,
1000
0100
0010
0001
0010
0100
0010
0100
,
1000
0100
0010
0001
0010
0100
1000
0010
,
1000
0001
0100
0010
1000
0010
1000
0001
,
0100
0001
0010
0100
1000
0010
1000
0000
,
1010
0101
0101
1001
,
1001
0101
2000
3001
,
0000
0100
0000
0101
0000
0000
1001
0000
,
0001
1000
0001
0010
0001
0000
1000
0001
,
1000
0000
0001
0100
0001
0000
1000
0001
,
1001
0000
1010
0000
1000
0001
1001
0000
,
0000
0000
0000
1010
0000
0000
0101
0000
,
1001
0000
0000
0000
1010
0000
0000
0000
1001
0000
0000
0000
0001
0100
0001
0100
,
0001
0000
0000
0000
1000
0010
1000
0010
1000
0000
0000
0000
0001
0100
0001
0100
,
0001
0000
0001
0010
0100
1000
1001
0000
,
0000
0000
1000
0001
1000
0001
1001
0000
,
0000
0000
0101
0000
0001
0000
0100
0000
0001
0000
0000
0000
1000
0001
1000
0000
,
0001
0010
0001
0000
1000
0100
1000
0000
0001
0010
0001
0000
1000
0000
0000
0000
,
1001
0000
1000
0001
1000
0001
1001
0000
,
0001
0100
0101
0000
0010
1000
1010
0000
,
0000
1001
1000
0010
0100
0001
2000
0000
,
3020
0230
0302
2003
,
3020
0000
0130
0001
1000
0010
2020
0000
,
3030
0202
0303
2010
,
0000
3010
0200
0000
0300
0000
2002
0000
,
3003
0022
0033
2002
,
3003
0000
0001
1000
0001
0100
0010
0000
,
1000
0000
0001
0100
0000
0000
2000
0000
,
0000
3002
0000
0000
0203
0000
0310
1000
,
0000
0000
1001
0000
0000
1010
0000
0000
,
1001
0101
1010
1001
,
1000
0100
1000
0100
0010
0001
0010
0001
,
1000
0001
1000
0001
0100
0010
0100
0010
,
1000
0100
0001
0100
1000
0010
0001
0010
,
1000
0100
0010
0100
1000
0001
0100
0010
,
1000
0100
0010
0100
1000
0001
0100
0010
,
1000
0100
0010
0100
1000
0001
0010
0100
,
0010
0001
1000
0100
0001
0100
1000
0001
,
0101
1010
1010
1000
,
1001
0001
0100
0000
1010
1000
0010
0000
,
0101
0001
0100
2020
0000
0000
3030
0000
,
1000
0001
1000
0001
1000
0000
0000
0000
0001
0010
0001
0010
0001
0000
0000
0000
,
1000
0001
1000
0001
1000
0000
0000
0000
0001
0100
0001
0100
0001
0000
1000
0000
,
0001
1000
1010
0000
1001
0000
0101
0000
,
1000
0100
1000
0100
0010
0000
0000
0000
0001
0010
0100
1000
0100
0000
0000
0000
,
0010
0001
0010
0100
0010
0000
0000
0000
0100
1000
0100
0010
0100
0000
1000
0000
,
1001
1010
0101
1001
,
1000
0001
1000
0001
1000
0000
0001
0000
,
0100
0001
0100
0001
0100
0000
0010
0000
,
1000
0001
1000
0001
1000
0000
0001
0000
,
0100
0001
0100
0001
0100
0000
0010
0000
,
1000
0100
0010
0100
1000
0000
0001
0000
,
0100
0010
1000
0010
0100
0000
0001
0000
,
1000
0100
0010
0001
1000
0100
0010
0001
,
1000
0010
0200
0000
0301
0100
0020
0000
,
1030
0100
0002
0000
0103
1000
0020
0000
,
0031
0010
2000
0010
3100
0000
0001
0000
,
1000
0010
0100
0001
,
0001
0100
0010
1000
1001
0000
1010
0000
,
0101
1001
1100
1001
,
0101
0000
1000
0010
1000
0000
0001
0100
,
0001
2000
3010
0200
,
0301
0000
1001
0000
2000
0000
3100
0010
,
0000
0000
0002
0000
1003
0010
0000
0000
,
2000
0000
3100
0010
0000
0000
0002
0000
,
1003
0010
0000
0000
0200
0000
0301
1000
,
0000
0010
1000
0002
,
1003
0100
0001
0100
1000
0010
0001
0010
,
1000
0100
0010
0001
0100
0010
1000
0001
,
1001
0000
0000
0000
0000
0000
0000
0000
1001
0000
0000
0000
0000
0000
0000
0000
0000
0000
0101
0000
0000
0000
0000
0000
0000
0000
0001
1000
0001
0000
0000
0000
,
0001
0100
0001
0100
0010
1000
0010
1000
0002
0000
2003
0000
3020
0000
1030
0000
,
1001
0000
0001
0100
0020
0000
2030
0000
,
3001
0000
0100
0000
0100
0000
0010
0000
1000
0000
0001
0100
0001
0000
0000
0000
,
2000
0000
3001
0100
0001
0010
0100
0000
,
2000
0000
3010
1000
0100
0010
0001
0100
,
0001
0010
0100
1000
1002
0000
0103
0000
,
0010
0000
1000
0000
0001
0000
0100
0000
0010
0000
1000
0010
2000
0000
0000
0000
,
3001
0100
0010
1000
0002
0000
0103
0000
,
0020
0000
0000
0000
1030
0000
0100
0000
0010
0000
0001
1000
0001
0000
1000
0000
,
0010
1000
0100
0010
0002
0000
2003
0000
,
3100
0010
0001
0100
0010
1000
0001
0000
,
1000
0010
0100
0001
1000
0100
0010
0000
,
0001
0010
0100
1000
0010
0100
0010
1000
,
0001
0100
0010
1000
0002
0000
1003
0000
,
0001
0010
0100
1000
0001
1000
0001
0000
,
1001
0000
0001
0100
0010
1000
0001
0000
,
1000
0100
1000
0100
1000
0100
1000
0100
1000
0100
1000
0100
1000
0100
1000
0100
,
1000
0001
1000
0001
1000
0000
0001
0000
1000
0100
0010
0100
1000
0000
0010
0000
,
0001
0010
0001
1000
0001
0000
1000
0000
0010
1000
0001
1000
0010
0000
0100
0000
,
0001
0010
0100
0010
0001
0000
1000
0000
0001
0010
0100
0010
0001
0000
1000
0000
,
0001
1000
0001
1000
0100
0000
0010
0000
0001
1000
0001
1000
0001
0000
1000
0000
,
0010
1000
0010
1000
0010
0000
0100
0000
0001
0010
0100
1000
0100
0000
0010
0000
,
0001
0010
0100
0010
0001
0000
1000
0000
0001
1000
0010
1000
0001
0000
1000
0000
,
0001
1001
1001
0101
,
0101
0000
0001
0000
0100
0000
0010
0000
1000
0001
1000
0001
1000
0000
0000
0000
,
0001
0100
0001
0100
0001
0000
0000
0000
1000
0100
0010
0100
1000
0000
0001
0000
,
1000
0100
0010
0100
1000
0000
0100
0000
0010
0001
0010
0100
0010
0000
0001
0000
,
1001
1000
0100
0010
0001
0010
0100
1000
,
0010
0100
0001
1000
0100
0010
0001
1000
,
0100
1000
1001
0000
1001
0000
1010
0000
,
0101
1010
1001
1010
,
1000
0010
1000
0000
0010
1000
0010
0000
,
0100
0001
0100
0000
0001
0100
0001
0000
,
1000
0001
1000
0000
0001
1000
0001
0000
,
1000
0010
1000
0000
0001
0100
0001
0000
,
1000
0001
1000
0001
1000
0001
1000
0001
,
0100
0010
0100
0010
0100
0010
0100
0010
,
1000
0001
1000
0001
1000
0001
1000
0001
,
2000
0000
3000
1000
,
0100
1000
0100
0010
,
0001
0010
0001
1000
,
0001
1000
0001
0100
,
0010
0000
0100
0000
0010
0000
1000
0100
,
1000
0100
0010
0001
0010
0001
1000
0010
,
1000
0010
0100
0001
0100
0001
1000
0100
,
0010
0100
1000
0001
0010
0100
0010
0001
,
0010
0100
1000
0000
0000
0000
1000
0010
,
0100
0001
1000
0010
0100
0001
1000
0000
,
0000
0000
2002
0000
,
0000
0000
0000
0000
,
3003
0000
0000
0000
;

//---------------dance-single - ----------------
#NOTES:
     dance-single:
     :
     Medium:
     10:
     0.784,0.935,0.548,0.394,0.033,680.000,82.000,59.000,0.000,0.000,0.000,0.784,0.935,0.548,0.394,0.033,680.000,82.000,59.000,0.000,0.000,0.000:
0000
0000
0000
0000
,
2002
0000
0000
0000
,
0000
0000
0000
3003
,
0001
0101
0100
0110
,
0010
1010
1000
1002
,
1003
0000
0010
0000
0100
0000
0001
0000
1000
0000
0000
0010
0000
0000
1000
0000
,
0002
0000
0000
2003
0000
0000
3010
0000
,
1001
0000
0001
1000
,
0010
0000
0100
0001
0100
0001
1000
0010
,
1010
0000
0000
0000
1000
0001
1000
0000
,
1001
0000
0000
1001
0000
0000
0001
1000
,
0001
0000
1000
0100
0010
0001
1000
0001
,
1000
0000
0000
0010
0000
0000
0100
0000
0001
0000
1000
0000
0010
0000
0100
0000
,
0002
0000
2000
3003
,
1001
0000
0000
0101
0000
0000
1000
0020
,
2000
0000
0000
0000
3030
0000
0000
0000
1001
0000
0000
0001
0000
0000
1000
0000
,
0010
0000
0000
0100
0000
0000
0001
0000
1000
0000
0010
0000
0100
0000
0000
0000
,
1001
0000
0000
0000
0001
1000
0001
1000
,
0001
0000
0000
1001
0000
0000
1000
0100
,
1000
0000
0001
0010
0100
1000
0001
0010
,
0100
1000
0010
0100
0001
0010
0100
1000
,
0001
0100
0010
1000
0010
0100
0010
0100
,
0001
0100
0010
1000
0010
0100
0001
0010
,
0100
1000
0100
0010
0001
0010
0100
1000
,
0100
0010
0001
0010
0100
1000
0010
0000
,
1010
0101
0101
1001
,
1001
0101
2000
3001
,
0000
0100
0000
0101
0000
0000
1001
0000
,
0001
0010
0100
0010
0001
0000
1000
0001
,
1000
0000
0001
0100
0001
0000
1000
0010
,
1000
0000
0101
0000
1000
0002
2000
0000
,
3003
0000
0000
1010
0000
0000
0101
0000
,
1001
0000
1010
0000
1001
0000
0001
0100
,
1000
0000
1000
0100
0001
0000
1000
0010
,
0100
0000
0001
0010
0100
2000
0002
0000
,
3003
0000
1000
0001
1000
0000
0101
0000
,
0000
2002
0000
0000
3003
0000
1000
0001
,
0010
0100
1000
0010
0100
0001
1000
0000
,
1001
0000
1000
0001
0010
0000
1001
0000
,
0001
0101
0010
1010
,
0000
1001
0000
0000
0100
0001
2000
0000
,
3020
0230
0302
2003
,
3020
0000
0130
0001
1000
0010
2000
0000
,
0000
3002
0000
2003
,
0000
0010
0020
0000
3030
0000
0012
0000
,
0000
2003
0000
3002
,
0000
0000
1003
0100
0010
0001
0010
0000
,
1001
0000
0010
0100
0000
0000
2000
0000
,
0000
3002
0000
0000
0203
0000
0310
1000
,
0000
0000
1001
0000
0000
1010
0000
0000
,
0001
0001
1000
1000
,
1000
0100
1000
0100
0010
0001
0010
0001
,
1000
0001
1000
0001
0100
0010
0100
0010
,
1000
0100
0010
0100
1000
0010
0100
0010
,
1000
0100
0010
0100
1000
0001
0100
0010
,
1000
0100
0010
0100
1000
0001
0100
0010
,
1000
0100
0010
0100
1000
0001
0010
0100
,
0010
0001
1000
0100
0010
0100
1000
0000
,
0101
1010
1010
1000
,
2002
3003
2020
3030
,
0101
0000
0000
2020
0000
0000
3030
0000
,
1000
0010
0001
0000
0001
0010
1000
0000
,
1000
0100
0001
0000
0001
0100
1000
0001
,
1000
1010
1001
0101
,
0001
0000
1000
0010
1000
0000
1001
0000
,
0001
0100
0010
1000
,
1001
1010
0101
1001
,
1000
0001
1000
0010
,
1000
0001
0100
0010
,
1000
0100
0010
0100
,
1000
0001
0100
0010
,
1000
0100
0010
0100
,
1000
0001
0100
0010
,
1000
0001
1000
0001
,
1000
0010
0200
0000
0301
0100
0020
0000
,
1030
0100
0020
0000
0130
1000
0020
0000
,
0130
0001
0100
0010
1000
0000
0001
0000
,
1000
0010
0100
0001
,
0001
0100
0010
0000
1001
0000
0000
0000
,
1001
0000
1010
0000
,
1001
0000
1000
0010
1000
0000
0001
0100
,
0001
2000
3010
0200
,
0301
0000
1001
0000
2000
0000
3100
0010
,
0000
0000
0002
0000
1003
0010
0000
0000
,
2000
0000
3100
0010
0000
0000
0002
0000
,
1003
0010
0000
0000
0200
0000
0301
1000
,
0000
0010
1000
0002
,
1003
0100
1000
0100
1000
0010
0100
0010
,
1000
0100
0010
0001
0100
0010
1000
0001
,
1001
0000
0000
0000
1001
0000
0000
0000
0000
0101
0000
0000
0000
0001
0100
0000
,
0001
0100
0001
0100
0010
1000
0010
1000
0001
0000
0100
0000
0010
0000
1000
0000
,
1001
0000
0001
0100
0020
0000
2030
0000
,
3001
0100
0010
1000
0001
0100
0001
0000
,
2000
0000
3001
0100
0001
0010
0100
0000
,
2000
0000
3001
0100
0001
0000
0101
0000
,
1000
0000
0001
0100
0010
0000
1000
0000
,
0001
0000
1000
0010
1000
0000
1001
0000
,
0001
0000
1000
0010
1000
0000
0001
0000
,
0100
0000
0010
1000
0010
0100
0001
0000
,
1001
0000
1000
0010
1000
0000
0001
0000
,
0100
0000
0010
0100
0010
1000
0010
0000
,
1001
0000
0001
0100
0010
1000
0001
0000
,
1010
0000
1000
0001
0100
0010
1000
0000
,
1001
0000
0001
0100
0001
0000
1000
0000
,
1000
0000
0001
0100
0001
0000
1000
0000
,
0001
0000
1000
0001
1000
0000
0001
0000
,
2002
0000
0000
3003
,
1000
0001
1000
0000
0001
0100
0001
0000
,
1000
0010
1000
0000
0001
0100
0001
0000
,
1000
0100
0010
0000
0001
0010
0100
0000
,
1000
0001
0100
0000
0010
1000
0100
0000
,
0010
0001
1000
0000
0001
0100
0010
0000
,
1000
0100
0010
0000
0001
0100
0010
0000
,
1000
1001
1001
0101
,
0100
0001
0100
0010
1000
0001
1000
0000
,
0001
1000
0001
0000
0100
0001
0100
0000
,
0010
1000
0010
0000
1000
0001
1000
0000
,
0001
1000
0100
0010
0001
0010
0100
1000
,
0010
0100
0001
1000
0100
0010
0001
0000
,
1001
1001
1001
1010
,
0101
1010
1001
1010
,
1000
0010
1000
0010
,
0100
0001
0100
0001
,
1000
0010
0100
0001
,
1000
0001
0100
0001
,
1000
0100
0010
0100
,
1000
0001
0100
0010
,
1000
0001
1000
0001
,
2000
0000
3000
1000
,
0100
1000
0100
0010
,
0001
0010
0001
1000
,
0001
1000
0001
0100
,
0010
0100
0010
1000
,
0010
1000
0010
0100
,
0001
0100
0001
1000
,
0001
1000
0001
1000
,
0001
0000
1000
0000
0000
0000
1000
0001
,
1000
0001
1000
0001
1000
0001
1000
0000
,
0000
0000
2002
0000
,
0000
0000
0000
0000
,
3003
0000
0000
0000
;

//---------------dance-single - ----------------
#NOTES:
     dance-single:
     :
     Easy:
     7:
     0.486,0.559,0.387,0.194,0.003,422.000,58.000,29.000,0.000,0.000,0.000,0.486,0.559,0.387,0.194,0.003,422.000,58.000,29.000,0.000,0.000,0.000:
0000
0000
0000
0000
,
2002
0000
0000
0000
,
0000
0000
0000
3003
,
1010
0000
1010
0000
,
1001
0000
1001
0000
,
0010
0000
0000
0000
,
1000
0000
0000
0001
0000
0000
0100
0000
,
0010
0000
1000
0000
,
0001
0000
1000
0010
,
1001
0000
1000
0000
,
0001
0000
0000
1000
0000
0000
0010
0000
,
1010
0000
1000
0001
,
0100
0010
1000
0001
,
1001
0000
1000
0001
,
1000
0000
0000
0010
0000
0000
1000
0000
,
0001
1000
0010
0100
,
0100
0001
1000
0010
,
1001
0000
0000
0000
,
1001
0000
0000
1010
0000
0000
1000
0000
,
0001
0100
0010
1000
,
0001
0100
0010
1000
,
0001
0000
0000
0000
0000
1000
0000
0000
,
0000
0000
0010
0000
0000
0010
0000
0000
,
1000
0000
0000
0000
0001
0000
0000
1000
,
0000
0001
0000
1000
,
1000
0001
0001
0100
,
0100
0010
1000
1001
,
0000
0000
0000
0101
0000
0000
1001
0000
,
0000
0010
1000
0001
,
1000
0010
1000
0001
,
0001
0100
0100
1001
,
0000
0010
1000
0001
,
0100
0100
0010
1000
,
0001
1000
0010
1000
,
0001
0100
0010
1001
,
0000
1001
0000
1001
,
0000
1001
0000
0000
0010
0000
1001
0000
,
0000
1100
0000
1001
,
0000
0101
0000
0000
1001
0000
0010
0000
,
1000
0001
0100
0010
,
0000
0010
0000
0000
1000
0000
0001
0000
,
0100
0010
1000
0001
,
0100
0010
1000
1001
,
0000
1001
0000
1001
,
0000
0010
1000
0000
0000
0000
1001
0000
,
0000
0101
0000
1001
,
0000
1000
0010
0000
0000
0000
1001
0000
,
0000
0000
0000
1000
,
0000
0010
0000
0000
1000
0000
0010
1000
,
0000
0000
0010
0000
1000
0001
0000
0000
,
1000
0010
1000
1001
,
1000
0001
0100
0010
,
1000
0100
0010
0010
,
0001
0100
0010
1000
,
0001
0100
0010
0010
,
1000
1000
0001
0001
,
0100
0010
1000
0100
,
1000
0001
0100
0010
,
1000
0001
1000
0001
,
1001
0000
1001
0000
,
1010
0000
0000
1010
0000
0000
1000
0000
,
1001
0000
1001
0000
,
1010
0000
0000
1010
0000
0000
1000
0000
,
0000
1001
1001
1001
,
1000
0010
1000
0001
,
0100
0100
0010
1000
,
0001
1000
0010
1000
,
0001
0000
1000
0000
,
0010
0000
0100
0000
,
0001
0000
0010
0000
,
0100
0000
1000
0000
,
0001
0000
0001
0000
,
0100
0000
0100
0000
,
0010
0000
1000
0000
,
0001
1000
0001
1000
,
0010
1000
0001
0100
,
0020
0000
2030
3002
,
2003
3002
1003
0010
,
1000
0010
1000
0000
1001
0000
0001
0000
,
1000
0001
0100
0010
,
1000
0001
1000
0010
,
1000
0001
1000
0010
,
0010
0000
1000
0000
1000
0000
0000
0001
,
0000
0000
1000
0000
0000
0010
0000
0000
,
0100
0000
0000
0001
0000
0000
1000
0000
,
0000
0001
0000
0000
1000
0000
0010
0000
,
1000
0001
0100
0010
,
1001
1000
1000
0001
,
0100
0010
1000
0001
,
1000
0000
0000
0000
1001
0000
0000
0000
0000
1010
0000
0000
1001
0000
0000
0000
,
1000
0001
0100
0010
1000
0100
0010
0001
,
1001
0000
1010
0000
,
0001
0100
0101
0000
,
0010
1000
1010
0000
,
1000
0001
1001
0001
,
0001
1000
0010
0010
,
0100
0100
0001
0001
,
1000
0010
0100
0001
,
1000
0001
1000
0010
,
1000
0001
1000
0001
,
0100
0100
0010
0010
,
1000
0001
1000
0010
,
1000
0001
0100
0100
,
0010
0010
1000
0001
,
1000
0010
1000
0001
,
1000
0010
0100
0100
,
0001
1000
0001
1000
,
0002
0003
2000
3000
,
0020
0030
0200
0300
,
0002
0003
2000
3000
,
0020
0030
0200
0300
,
0002
0003
2000
3000
,
0002
0003
2000
3000
,
0001
1000
1000
1000
,
1000
0001
1000
0001
,
0100
0100
0010
0010
,
1000
0001
1000
0010
,
0200
0000
0302
0000
,
2003
0000
3020
0000
,
0230
0000
0302
0000
,
2003
0000
3020
0000
,
1030
0000
0001
0000
,
1000
0000
0010
0000
,
1000
0000
0001
0000
,
0001
0000
0100
0000
,
0100
0000
0010
0000
,
0010
0000
1000
0000
,
0001
0000
1000
0000
,
0001
0000
0000
1000
,
0001
1000
0000
0010
,
1000
0010
0000
1000
,
0001
1000
0000
0001
,
0100
0001
0000
1000
,
0001
1000
0000
0001
,
1000
0001
0000
1001
,
0000
1010
0000
1001
,
0000
1001
0000
1000
,
0001
1000
0001
1000
,
0000
0000
2020
0000
,
0000
0000
3030
0000
;

//---------------dance-single - ----------------
#NOTES:
     dance-single:
     :
     Beginner:
     4:
     0.215,0.368,0.134,0.007,0.000,204.000,20.000,1.000,0.000,0.000,0.000,0.215,0.368,0.134,0.007,0.000,204.000,20.000,1.000,0.000,0.000,0.000:
0000
0000
0000
0000
,
1001
0000
0000
0000
,
0000
0000
0000
0000
,
1000
0000
0000
0000
,
0001
0000
0000
0000
,
1001
0000
0000
0000
,
0010
0000
0000
0000
,
0100
0000
0000
0000
,
0001
0000
0000
0000
,
1001
0000
0000
0000
,
0010
0000
0000
0000
,
0010
0000
0000
0000
,
1000
0000
0001
0000
,
1001
0000
0000
0000
,
0010
0000
0000
0000
,
1000
0000
0000
0000
,
0001
0000
0000
0000
,
1001
0000
0000
0000
,
0010
0000
0000
0000
,
1000
0000
0000
0000
,
0001
0000
0000
0000
,
2000
0000
0000
0000
,
0000
0000
0000
0000
,
0000
0000
0000
0000
,
0000
0000
3000
0001
,
0000
0001
0000
0001
,
0000
1000
0000
1001
,
0000
0000
0000
0010
,
0000
0000
0000
0100
,
0000
0000
0000
0001
,
0000
0000
0000
1000
,
0000
0001
0000
1000
,
0000
0010
0000
1000
,
0000
0001
0000
1000
,
0000
0010
0000
1000
,
0000
0000
0000
0001
,
0000
0000
0000
1000
,
0000
0000
0000
0010
,
0000
0000
0000
0100
,
0000
0000
0000
0001
,
0000
0000
0000
1000
,
0000
0000
0000
0001
,
0000
0000
0000
1001
,
0000
0010
0000
0010
,
0000
0000
0000
0100
,
0000
0001
0000
1000
,
0000
0000
0000
0001
,
0000
0000
0000
1000
,
0000
0000
0000
0010
,
0000
0000
0000
0001
,
0000
0000
0000
0000
,
0000
0000
1000
0000
,
0000
0000
0001
0000
,
0000
0000
1000
0000
,
0000
0000
0010
0000
,
1000
0000
0001
0000
,
1000
0000
0001
0000
,
0001
0000
0001
0000
,
0001
0000
0001
0000
,
0001
0000
0001
0000
,
1001
0000
0010
0000
,
1000
0000
0000
0000
,
0001
0000
0000
0000
,
0010
0000
0000
0000
,
1000
0000
0000
0000
,
0001
0000
1000
0000
,
0001
0000
1000
0000
,
0001
0000
0000
0000
,
0000
0000
0000
0000
,
1000
0000
0000
0000
,
0000
0000
0000
0000
,
0010
0000
0000
0000
,
0000
0000
0000
0000
,
0100
0000
0000
0000
,
0000
0000
0000
0000
,
1000
0000
0000
0000
,
0001
0000
0000
0000
,
0010
0000
0000
0000
,
1000
0000
0001
0000
,
0001
0000
1000
0000
,
1000
0000
0010
0000
,
0010
0000
0100
0000
,
0100
0000
0001
0000
,
0001
0000
1000
0000
,
0010
0000
0100
0000
,
0001
0000
1000
0000
,
0001
0000
1000
0000
,
0001
0000
0000
0000
,
1000
0000
0000
0000
,
0010
0000
0000
0000
,
0001
0000
1000
0000
,
1001
0000
1000
0000
,
0001
0000
0001
0000
,
0100
0000
0100
0000
,
0010
0000
0010
0000
,
1000
0000
1000
0000
,
0001
0000
0001
0000
,
0100
0000
1000
0000
,
0010
0000
0010
0000
,
1000
0000
0001
0000
,
1000
0000
0001
0000
,
0010
0000
0010
0000
,
0100
0000
0100
0000
,
1001
0000
0010
0000
,
0010
0000
1000
0000
,
0001
0000
1000
0000
,
0010
0000
1000
0000
,
1001
0000
1001
0000
,
0010
0000
0010
0000
,
1001
0000
1001
0000
,
0110
0000
0110
0000
,
1001
0000
1001
0000
,
1001
0000
0010
0000
,
0000
1000
1000
1000
,
1000
0000
0001
0000
,
1000
0000
0010
0000
,
0010
0000
0100
0000
,
0100
0000
0001
0000
,
0001
0000
1000
0000
,
0010
0000
1000
0000
,
0010
0000
1000
0000
,
0001
0000
1000
0000
,
0001
0000
0100
0000
,
0010
0000
1000
0000
,
0010
0000
0100
0000
,
0001
0000
1000
0000
,
0010
0000
0100
0000
,
0001
0000
1000
0000
,
0100
0000
0000
0001
,
0000
1000
0000
0001
,
0000
0100
0000
0010
,
0000
1000
0000
0001
,
0000
0010
0000
0100
,
0000
1000
0000
0001
,
0000
0100
0000
0010
,
0000
1000
0000
0001
,
0000
1001
0000
1000
,
0000
0001
0000
1000
;

//---------------dance-double - ----------------
#NOTES:
     dance-double:
     :
     Challenge:
     13:
     1.000,1.000,0.775,0.428,0.651,1056.000,116.000,64.000,0.000,0.000,0.000,1.000,1.000,0.775,0.428,0.651,1056.000,116.000,64.000,0.000,0.000,0.000:
00000000
00000000
00000000
00000000
,
20020000
00000000
00000000
00000000
,
30030000
00000000
00000000
00000000
10000000
00000000
00100000
10000000
00000000
00100000
00000000
10000000
00000000
00010000
01000000
00100000
,
10100000
10100000
01010000
01010000
,
10010000
10010000
01010000
00020000
,
10030000
00000000
00100000
00000000
01000000
00000000
00010000
00000000
10000000
00000000
00000000
00100000
00000000
00000000
10000000
00000000
,
10100000
00000000
00000000
10010000
00000000
00000000
00010000
01000000
,
01010000
00000000
00000000
00000000
00010000
00000000
10000000
00100000
,
01000000
00010000
10000000
01000000
00100000
00010000
10000000
00010000
,
10010000
00000000
00000000
00000000
10000000
00010000
10000000
00100000
,
10100000
00000000
00000000
00000000
00000000
00000000
10010000
00000000
00000000
00000000
00000000
00000000
00010000
00100000
00010000
00100000
,
00010000
00000000
00000000
00000000
10000000
00010000
10000000
00010000
00100000
01000000
00100000
01000000
10000000
00010000
10000000
00010000
,
10000000
00000000
00000000
00100000
00000000
00000000
01000000
00000000
00010000
00000000
10000000
00000000
00100000
00000000
01000000
00000000
,
01010000
00000000
20000000
30000000
,
10010000
00000000
00000000
01010000
00000000
00000000
10000000
00100000
,
10100000
00000000
00000000
00000000
00000000
00000000
00000000
00000000
10010000
00000000
00000000
00010000
00000000
00000000
10000000
00000000
,
00100000
00000000
00000000
01000000
00000000
00000000
00010000
00000000
10000000
00000000
00100000
00000000
01000000
00000000
00010000
00000000
,
01010000
00000000
00000000
00000000
00000000
00000000
00000000
00000000
00010000
00100000
00010000
00100000
01000000
10000000
01000000
10000000
,
00010000
00000000
00000000
00000000
00000000
00000000
10010000
00000000
00000000
00000000
00000000
00000000
10000000
01000000
10000000
01000000
,
10000000
00000000
00000000
00000000
00010000
10000000
00010000
10000000
01000000
00100000
00010000
00100000
01000000
10000000
01000000
00100000
,
00010000
10000000
00010000
10000000
00010000
10000000
00010000
10000000
00010000
10000000
00010000
10000000
00010000
10000000
00010000
10000000
,
00010000
01000000
00100000
10000000
00100000
10000000
00100000
01000000
,
00100000
01000000
10010000
10000000
00100000
01010000
01000000
00100000
,
10000000
00010000
01000000
00100000
10000000
00100000
10000000
00010000
,
01000000
00010000
10000000
10000000
10000000
00100000
10100000
00000000
,
10100000
01010000
01010000
10010000
,
10010000
01010000
20000000
30010000
,
00000000
01000000
00000000
01010000
00000000
00000000
10010000
00000000
,
00010000
00000000
10000000
00000000
00010000
00100000
00010000
00100000
00010000
00000000
00000000
00000000
00100000
00010000
00100000
00010000
,
00100000
00000000
00000000
00000000
01000000
10000000
01000000
10000000
01000000
00000000
10000000
00000000
00010000
10000000
00010000
00000000
,
10010000
00000000
00000000
00000000
10010000
00000000
00000000
00000000
10000000
00100000
10000000
00000000
10010000
00000000
00010000
00000000
,
10000000
00010000
10000000
10100000
10000000
00100000
10100000
00000000
,
01010000
00000000
00000000
00000000
10100000
00000000
00000000
00000000
10010000
00000000
00000000
00000000
00010000
01000000
00010000
01000000
,
00010000
00000000
10000000
00000000
00010000
01000000
00100000
01000000
00010000
00000000
10000000
00000000
00100000
01000000
00100000
10000000
,
00100000
00000000
01000000
00000000
00010000
10000000
00010000
00000000
10000000
00100000
10000000
00000000
10010000
00000000
00000000
00000000
,
00000000
00000000
10100000
10000000
00010000
10000000
10010000
00000000
,
00000000
00000000
01010000
00000000
00010000
01000000
00100000
10000000
00010000
00000000
00000000
00000000
10000000
00010000
10000000
00010000
,
01000000
00100000
01000000
00100000
10000000
01000000
10000000
01000000
00100000
00010000
00100000
00010000
10000000
00000000
00000000
00000000
,
10010000
00000000
00000000
00000000
10000000
00010000
10000000
00000000
00010000
01000000
00010000
00000000
10010000
00000000
00000000
00000000
,
00010000
01000000
01010000
00000000
00100000
10000000
10100000
00000000
,
00000000
00000000
10010000
00000000
10000000
00100000
10000000
00100000
10000000
00000000
00010000
00000000
20000000
00000000
00000000
00000000
,
30200000
02300000
03020000
20030000
,
30200000
00000000
01300000
00010000
10000000
00100000
20200000
00000000
,
30300000
02020000
03030000
20100000
,
00000000
00100000
00200000
00000000
30300000
00000000
20020000
00000000
,
30030000
00220000
00330000
20020000
,
30030000
00000000
00000000
00000000
00010000
00000000
10000000
00000000
00010000
00000000
01000000
00100000
01000000
00000000
00000000
00000000
,
01000000
00000000
01000000
01000000
00000000
00000000
20000000
00000000
,
00000000
30020000
00000000
00000000
02030000
00000000
00100000
03100000
,
00000000
00000000
10010000
00000000
00000000
10100000
00000000
00000000
,
10010000
01010000
10100000
10010000
,
10100000
00000000
10000000
00000000
00100000
00000000
01000000
00010000
01000000
00000000
00100000
00000000
10000000
00000000
00010000
10000000
,
00010000
01000000
00010000
00100000
01000000
10000000
00010000
01000000
,
00100000
10000000
00100000
00000000
01000000
00010000
01000000
00000000
00010000
00100000
00010000
00000000
10000000
01000000
10000000
00000000
,
00010000
01000000
00100000
10000000
01000000
01000000
00100000
00100000
,
00010000
10000000
00010000
00000000
10000000
01000000
10000000
00000000
00010000
00100000
00010000
00000000
10000000
00010000
10000000
00000000
,
01000000
00100000
00010000
01000000
10000000
01000000
00010000
00100000
,
10000000
00100000
00010000
01000000
10000000
01000000
00100000
10000000
,
01000000
00010000
01000000
00100000
10000000
01000000
00100000
00000000
,
10010000
00000000
10000000
00010000
10000000
00000000
00010000
00000000
01000000
00010000
01000000
00010000
01000000
00000000
00100000
00000000
,
10000000
00100000
10000000
00010000
10000000
00000000
00010000
00000000
10000000
01000000
00100000
01000000
10000000
00000000
00010000
00000000
,
01000000
00100000
01000000
00010000
01000000
00000000
00100000
00000000
10000000
00100000
01000000
00100000
10000000
00000000
00010000
00000000
,
10010000
00000000
00000000
00000000
00000000
00000000
10100000
00000000
10000000
00010000
01000000
00100000
10000000
00000000
00010000
00000000
,
10000000
00100000
10000000
00000000
10100000
00000000
00000000
00000000
10010000
00000000
00000000
00000000
01010000
00000000
00000000
00000000
,
10000000
01000000
10000000
01000000
00100000
00000000
00010000
00000000
00100000
01000000
00100000
01000000
10000000
00000000
00010000
00000000
,
00100000
01000000
10000000
01000000
00100000
00000000
00010000
00000000
10000000
01000000
00100000
01000000
10000000
00000000
00010000
00000000
,
10010000
10100000
01010000
10010000
,
10000000
00010000
10000000
00010000
10000000
00010000
10000000
00010000
,
10000000
00100000
10000000
00100000
10000000
00100000
10000000
00100000
,
01000000
00010000
01000000
00010000
01000000
00010000
01000000
00010000
,
10000000
01000000
00100000
01000000
10000000
01000000
00100000
01000000
,
10000000
00010000
01000000
00010000
10000000
00010000
01000000
00010000
,
10000000
00100000
01000000
00010000
01000000
00100000
10000000
00010000
,
10000000
01000000
00100000
00010000
00100000
01000000
10000000
00100000
,
10000000
00010000
10000000
00010000
20000000
00000000
00100000
00000000
30100000
01000000
00010000
01000000
00200000
00000000
10000000
00000000
,
10300000
01000000
10000000
01000000
20000000
00000000
00010000
00000000
30010000
00100000
01000000
00100000
02000000
00000000
10000000
00000000
,
13000000
00010000
10000000
00010000
20000000
00000000
00100000
00000000
30200000
00000000
00000000
00000000
02300000
00000000
00000000
00000000
,
03020000
20030000
32000000
03200000
,
00310000
01000000
00100000
10000000
10010000
00000000
10100000
00000000
,
01010000
10010000
11000000
10010000
,
01010000
00000000
10000000
00100000
10100000
00000000
01000000
00010000
,
01010000
00020000
10030000
00200000
,
01300000
00000000
10010000
00000000
00020000
00000000
01000000
01030000
,
00000000
00000000
00200000
00000000
10000000
10300000
00000000
00000000
,
00020000
00000000
01000000
01030000
00000000
00000000
00200000
00000000
,
10000000
10300000
00000000
00000000
20000000
00000000
00010000
30010000
,
00000000
00100000
10000000
00020000
,
10030000
01000000
10000000
01000000
00100000
00010000
00100000
00010000
10000000
00010000
10000000
00010000
01000000
00100000
01000000
00100000
,
10000000
01000000
10000000
01000000
00100000
00010000
00100000
00010000
10000000
01000000
00100000
01000000
10000000
00010000
01000000
00010000
,
10010000
00000000
00000000
00000000
00000000
00000000
00000000
00000000
10100000
00000000
00000000
00000000
00000000
00000000
00000000
00000000
00000000
00000000
01010000
00000000
00000000
00000000
00000000
00000000
00000000
00000000
10000000
00010000
10000000
00000000
00000000
00000000
,
00010000
00100000
00010000
00100000
00010000
00100000
00010000
00100000
01000000
10000000
01000000
10000000
01000000
10000000
01000000
10000000
00020000
00000000
00000000
00000000
02030000
00000000
00000000
00000000
03200000
00000000
00000000
00000000
10300000
00000000
00000000
00000000
,
10010000
00000000
00010000
01000000
00200000
00000000
20300000
00000000
,
30010000
00000000
01000000
00000000
01000000
00000000
00100000
00000000
10000000
00000000
00010000
01000000
00010000
00000000
00000000
00000000
,
20000000
00000000
30010000
01000000
01010000
00100000
10000000
00000000
,
00020000
00000000
00000000
00000000
10030000
00000000
00100000
00000000
10100000
00000000
01000000
00010000
02000000
00000000
00010000
00000000
,
03010000
00100000
01000000
10000000
10020000
00000000
01030000
00000000
,
00100000
00000000
10000000
00000000
00010000
00000000
01000000
00000000
10100000
00000000
10000000
00100000
20000000
00000000
00000000
00000000
,
30010000
01000000
00100000
10000000
10020000
00000000
01030000
00000000
,
00200000
00000000
00000000
00000000
10300000
00000000
01000000
00000000
00100000
00000000
00010000
10000000
00010000
00000000
10000000
00000000
,
10010000
00010000
01000000
00100000
20000000
00000000
30020000
00000000
,
01030000
00100000
10000000
01000000
00100000
00010000
00010000
00000000
,
10000000
00100000
01000000
00010000
10000000
10000000
00010000
00000000
,
10000000
00000000
00100000
00000000
01000000
00000000
00010000
00000000
10000000
00000000
00100000
01000000
00100000
00000000
10000000
00000000
,
00010000
00010000
01000000
00100000
20000000
00000000
30010000
00000000
,
01000000
00000000
00100000
00000000
10000000
00000000
01000000
00000000
00100000
00000000
00010000
10000000
00010000
00000000
00000000
00000000
,
10010000
00000000
00010000
01000000
10100000
10000000
00010000
00000000
,
10000000
01000000
10000000
01000000
10000000
01000000
10000000
01000000
10000000
01000000
10000000
01000000
10000000
01000000
10000000
01000000
,
10000000
00010000
01000000
00100000
10000000
00000000
00010000
00000000
10000000
01000000
00100000
01000000
10000000
00000000
01000000
00000000
,
00100000
00010000
00100000
01000000
00100000
00000000
01000000
00000000
10000000
01000000
00100000
01000000
00100000
00000000
00010000
00000000
,
10010000
00000000
10000000
00100000
10000000
00000000
00010000
00000000
01010000
00000000
01000000
00100000
01000000
00000000
00100000
00000000
,
10100000
00000000
10000000
00010000
10000000
00000000
10010000
00000000
00010000
01000000
00010000
01000000
00010000
00000000
10000000
00000000
,
10010000
00000000
00010000
01000000
00100000
00000000
10000000
00000000
10100000
00000000
10000000
00010000
01000000
00000000
00100000
00000000
,
10100000
00000000
10000000
00010000
10000000
00000000
10010000
00000000
00010000
01000000
00100000
10000000
00010000
00000000
10000000
00000000
,
00010000
10010000
10010000
01010000
,
01010000
00000000
00000000
00000000
10000000
00000000
00100000
00000000
10000000
01000000
00100000
01000000
10000000
00000000
00010000
00000000
,
01000000
00100000
01000000
00010000
01000000
00000000
00100000
00000000
10000000
01000000
00100000
01000000
10000000
00000000
00010000
00000000
,
01000000
00100000
10000000
01000000
00100000
00000000
00010000
00000000
10000000
01000000
00100000
01000000
10000000
00000000
10010000
00000000
,
00010000
00100000
00010000
00000000
10000000
01000000
10000000
00000000
00010000
10000000
00010000
00000000
01000000
00010000
01000000
00000000
,
00100000
10000000
00100000
00000000
10000000
00010000
10000000
00000000
00010000
01000000
00010000
00000000
10000000
00010000
10000000
00000000
,
10010000
10010000
10100000
01010000
,
10100000
00000000
10100000
00000000
10100000
00000000
20200000
30300000
,
10000000
00010000
10000000
00100000
10000000
00010000
10000000
01000000
,
00100000
00010000
01000000
00010000
10000000
00010000
01000000
00010000
,
10000000
01000000
00100000
01000000
10000000
00010000
00100000
01000000
,
00100000
00010000
10000000
01000000
10000000
00010000
00100000
00010000
,
10000000
01000000
00100000
00010000
00100000
01000000
10000000
00010000
,
01000000
00100000
10000000
00010000
01000000
00100000
10000000
01000000
,
00100000
00010000
10000000
00100000
01000000
00010000
10000000
00010000
,
10000000
01000000
10000000
01000000
10000000
00000000
00010000
00000000
10000000
00010000
10000000
00010000
10000000
00000000
01000000
00000000
,
10000000
01000000
00100000
00010000
00100000
00010000
10000000
00100000
,
10000000
00100000
01000000
00010000
01000000
00010000
10000000
01000000
,
00100000
01000000
10000000
00010000
00100000
01000000
10000000
00010000
,
00100000
01000000
00100000
00010000
10000000
01000000
00100000
00010000
,
01000000
00100000
10000000
01000000
00100000
01000000
10000000
00010000
,
00100000
00010000
10000000
01000000
00100000
00010000
10000000
01000000
,
10000000
00010000
00100000
00010000
01000000
00010000
01000000
00010000
,
10000000
00010000
10000000
00000000
00000000
00000000
10000000
01000000
,
00010000
01000000
10000000
00100000
00010000
00100000
10000000
00000000
,
00000000
00000000
20020000
00000000
,
00000000
00000000
00000000
00000000
,
30030000
00000000
00000000
00000000
;
