#TITLE:Until;
#SUBTITLE:;
#ARTIST:ATC;
#TITLETRANSLIT:;
#SUBTITLETRANSLIT:;
#ARTISTTRANSLIT:;
#CREDIT:;
#BANNER:;
#BACKGROUND:;
#LYRICSPATH:;
#CDTITLE:;
#MUSIC:[Falling In Love] - Until.mp3;
#OFFSET:0.100;
#SAMPLESTART:60.000;
#SAMPLELENGTH:11.200;
#SELECTABLE:YES;
#BPMS:0.000=132.990;
#STOPS:;
#BGCHANGES:;

//---------------dance-single - ----------------
#NOTES:
     dance-single:
     :
     Hard:
     10:
     0.524,0.496,0.121,0.453,0.023: // measure 1
0000
0000
0000
0000
,  // measure 2
0000
0000
0000
0000
,  // measure 3
2000
0000
0000
0000
,  // measure 4
3002
0000
2003
0000
,  // measure 5
3020
0000
0230
0000
,  // measure 6
0301
1000
0010
0100
,  // measure 7
0001
0010
0100
1000
,  // measure 8
0000
1000
0010
0100
0002
0000
1003
0020
,  // measure 9
0000
1030
0000
0000
0000
0000
0000
0000
,  // measure 10
0000
0001
0100
0010
2000
0000
3001
0010
,  // measure 11
0000
0100
1000
0001
,  // measure 12
1000
0100
0010
0001
0020
0000
0130
2000
,  // measure 13
0000
3001
0000
0000
0000
1000
0000
0020
,  // measure 14
0000
1030
0010
0100
0020
0000
1030
0001
,  // measure 15
0100
0010
0100
0010
1000
0001
1000
0001
,  // measure 16
1000
0100
0001
0100
1000
0010
1000
0001
,  // measure 17
1001
0000
0101
0000
0001
1000
1100
0000
,  // measure 18
1000
0001
0011
0000
0001
0100
0010
0000
,  // measure 19
1000
0100
0010
0000
0001
0100
0010
0000
,  // measure 20
1000
0001
0100
0010
1000
0001
0001
0001
,  // measure 21
1000
0010
0100
0001
0010
0000
0100
1000
,  // measure 22
0010
0100
0001
0100
0000
0010
1000
0002
,  // measure 23
0000
1003
0100
0001
0200
0000
0010
0310
,  // measure 24
0001
1000
0010
1000
0000
0001
0100
0010
,  // measure 25
0000
1000
0100
0010
0000
0001
0010
0100
,  // measure 26
2100
0000
3200
0000
0302
0000
0100
0203
,  // measure 27
0000
1300
0010
0100
0000
0001
0010
0100
,  // measure 28
2000
3002
0203
0320
,  // measure 29
2030
0000
0000
0000
0000
0000
3002
0000
0000
0000
1003
0000
0010
0000
1000
0001
,  // measure 30
1000
0000
1001
0000
1000
0000
0102
0100
,  // measure 31
0000
0103
0010
1000
0100
0010
0001
0010
,  // measure 32
0200
0000
1000
2300
0000
3020
0000
0000
,  // measure 33
1030
0100
1000
0100
0010
0001
0010
0001
,  // measure 34
1000
0010
0100
0001
1000
0100
0010
0100
,  // measure 35
2000
0000
3020
0000
0230
0000
0301
0010
,  // measure 36
0000
0001
1000
0001
0000
0100
0010
1000
,  // measure 37
0002
0203
2300
3200
,  // measure 38
0302
0000
0000
2003
0000
0001
3001
0100
,  // measure 39
0020
0000
2030
0000
3200
0000
0310
0010
,  // measure 40
0000
0001
0100
0001
1000
0001
0100
0001
,  // measure 41
2000
0000
0010
3020
0000
0230
0000
0000
,  // measure 42
0301
0010
0001
0010
0100
1000
0100
1000
,  // measure 43
0001
0100
0001
0100
0010
1000
1000
1000
,  // measure 44
0001
1000
0001
0000
1000
0100
1000
0000
,  // measure 45
0001
1000
0001
0000
0100
0010
0100
0000
,  // measure 46
0001
0010
0001
0000
1000
0100
1000
0000
,  // measure 47
1000
0100
0001
0000
0001
0100
1000
0000
,  // measure 48
0001
0010
0001
0010
0100
1000
0100
1000
,  // measure 49
0001
0100
0001
0100
0010
1000
0010
1000
,  // measure 50
0100
0010
0100
0010
0001
0010
0100
0010
,  // measure 51
0001
1000
0001
1000
0001
0100
0100
0100
,  // measure 52
0010
1000
0100
0001
0200
0000
1000
2300
,  // measure 53
0000
3010
0100
0001
0100
0020
0000
2030
,  // measure 54
0000
3001
0100
0010
1000
0001
1000
0100
,  // measure 55
0000
1000
0001
1000
0000
0010
0100
0010
,  // measure 56
0000
1000
0100
0010
0001
0100
0100
0100
,  // measure 57
0010
1010
1000
1001
,  // measure 58
0001
0101
0100
0110
,  // measure 59
0010
1000
0010
0000
0100
0001
0100
0000
,  // measure 60
0001
0010
0001
0000
1000
0001
0001
0001
,  // measure 61
1000
0100
0001
0000
0001
0100
1000
0000
,  // measure 62
1000
0010
0001
0000
0001
0010
1000
0000
,  // measure 63
0001
1000
0001
1000
0001
0000
0000
0000
1000
0001
1000
0001
1000
0000
0000
0000
,  // measure 64
2002
0000
0000
3003
,  // measure 65
1001
0000
0010
0000
1001
0000
0010
1000
,  // measure 66
0000
0100
1000
0100
1000
0001
0100
0010
,  // measure 67
2000
3200
0302
0203
,  // measure 68
2300
0000
0000
0000
0000
0000
3020
0000
0000
0000
0130
0000
0001
0000
1000
0001
,  // measure 69
2000
0000
3020
0000
1030
0000
1001
0001
,  // measure 70
0000
1000
0010
1000
0001
0100
0010
1000
,  // measure 71
0200
0000
0010
0320
0000
0032
0000
0000
,  // measure 72
0103
0010
1000
0000
0001
0100
0001
0000
,  // measure 73
1000
0100
0010
0001
0100
0010
0010
0010
,  // measure 74
1010
0000
0000
0000
;

//---------------dance-single - ----------------
#NOTES:
     dance-single:
     :
     Easy:
     5:
     0.235,0.277,0.053,0.159,0.000: // measure 1
0000
0000
0000
0000
,  // measure 2
0001
0000
0010
0000
,  // measure 3
0100
0000
1000
0000
,  // measure 4
0100
0000
0010
0000
,  // measure 5
0001
0000
0100
0000
,  // measure 6
0010
0000
1000
0000
,  // measure 7
0010
0000
0100
0000
,  // measure 8
0000
0001
0001
0000
,  // measure 9
1000
0000
0100
0000
,  // measure 10
0000
0010
0010
0000
,  // measure 11
0001
0000
0010
0000
,  // measure 12
0000
0100
0100
0000
,  // measure 13
1000
0000
0100
0000
,  // measure 14
0010
0000
0001
0000
,  // measure 15
0010
0000
0100
0000
,  // measure 16
1000
0001
0010
0100
,  // measure 17
0110
0000
0001
0000
,  // measure 18
0001
0000
0100
0000
,  // measure 19
1000
0100
0001
0000
,  // measure 20
0001
1000
0001
0010
,  // measure 21
0000
0010
0000
1000
,  // measure 22
0000
0100
0000
0010
,  // measure 23
0000
0001
0000
1000
,  // measure 24
2002
0000
0000
0000
,  // measure 25
0000
0000
3003
0001
,  // measure 26
0010
1000
0100
0001
,  // measure 27
0000
0001
0000
0010
,  // measure 28
0100
1000
0010
0100
,  // measure 29
0002
0000
0000
0103
0000
0000
0010
0000
,  // measure 30
0100
0000
1000
0000
0002
0000
0000
0010
,  // measure 31
0000
0013
0000
0000
0000
0000
0000
0000
,  // measure 32
2000
0000
0000
0000
,  // measure 33
3020
0000
0000
0000
,  // measure 34
0030
0000
0000
1000
,  // measure 35
0100
0010
0001
0010
,  // measure 36
0100
0010
0001
0010
,  // measure 37
0100
1000
0001
1000
,  // measure 38
0200
0000
0000
0310
0000
0000
0001
0000
,  // measure 39
0010
0000
0100
0000
2000
0000
0000
0001
,  // measure 40
0000
3001
0000
0000
0000
0000
0000
0000
,  // measure 41
0002
0000
0000
0000
,  // measure 42
0203
0000
0000
0000
,  // measure 43
0310
1000
0100
0010
,  // measure 44
0001
0000
0010
0000
,  // measure 45
0100
0000
1000
0000
,  // measure 46
0100
0000
0010
0000
,  // measure 47
0001
0000
0100
0000
,  // measure 48
1000
0001
0010
0100
,  // measure 49
1000
0001
0100
0010
,  // measure 50
1000
0100
0001
0100
,  // measure 51
1000
0001
1000
0001
,  // measure 52
0010
0100
0010
0100
,  // measure 53
1000
0100
0010
0001
,  // measure 54
0010
0100
1000
1000
,  // measure 55
0010
0010
0100
0100
,  // measure 56
0001
0001
1000
0001
,  // measure 57
1000
0100
0010
0001
,  // measure 58
0002
0003
0200
0300
,  // measure 59
0020
0030
2000
3000
,  // measure 60
0020
0030
0200
0300
,  // measure 61
0001
0010
0100
1000
,  // measure 62
0001
1000
0100
0000
,  // measure 63
0011
0000
1001
0000
,  // measure 64
1100
0000
0110
0001
,  // measure 65
0100
1000
0010
0001
,  // measure 66
0010
0100
0110
1000
,  // measure 67
0001
0100
0010
0100
,  // measure 68
2000
0000
3000
0001
,  // measure 69
0010
0100
1000
0100
,  // measure 70
0010
0001
1000
0010
,  // measure 71
0200
0000
0000
0000
,  // measure 72
0302
0000
0000
0000
,  // measure 73
2003
0000
0000
0000
,  // measure 74
3200
0000
0000
0300
0000
0000
0000
0000
;

//---------------dance-single - ----------------
#NOTES:
     dance-single:
     :
     Medium:
     7:
     0.385,0.386,0.023,0.287,0.000: // measure 1
0000
0000
0000
0000
,  // measure 2
0000
0000
0000
0000
,  // measure 3
2000
0000
0000
0000
,  // measure 4
3002
0000
0203
0000
,  // measure 5
0320
0000
2030
0000
,  // measure 6
3200
0000
0320
0000
,  // measure 7
0032
0000
0203
0000
,  // measure 8
0310
0000
1000
0000
0001
0000
1000
0010
,  // measure 9
0000
1000
0001
0100
,  // measure 10
0010
0000
1000
0000
0100
0000
0010
0001
,  // measure 11
0000
1000
0010
0100
,  // measure 12
0001
0000
0010
0000
0100
0000
1000
0001
,  // measure 13
0000
1000
0000
0000
0000
0010
0000
0010
,  // measure 14
0000
1000
0010
0000
1000
0000
0001
1000
,  // measure 15
0001
0001
0100
0100
,  // measure 16
0010
1000
0010
0000
0100
0001
0100
0000
,  // measure 17
1001
0001
1000
0010
,  // measure 18
0100
0001
1000
0100
,  // measure 19
0001
0100
1000
0010
,  // measure 20
0100
0000
0001
0000
1000
0001
0001
0001
,  // measure 21
0000
1000
0010
0100
,  // measure 22
0001
0010
0100
1000
,  // measure 23
0001
1000
0001
1000
,  // measure 24
2002
0000
0000
0000
,  // measure 25
0000
0000
3003
0000
0000
1000
0010
0100
,  // measure 26
0002
0000
2003
0000
3020
0000
0130
0001
,  // measure 27
0000
1000
0000
0000
0000
0001
1000
0010
,  // measure 28
0200
0302
0023
0230
,  // measure 29
2000
0000
0000
0000
3300
0000
1000
0001
,  // measure 30
1000
0000
0010
0000
0100
0000
0001
1000
,  // measure 31
0000
0001
0000
0000
1000
0010
1000
0000
,  // measure 32
0001
0000
0100
0010
0000
2000
0000
0000
,  // measure 33
0002
0000
0000
3003
,  // measure 34
1000
0001
1000
0000
0001
0100
0010
1000
,  // measure 35
0010
0000
1000
0000
0001
0000
0100
0010
,  // measure 36
0000
1000
0001
1000
0000
0001
0100
0001
,  // measure 37
0200
0320
2030
3200
,  // measure 38
0320
0000
0000
0000
0000
0000
0031
0100
,  // measure 39
0001
0000
1000
0000
0010
0000
1000
0001
,  // measure 40
0000
0100
0010
0100
0000
0001
0010
0001
,  // measure 41
1000
0000
0010
0100
0000
0002
0000
0000
,  // measure 42
1003
0010
1000
0000
0001
0100
0001
0000
,  // measure 43
1000
0001
1000
0000
0001
1000
1000
1000
,  // measure 44
0001
0100
0010
1000
,  // measure 45
0100
0010
0001
1000
,  // measure 46
0001
0100
0001
0000
1000
0000
0010
0000
,  // measure 47
1000
0001
1000
0000
0001
0000
0100
0000
,  // measure 48
0010
1000
0010
1000
0010
0000
1000
0000
,  // measure 49
0001
1000
0001
1000
0001
0000
1000
0000
,  // measure 50
0010
1000
0010
1000
0010
0000
0100
0000
,  // measure 51
0001
0100
0001
0000
1000
0001
0001
0001
,  // measure 52
1000
0010
1000
0000
0001
0100
0001
0000
,  // measure 53
1000
0010
1000
0000
0001
0100
0000
0100
,  // measure 54
0000
0010
1000
0010
1000
0010
0000
1000
,  // measure 55
0000
0000
0000
0000
0000
0001
0000
0001
,  // measure 56
0000
1000
0010
1000
0010
1000
0000
0000
,  // measure 57
0001
0100
0001
0000
1000
0010
1000
0000
,  // measure 58
0001
0100
0001
0000
1000
0001
1000
0000
,  // measure 59
0020
0000
0000
0000
0000
0000
0000
0000
0000
0000
0000
0000
0000
0000
0000
0000
0000
0000
0000
0000
0000
0000
0000
0000
0000
0000
0000
0000
0000
0000
0000
0000
0000
0000
0000
0000
0000
0000
0000
0000
0000
0000
0000
0000
0000
0000
0000
0000
1030
0000
0000
0000
0000
0000
0000
0000
0000
0000
0000
0000
0000
0000
0000
0000
0000
0000
0000
0000
0000
0000
0000
0000
0000
0000
0000
0000
0000
0000
0000
0000
0000
0000
0000
0000
0000
0000
0000
0000
0000
0000
0000
0000
0000
0000
0000
0000
0200
0300
0000
0000
0000
0000
0000
0000
0000
0000
0000
0000
0000
0000
0000
0000
0000
0000
0000
0000
0000
0000
0000
0000
0000
0000
0000
0000
0000
0000
0000
0000
0000
0000
0000
0000
0000
0000
0000
0000
0000
0000
0000
0000
0000
0000
0000
0000
0010
0000
0000
0000
0000
0000
0000
0000
0000
0000
0000
0000
0000
0000
0000
0000
0000
0000
0000
0000
0000
0000
0000
0000
0000
0000
0000
0000
0000
0000
0000
0000
0000
0000
0000
0000
0000
0000
0000
0000
0000
0000
0000
0000
0000
0000
0000
0000
,  // measure 60
0001
0000
0100
0000
0010
1000
1000
1000
,  // measure 61
0001
0100
0010
0000
1000
0100
0010
0000
,  // measure 62
0001
0100
0010
0000
1000
0000
0001
0000
,  // measure 63
1000
0010
1000
0010
0100
0001
0100
0001
,  // measure 64
0200
0000
0000
0000
0000
0310
1000
0010
,  // measure 65
2000
0000
3002
0000
0203
0000
0310
2000
,  // measure 66
0000
0000
3001
0100
0001
0000
1000
0000
,  // measure 67
0001
0100
0010
1000
,  // measure 68
0002
0000
0000
1003
0000
0010
1000
0010
,  // measure 69
1000
0000
0001
0000
0100
0000
0010
1000
,  // measure 70
0000
0001
0100
0001
0000
1000
0010
1000
,  // measure 71
0001
0000
0100
0010
0000
2000
0000
0000
,  // measure 72
3002
0000
0000
0000
,  // measure 73
0203
0000
0000
0000
0000
0310
1000
0010
,  // measure 74
1010
0000
0000
0000
;

//---------------dance-single - ----------------
#NOTES:
     dance-single:
     :
     Beginner:
     2:
     0.093,0.165,0.038,0.000,0.000: // measure 1
0000
0000
0000
0000
,  // measure 2
0000
0000
0000
0000
,  // measure 3
1000
0000
0000
0000
,  // measure 4
0001
0000
0000
0000
,  // measure 5
0010
0000
0000
0000
,  // measure 6
0100
0000
0000
0000
,  // measure 7
1000
0000
0000
0000
,  // measure 8
0001
0000
0000
0000
,  // measure 9
0000
0000
0000
0000
,  // measure 10
0000
1000
0000
0000
,  // measure 11
0000
0000
0000
0000
,  // measure 12
0000
0001
0000
0000
,  // measure 13
0000
0000
0000
0000
,  // measure 14
0000
0010
0000
0000
,  // measure 15
0100
0000
0100
0000
,  // measure 16
0100
0000
0010
0000
,  // measure 17
1001
0000
0000
0000
,  // measure 18
1000
0000
0000
0000
,  // measure 19
0001
0000
0000
0000
,  // measure 20
0100
0000
0000
0010
,  // measure 21
0010
0000
0000
0000
,  // measure 22
0100
0000
0000
0000
,  // measure 23
0001
0000
1000
0000
,  // measure 24
1001
0000
0000
0000
,  // measure 25
0000
0000
0000
0000
,  // measure 26
0110
0000
0010
0000
,  // measure 27
1000
0000
0000
0000
,  // measure 28
0001
0000
1000
0000
,  // measure 29
0001
0000
0000
0000
,  // measure 30
1000
0000
0010
0000
,  // measure 31
0100
0000
0000
0000
,  // measure 32
0001
0000
0000
0000
,  // measure 33
1000
0000
0000
0000
,  // measure 34
0100
0000
0000
0000
,  // measure 35
0010
0000
0010
0000
,  // measure 36
0100
0000
0000
0000
,  // measure 37
1000
0000
1000
0000
,  // measure 38
0001
0000
0000
0000
,  // measure 39
0100
0000
0100
0000
,  // measure 40
0100
0000
0000
0000
,  // measure 41
0010
0000
0000
0000
,  // measure 42
1000
0000
0000
0000
,  // measure 43
0001
0000
0000
1000
,  // measure 44
1000
0000
0000
0000
,  // measure 45
0001
0000
0000
0000
,  // measure 46
0100
0000
0000
0000
,  // measure 47
0010
0000
0000
0000
,  // measure 48
1000
0000
0000
0000
,  // measure 49
0001
0000
0000
0000
,  // measure 50
0100
0000
0000
0000
,  // measure 51
0010
0000
0000
0000
,  // measure 52
1000
0000
0000
0000
,  // measure 53
0001
0000
0000
0000
,  // measure 54
1000
0000
0000
0000
,  // measure 55
0010
0000
0000
0000
,  // measure 56
0100
0000
0000
0000
,  // measure 57
0001
0000
0000
0000
,  // measure 58
1000
0000
0000
0000
,  // measure 59
0010
0000
0000
0000
,  // measure 60
0100
0000
0000
0010
,  // measure 61
0010
0000
0000
0000
,  // measure 62
1000
0000
0000
0000
,  // measure 63
0001
0000
0000
0000
,  // measure 64
1001
0000
0000
0000
,  // measure 65
1000
0000
0000
0000
,  // measure 66
0001
0000
0000
0000
,  // measure 67
0100
0000
0000
0000
,  // measure 68
0010
0000
0000
0000
,  // measure 69
1000
0000
0000
0000
,  // measure 70
0001
0000
0000
0000
,  // measure 71
1000
0000
0010
0000
,  // measure 72
0100
0000
0000
0000
,  // measure 73
0001
0000
0000
0000
,  // measure 74
1001
0000
0000
0000
;

//---------------dance-single - ----------------
#NOTES:
     dance-single:
     :
     Challenge:
     15:
     0.657,0.916,0.113,0.431,0.279: // measure 1
0000
0000
0000
0000
,  // measure 2
0000
0000
0000
0000
,  // measure 3
1000
0100
1000
0100
0010
0001
0010
0001
,  // measure 4
1000
0020
0130
0002
,  // measure 5
1003
0020
0130
0002
,  // measure 6
1003
0100
1000
0100
0001
0100
0001
0100
,  // measure 7
1000
0100
1000
0100
0010
0001
0010
0001
,  // measure 8
1000
0100
0010
0001
0200
0000
0310
2000
,  // measure 9
0000
3001
0010
0100
0010
0100
1000
0001
,  // measure 10
1000
0001
0100
0010
2000
0000
3001
0010
,  // measure 11
0100
1000
0100
1000
0001
0010
0001
0010
,  // measure 12
0100
1000
0001
1000
0020
0000
0130
0002
,  // measure 13
0000
1003
0000
0000
0000
2000
0000
3020
,  // measure 14
0000
1030
0010
0100
0001
0100
0010
1000
,  // measure 15
0100
0010
0100
0010
0001
0010
0100
1000
,  // measure 16
0001
0010
0001
0010
0100
1000
0100
1000
0001
0010
0001
0010
0100
1000
0100
1000
,  // measure 17
0001
0100
0101
0001
1000
0100
1100
1000
,  // measure 18
0001
0010
0011
0001
0100
0010
0110
0010
,  // measure 19
1000
0100
1100
0010
0001
0010
0011
0001
,  // measure 20
0100
0001
0101
0010
1000
0001
0001
0001
,  // measure 21
1000
0100
1100
0010
0001
0010
0011
0100
,  // measure 22
1000
0100
1100
1000
0100
0010
0001
2000
,  // measure 23
0000
3100
0010
0001
0020
0000
0001
0031
,  // measure 24
1001
1000
0010
1000
0000
0001
0100
0010
,  // measure 25
0000
1000
0100
0010
0000
0001
0010
0100
,  // measure 26
1100
0000
1000
0001
1000
0000
0001
0000
0100
0000
0010
1000
0010
0000
0100
0000
,  // measure 27
0001
0000
0010
0001
0010
0000
0001
0000
0100
0000
0010
1000
0010
0000
1000
0000
,  // measure 28
0200
2000
0010
0020
,  // measure 29
0001
0000
0000
0000
0000
0000
3330
0000
0000
0000
0000
0000
0000
0000
1000
0001
,  // measure 30
1000
0000
0002
0000
0200
0000
0010
0010
,  // measure 31
0000
1303
0000
0000
0001
0100
0010
1000
,  // measure 32
0002
0000
1000
2003
0000
3020
0000
0000
,  // measure 33
1030
0000
0100
1000
0100
0000
0010
0001
0010
0000
0001
1000
0001
0000
1000
0010
,  // measure 34
1000
0000
0001
0100
0001
0000
1000
0010
1000
0000
0001
0100
0001
0000
1000
0000
,  // measure 35
0200
0000
2000
0000
0002
0000
0010
0010
,  // measure 36
0000
3313
0000
0000
0000
0001
1000
0010
,  // measure 37
0100
0200
0010
0020
,  // measure 38
0001
0000
0000
0000
0000
0000
0331
0000
0000
0000
0000
0000
1000
0000
0001
1000
,  // measure 39
0002
0000
0200
0000
0010
0000
1000
1000
,  // measure 40
0000
1303
0000
0000
0000
0000
1000
0100
,  // measure 41
0002
0000
0100
0203
0000
2300
0000
0000
,  // measure 42
3001
0000
0010
0001
0010
0000
0100
0000
1000
0000
0100
0010
0001
0000
1000
0000
,  // measure 43
0001
0000
0100
0010
0100
0000
0001
0000
0100
0000
0010
0000
0010
0000
0010
0000
,  // measure 44
1000
0100
1000
0100
1000
0100
1000
0100
0010
0001
0010
0001
0010
0001
0010
0001
,  // measure 45
1000
0100
0010
0001
1000
0100
0010
0001
1000
0010
1000
0010
0100
0001
0100
0001
,  // measure 46
1000
0100
0010
0100
1000
0100
0010
0001
0010
0100
0010
0001
1000
0100
1000
0001
,  // measure 47
0100
0010
1000
0100
0010
0001
0010
0100
1000
0001
0010
0001
1000
0100
0010
0001
,  // measure 48
1000
0010
1000
0010
0001
0010
0001
0010
,  // measure 49
1000
0010
1000
0010
0100
0001
0100
0001
,  // measure 50
0010
1000
0010
0001
0100
1000
0100
0010
,  // measure 51
1000
0000
0100
0000
0001
0000
0100
0000
1000
0000
0001
0000
0001
0000
0001
1000
,  // measure 52
0100
0010
0100
1000
0100
0001
0100
0010
,  // measure 53
0100
1000
0010
0001
0010
1000
0100
0001
,  // measure 54
0100
0010
0001
0010
1000
0010
0100
0010
,  // measure 55
0001
0010
0001
1000
0000
0002
0000
2003
,  // measure 56
0000
3010
1000
0010
1000
0100
0100
0100
,  // measure 57
0010
0000
0001
0100
0020
0030
0000
0000
1000
0000
0001
0100
0020
0030
0000
0000
,  // measure 58
1000
0000
0001
0010
0002
0003
0000
0000
0010
0000
0100
1000
0200
0300
0000
0000
,  // measure 59
0010
0000
0001
1000
0002
0003
1000
0000
0001
0000
0100
0001
0200
0300
0010
0000
,  // measure 60
1000
0000
0001
0100
0002
0003
1000
0000
0010
0000
1000
0100
2000
3000
0100
0000
,  // measure 61
1000
0100
0100
0001
1000
0010
0010
0001
,  // measure 62
1000
0100
0100
0001
1000
0010
0010
0001
,  // measure 63
1000
0100
0010
0001
0100
0010
1000
0010
1000
0001
0100
0001
0010
0001
1000
0001
,  // measure 64
2002
0000
0000
0000
3003
1000
0010
0100
,  // measure 65
0002
0000
0200
0000
0020
0000
1000
1030
,  // measure 66
0000
1313
0000
0000
0000
1000
0100
0010
,  // measure 67
0002
0200
0020
1030
,  // measure 68
2000
0000
0000
0000
0000
0000
3313
0000
0000
0000
0000
0000
1000
0000
0001
1000
,  // measure 69
0002
0000
2000
0000
0010
0000
0010
0010
,  // measure 70
0000
3013
0000
0000
1000
0010
0001
0010
,  // measure 71
2000
0000
0100
3200
0000
0320
0000
0000
,  // measure 72
0031
0100
0001
0100
0010
1000
0010
1000
,  // measure 73
0001
0100
0001
0100
0010
1000
1000
1000
,  // measure 74
2020
0000
3030
0000
;
