#TITLE:Through the Fire and Flames;
#SUBTITLE:;
#ARTIST:DragonForce;
#TITLETRANSLIT:;
#SUBTITLETRANSLIT:;
#ARTISTTRANSLIT:;
#CREDIT:;
#BANNER:;
#BACKGROUND:;
#LYRICSPATH:;
#CDTITLE:;
#MUSIC:Through the Fire and Flames.ogg;
#OFFSET:-0.034;
#SAMPLESTART:94.920;
#SAMPLELENGTH:15.000;
#SELECTABLE:YES;
#BPMS:0.000=200.000;
#STOPS:;
#BGCHANGES:;

//---------------dance-single - ----------------
#NOTES:
     dance-single:
     :
     Beginner:
     3:
     0.160,0.373,0.166,0.053,0.000:
0000
0000
0000
0000
,
0000
0000
0000
0000
,
1001
0000
0000
0000
,
0000
0000
0000
0000
,
0110
0000
0000
0000
,
0000
0000
0000
0000
,
1001
0000
0000
0000
,
1001
0000
0000
0000
,
0110
0000
0000
0000
,
0000
0000
0000
0000
,
1001
0000
0000
0000
,
0000
0000
0000
0000
,
0110
0000
0000
0000
,
0000
0000
0000
0000
,
1001
0000
0000
0000
,
1001
1001
1001
0000
,
1000
0000
0000
0000
,
0001
0000
0000
0000
,
0100
0000
0000
0000
,
0010
0000
0000
0000
,
1000
0000
0000
0000
,
0001
0000
0000
0000
,
1000
0000
0000
0000
,
0020
0000
0000
0030
,
0100
0000
0000
0000
,
0001
0000
0000
0000
,
1000
0000
0000
0000
,
0010
0000
0000
0000
,
1001
0000
0000
0000
,
1000
0000
0000
0000
,
0001
0000
0000
0000
,
1000
0000
0000
0000
,
1001
0000
0000
0000
,
0000
0000
0000
0000
,
0110
0000
0000
0000
,
0000
0000
0000
0000
,
1001
0000
0000
0000
,
0000
0000
0000
0000
,
1001
0000
0000
0000
,
2000
0000
0000
3000
,
0001
0000
1000
0000
,
0001
0000
0100
0000
,
0010
0000
0010
0000
,
1000
0000
0000
0000
,
0001
0000
0000
0000
,
1000
0000
0000
0000
,
0010
0000
0000
0000
,
0100
0000
0000
0000
,
1000
0000
1000
0000
,
0001
0000
0001
0000
,
0100
0000
0100
0000
,
0100
0000
0000
0000
,
0010
0000
0000
0000
,
0010
0000
0000
0000
,
1000
0000
0000
0000
,
0000
0000
0000
0000
,
1001
0000
0000
0000
,
1000
0000
0000
0000
,
0001
0000
1000
0000
,
0002
0000
0000
0003
,
1000
0000
0000
0000
,
1000
0000
0000
0000
,
0002
0000
0000
0003
,
0000
0000
1000
0000
,
1000
0000
0000
0000
,
0001
0000
0000
0000
,
0100
0000
0000
0000
,
0010
0000
0000
0000
,
1000
0000
0000
0000
,
1000
0000
0000
0000
,
0001
0000
0000
0000
,
0001
0000
0000
0000
,
1000
0000
0000
0000
,
1000
0000
0000
0000
,
0010
0000
0000
0000
,
1000
0000
0000
0000
,
0001
0000
0001
0000
,
0001
0000
1000
0000
,
0010
0010
0010
0010
,
0010
0000
0000
0000
,
1001
0000
0000
0000
,
1000
0000
0001
0000
,
0100
0000
0000
0000
,
0000
0000
0010
0010
,
0010
0000
0000
0000
,
1000
0000
0000
0001
,
0001
0000
0000
0000
,
0000
1000
1000
1000
,
1000
0000
0000
0000
,
0001
0000
0000
0000
,
0100
0000
0000
0000
,
0010
0000
0000
0000
,
1000
0000
0000
0000
,
0001
0000
0000
0000
,
2002
0000
0000
3003
;

//---------------dance-single - ----------------
#NOTES:
     dance-single:
     :
     Easy:
     7:
     0.280,0.370,0.140,0.263,0.000:
0000
0000
0000
0000
,
0000
0000
0000
0000
,
1001
0000
0000
0000
,
0000
0000
0000
0000
,
0220
0000
0000
0000
,
0000
0000
0000
0330
0000
0000
0000
0000
,
1001
0000
0000
0000
,
2000
0000
0000
3000
,
1001
0000
0000
0000
,
0000
0000
0000
0000
,
0110
0000
0000
0000
,
0000
0000
0000
0000
,
2002
0000
0000
0000
,
0000
0000
3003
0000
,
1001
0000
0000
0000
,
0011
0011
0011
0000
,
0002
0000
0000
0000
,
2003
0000
0000
0000
,
3020
0000
0000
0000
,
0230
0000
0000
0000
,
0302
0000
0000
0000
,
2003
0000
0000
0000
,
3002
0000
0000
0000
,
0103
0000
0001
0000
,
2000
0000
0000
0000
,
3002
0000
0000
0000
,
0203
0000
0000
0000
,
0320
0000
0000
0000
,
1030
0000
1000
0000
,
0001
0000
0001
0000
,
0100
0010
1000
0001
,
0100
0000
0000
0000
,
1001
0000
0000
0000
,
0000
0000
0000
0000
,
0110
0000
0000
0000
,
0000
0000
0000
0000
,
1001
0000
0001
0000
,
1000
0000
0010
0000
,
0110
0000
0000
0000
,
0002
0000
0000
0003
,
1000
0001
1000
0001
,
0200
0000
0000
0000
0000
0000
0000
0300
,
0010
1000
0001
1000
,
0010
0000
0000
0000
,
0100
0000
0001
0000
,
1000
0000
0001
0000
,
0100
0010
1000
0001
,
0200
0000
0000
0000
0000
0000
0000
0300
,
0010
1000
0010
0100
,
0001
0010
0100
1000
,
0001
0001
2000
0000
,
3010
0100
0001
0010
,
0200
0000
0000
0000
,
2300
0000
0000
0000
0000
0000
0000
3000
,
0001
0000
0000
0000
,
0000
1000
0000
1000
0000
1000
0000
0000
,
0001
0000
0100
0000
,
0010
0000
1000
0000
,
0001
0100
0001
0100
,
0001
1000
0001
1000
,
0001
0000
0000
0100
0000
0000
0001
0000
,
1000
0000
0000
0010
0000
0000
0100
0000
,
0002
0000
0000
0000
,
0003
1000
0001
0100
,
0010
0000
1000
0000
,
0001
0000
1000
0000
,
1001
0000
0010
0000
,
1000
0000
0001
0000
,
0100
0000
0010
0000
,
1000
0000
0001
0000
,
0100
0000
0000
0001
0000
0000
1000
0000
,
0010
0100
0001
0010
,
0100
0000
0000
1000
0000
0000
0001
0000
,
0100
0000
0000
0100
0000
0000
0000
0000
,
0010
0000
0000
1000
0000
0000
0001
0000
,
0000
0000
0000
1000
0000
0000
0000
0000
,
1000
0000
1000
0000
,
0001
1000
0001
1000
,
0002
0000
0000
0000
,
0003
1000
0001
0100
,
0020
0000
0000
0000
0000
0030
1000
0000
,
0001
0000
0000
0100
0000
0000
0010
0000
,
2000
0000
0000
3001
0000
0000
0000
0000
,
0000
0000
0100
0010
,
1000
0000
0000
0001
0000
0000
1000
0000
,
0000
0010
0000
0000
1000
0000
0001
0000
,
2000
0000
0000
0000
,
3000
0001
1000
0010
,
0200
0000
0000
0000
,
0301
0000
0000
0001
0000
0000
1000
0000
,
0010
0000
0000
0010
0000
0000
0100
0000
,
0001
0000
1000
0001
,
0100
0000
0000
0010
0000
0000
1000
0000
,
0001
1000
0001
1000
,
2002
3003
0000
0000
0000
0000
0000
0000
0000
0000
0000
0000
0000
0000
0000
0000
0000
0000
0000
0000
0000
0000
0000
0000
0000
0000
0000
0000
0000
0000
0000
0000
0000
0000
0000
0000
0000
0000
0000
0000
0000
0000
0000
0000
0000
0000
0000
0000
0000
0000
0000
0000
0000
0000
0000
0000
0000
0000
0000
0000
0000
0000
0000
0000
0000
0000
0000
0000
0000
0000
0000
0000
0000
0000
0000
0000
0000
0000
0000
0000
0000
0000
0000
0000
0000
0000
0000
0000
0000
0000
0000
0000
0000
0000
0000
0000
0000
0000
0000
0000
0000
0000
0000
0000
0000
0000
0000
0000
0000
0000
0000
0000
0000
0000
0000
0000
0000
0000
0000
0000
0000
0000
0000
0000
0000
0000
0000
0000
0000
0000
0000
0000
0000
0000
0000
0000
0000
0000
0000
0000
0000
0000
0000
0000
0000
0000
0000
0000
0000
0000
0000
0000
0000
0000
0000
0000
0000
0000
0000
0000
0000
0000
0000
0000
0000
0000
0000
0000
0000
0000
0000
0000
0000
0000
0000
0000
0000
0000
0000
0000
0000
0000
0000
0000
0000
0000
0000
0000
0000
0000
0000
0000
;

//---------------dance-single - ----------------
#NOTES:
     dance-single:
     :
     Medium:
     10:
     0.508,0.655,0.368,0.254,0.000:
0000
0000
0000
0000
,
0000
0000
0000
0000
,
0101
0000
0001
0000
,
1000
0000
0010
0000
,
2002
0000
0000
0000
,
0000
0000
0000
3003
,
1001
0000
0000
0000
,
0220
0000
0000
0330
,
1001
0000
0000
0000
,
1000
0000
0001
0000
,
2002
0000
0000
3003
,
0001
0000
1000
0000
,
0202
0000
0000
0000
,
0000
0000
0000
0303
,
1010
0000
0000
0000
,
0011
1001
0011
0000
,
1000
0000
0010
1000
0000
0010
1000
0000
,
0001
0000
0100
0010
0000
0100
0010
0000
,
1000
0000
0001
0010
0000
0001
0010
0000
,
0001
0000
1000
0100
0000
1000
0100
0000
,
0010
0000
0001
1000
0000
0001
1000
0000
,
0001
0000
1000
0100
0000
1000
0100
0000
,
0010
0001
0010
0000
0100
1000
0100
0000
,
1000
0001
1000
0000
0001
0100
0001
0000
,
1001
0000
1000
0010
0000
1000
0010
0000
,
0100
0000
0001
0010
0000
0001
0010
0000
,
0001
0000
1000
0010
0000
0100
0001
0000
,
1000
0000
0001
0100
0000
0010
1000
0000
,
1001
0000
0001
0100
0000
0100
0010
0000
,
1010
0000
1000
0100
0000
0100
0010
0000
,
0001
1000
0010
0000
0010
1000
0001
0000
,
2002
0000
0000
3003
,
1001
0000
0000
0000
,
0000
0000
0000
0000
,
0110
0000
0000
0000
,
0000
0000
0000
0000
,
1001
0000
0000
0000
,
0000
0000
0000
0000
,
0011
0000
0001
0100
0000
0100
0000
0100
,
0010
1000
0010
0000
0100
0001
0100
0000
,
0011
0000
0001
1000
0001
0000
1000
0010
,
1000
0000
0010
1000
0000
0000
0001
0010
,
0001
0000
1000
0000
0001
0100
0000
0020
,
0000
0000
0030
1000
,
0001
0000
0100
0002
0000
0000
1003
0000
,
0010
0000
1000
0002
0000
0000
0103
0000
,
0010
0000
1000
0002
0000
0000
1003
0000
,
0002
0100
0003
0010
1000
0100
1000
0001
,
1000
0000
0001
0100
0001
0000
1000
0010
,
1000
0010
0000
0100
0001
0000
1000
0100
,
1000
0000
1001
0000
0001
1000
0000
0020
,
0000
0030
0000
1000
,
0001
0100
0000
0001
0000
0000
1000
0000
,
0010
0000
0100
0001
0000
0000
1000
0000
,
0001
0010
0001
0010
0100
1000
0100
0000
,
0000
1001
0000
0101
0000
1001
0000
0000
,
1000
0100
1000
0100
1000
0100
1000
0000
,
0001
1000
0001
1000
0001
1000
0001
0000
,
2002
0000
0000
3003
,
0101
0000
0000
1010
0000
0000
1001
0000
,
1000
0100
1000
0001
0100
0000
0010
0000
,
1000
0100
1000
0000
0001
0010
0001
0000
,
2002
0000
0000
3003
,
0000
1000
0001
1000
,
0001
1000
0010
0100
,
0001
0010
0001
0100
,
0010
0000
1000
0010
0000
0000
0100
0000
,
0001
0011
1001
1010
,
1000
0000
0001
0100
0000
0000
0010
0000
,
1000
0000
0001
1000
0000
0000
0010
0000
,
0100
0000
0000
0001
0000
0000
0010
0000
,
0001
0100
0001
0100
0001
1000
0001
0000
,
1001
0000
0010
2000
0000
0000
3010
0000
,
1000
0000
0000
1001
0000
0000
0000
0000
,
1000
0000
0010
1000
0000
0000
0001
0000
,
1001
0000
0000
1010
0000
0000
0000
0000
,
1000
0100
1000
0100
1000
0100
1000
0000
,
0001
1000
0001
1000
0001
1000
0001
0000
,
1000
0100
1000
0001
0100
0010
1000
0001
,
1000
0001
0100
0010
,
1000
0001
1000
0000
0001
0000
0100
0000
,
0001
0000
0000
0010
0000
0000
0001
0000
,
1000
0000
0002
2000
0000
0000
3003
0000
,
0000
0000
1000
0100
,
2000
0000
0000
3001
0000
0000
0100
0000
,
0020
0000
0000
1030
0000
0000
0001
0000
,
2002
0000
0000
3003
,
0000
1100
1001
0110
,
0001
1000
0001
0000
0100
0000
0010
1000
,
0010
0000
0000
1001
0000
0000
0010
0000
,
1000
0000
0001
1000
0000
0000
0010
0000
,
1000
0000
0001
0010
,
0001
0010
0001
0000
1000
0001
1000
0000
,
2002
0000
3003
0000
;

//---------------dance-single - ----------------
#NOTES:
     dance-single:
     :
     Hard:
     14:
     0.743,0.867,0.315,0.254,0.079:
0000
0000
0000
0000
,
0000
0000
0000
0000
,
1001
0001
0100
0010
,
1000
0001
0010
0100
,
1100
0001
0100
0010
,
1000
0010
0100
0001
,
0011
0001
0100
0010
,
2001
0001
0010
3010
,
1001
0001
1000
0010
,
1000
0010
1000
0001
,
1001
0010
1000
0010
,
0100
0001
0010
0001
,
1001
1000
0100
0100
,
0010
0010
0001
0001
,
1001
0000
0000
0000
,
1010
0101
0011
0000
,
1001
0000
1000
0010
0000
0100
0010
0100
,
0010
0000
1000
0010
0000
0100
0001
0100
,
0001
0000
1000
0100
0000
0010
0001
0010
,
0002
0000
1003
0010
0000
0100
0001
0100
,
0002
0000
1003
0100
0000
0010
0001
1000
,
0020
0000
0130
0001
0000
1000
0100
0010
,
0001
0010
0100
1000
0001
0100
0010
1000
,
0001
0010
0001
1000
0002
0000
0000
0000
,
2003
0000
3010
0100
0000
0001
0100
0010
,
2000
0000
3001
0100
0000
0010
1000
0100
,
0020
0000
0031
0100
0000
0010
1000
0001
,
2000
0000
3001
0100
0010
0100
0001
1000
,
0002
0000
1003
0020
0000
0130
0001
1000
,
0200
0000
0310
0002
0000
1003
0010
0100
,
0001
0010
0001
0000
1000
0001
1000
0000
,
2002
0000
0000
3003
,
1001
0000
1000
0010
1000
0000
0001
0100
,
0001
0000
0100
0000
0000
0000
0001
1000
,
1001
0000
0001
0100
0000
0010
0000
1000
,
0000
0000
0000
0001
,
1001
1000
0010
0100
,
0001
0000
0010
0001
0000
0000
0001
0000
,
1001
0000
1000
0001
0000
1000
0000
0001
,
0100
0010
0100
0000
0001
1000
0010
1000
,
0001
0010
0001
0010
0100
1000
0100
1000
,
0001
0100
0001
1000
0100
0010
0000
0000
,
0001
0100
0010
1000
0100
0010
0100
1000
,
0001
1000
0100
1000
0001
1000
0010
0000
,
1010
0000
1000
0020
0000
0000
0130
0000
,
0001
0000
0010
0002
0000
0000
1003
0000
,
0100
0000
0010
0002
0000
0000
1003
0000
,
0022
0000
0000
0033
,
0001
1000
0001
0100
0001
0010
0001
0100
,
0001
1000
0001
0100
0001
0000
1000
0010
,
0100
0010
1000
0001
0100
0001
0010
0100
,
1000
0001
0100
0001
0100
0001
0100
0000
,
0010
1000
0010
0100
0001
0000
0011
0000
,
0001
0100
0001
1000
0010
0100
0010
0000
,
1000
0100
0001
0100
1000
0010
0001
0010
,
1000
1001
0000
0101
0000
1010
0000
1001
,
0001
1000
0010
1000
0001
1000
0100
0010
,
0100
1000
0001
0100
0010
1000
0100
0010
,
0001
0100
0001
0100
0001
0100
0001
0100
,
0010
1000
0010
1000
0010
1000
0010
1000
,
0001
0010
0001
1000
0100
0010
0100
1000
,
0001
0100
0010
1000
0001
0100
0001
1000
,
1001
0000
1000
0100
0010
0001
0100
0010
,
1000
1001
0101
1001
,
1000
0000
0100
0000
0010
0001
0010
0000
0100
0000
1000
0000
0001
1000
0001
0000
,
1000
0000
0100
0000
0010
0001
0010
0000
0100
0000
1000
0000
0001
1000
0001
0000
,
0100
0000
0010
0000
1000
0001
1000
0000
0001
0000
0100
0000
0010
1000
0010
0000
,
1000
1001
0101
1001
,
1000
0001
0100
0001
,
1000
0000
0001
0100
0000
0000
0001
0000
,
2000
0000
0000
0010
0000
0000
3001
0000
,
0001
0100
0010
1000
0100
0010
0100
1000
,
0001
0000
1000
0010
0000
0000
1000
0000
,
2001
0000
0000
3001
0000
0000
0001
0100
,
0102
0000
1000
1003
0000
0000
1010
0000
,
1000
0100
0010
0100
1000
0001
0100
0010
,
1000
0100
1000
0100
0010
0001
0010
0001
,
1000
0010
1000
0010
0100
0001
0100
0001
,
1000
0001
1000
0001
1000
0001
1000
0001
1000
0001
1000
0001
1000
0001
1000
0001
,
1000
0001
0100
0010
,
1000
0100
0001
0000
0001
0100
1000
0000
,
1000
0010
0001
0000
0001
0010
1000
0000
,
0001
0000
0000
0000
0100
0001
0100
0000
0000
0000
0000
0000
0001
1000
0001
0000
,
0000
0000
0000
0000
1000
0010
1000
0000
0001
0000
0000
0000
1000
0010
1000
0000
,
0001
0100
0001
1000
0100
0010
0100
0010
,
0100
1000
0001
0010
0100
0010
0001
1000
,
0010
1000
0010
0100
0001
0100
0010
1000
,
0001
0020
0230
2300
,
3001
0010
0001
0000
0000
0000
0100
0001
,
0100
0000
0000
1010
0000
0000
1000
0000
,
0001
0000
2000
0010
0000
0000
0001
0000
,
3100
0000
1000
0001
,
1000
0100
1000
0100
0010
0001
0010
0001
,
1000
0010
0100
0001
,
2002
3003
0000
0000
;

//---------------dance-single - ----------------
#NOTES:
     dance-single:
     :
     Challenge:
     13:
     1.000,1.000,0.447,0.193,1.000:
0000
0000
0000
0000
,
0000
0000
0000
0000
0000
0000
2000
3001
,
1001
1000
0100
0010
0100
1000
0001
0010
,
0100
1000
0001
0010
0100
0010
0001
1000
,
1001
1000
0100
0010
0100
1000
0010
0100
,
0001
0100
0010
1000
0100
0010
0001
0010
,
0011
0001
0100
0010
1000
0010
0100
0001
,
1001
0001
1000
0010
1000
0001
1000
0001
,
1001
0001
0010
0100
1000
0100
0010
0001
,
0100
0010
1000
0100
1000
0010
0100
0001
,
1001
0001
0010
0001
1000
0010
0100
0001
,
0100
0010
1000
0100
0010
0001
1000
0001
,
1001
1000
0100
0010
0100
0001
0100
0010
,
0100
1000
0010
0100
0001
1000
0001
1000
,
1001
1000
0100
1000
0100
1000
0010
1000
,
1010
0101
0022
0033
,
1001
0000
0000
0000
1000
0010
1000
0000
0000
0000
0001
0010
0001
1000
0010
0100
,
0001
0000
0000
0000
1000
0010
1000
0000
0000
0000
0001
0100
0001
1000
0001
1000
,
0100
0000
0000
0000
0001
1000
0001
0000
0000
0000
0010
0001
0010
0001
0010
0100
,
2000
0000
0000
0000
3001
0010
0001
0000
0000
0000
0100
0001
0100
0010
1000
0010
,
2000
0000
0000
0000
3001
0100
0001
0000
0000
0000
0010
0001
0010
0001
1000
0010
,
2000
0000
0000
0000
3001
0010
0001
0000
0000
0000
1000
0100
1000
0100
1000
0100
,
1000
0001
0100
0010
1000
0100
0010
0100
1000
0001
0010
0001
1000
0100
0010
0100
,
1000
0001
1000
0100
1000
0100
1000
0001
2000
0000
0000
0000
0000
0000
0000
0000
,
3002
0000
0000
0000
0013
0100
0010
0000
0000
0000
0001
0100
0010
1000
0010
1000
,
0002
0000
0000
0000
1003
0100
1000
0000
0000
0000
0100
1000
0100
0010
0001
0010
,
0002
0000
0000
0000
0103
0010
0100
0000
0000
0000
0001
0100
0010
1000
0001
0100
,
0002
0000
0000
0000
1003
0100
0010
0001
0010
0100
1000
0001
1000
0001
1000
0001
,
1000
0010
1000
0010
1000
0010
0100
0001
0100
0001
1000
0010
0100
0001
1000
0100
,
0010
0001
0010
0001
0010
0001
1000
0010
1000
0010
0100
0001
0100
0010
1000
0001
,
0010
0100
1000
0001
0100
0010
1000
0100
0010
0001
1000
0010
1000
0001
1000
0001
,
2000
0000
0000
3000
,
1001
1000
0010
1000
0010
0100
0001
0100
,
0001
0100
0010
1000
0100
0010
0001
1000
,
1001
1000
0001
0100
0010
1000
0010
1000
,
0100
0001
0100
1000
0010
0100
0001
1000
,
1001
1000
0010
0100
0001
0100
0010
1000
,
0001
0100
0010
1000
0010
0100
0001
1000
,
1001
0000
1000
0001
0000
1000
0000
0001
,
0100
0010
0100
0010
0100
0000
0000
0000
0001
1000
0010
1000
0010
1000
0001
1000
,
0001
0000
1000
0000
0001
0100
0010
1000
0100
0010
0100
1000
0001
0010
0001
1000
,
0100
0010
0100
1000
0001
0100
0010
1000
0100
1000
0020
0000
0000
0000
0000
0000
,
0130
0000
0001
0000
1000
0100
0010
0100
1000
0001
0100
0010
1000
0100
0010
0100
,
1000
0001
0100
0010
1000
0100
0010
0100
1000
0001
1000
0010
1000
0000
0000
0000
,
1010
0000
0000
0000
1000
0001
1000
0000
0001
0000
0000
0000
0100
0010
0100
0000
,
0001
0000
0000
0000
0100
0010
0100
0000
0001
0000
0000
0000
1000
0100
1000
0000
,
0001
0000
0000
0000
1000
0100
1000
0000
0001
0000
0000
0000
1000
0001
1000
0000
,
0011
0000
2001
0000
0000
0000
3010
0000
0100
0000
0001
0000
0100
0010
1000
0001
,
1000
0000
0100
0000
0010
0001
0010
0000
0100
0000
1000
0000
0001
0100
0010
0000
,
1000
0000
0100
0000
1000
0001
1000
0000
0001
0000
0100
0000
0010
1000
0010
0000
,
1000
0000
0001
0000
0100
0010
0100
0000
0001
0000
1000
0000
0010
0100
0010
0000
,
1000
0000
0001
0000
0100
0001
1000
0000
0010
0000
1000
0000
0001
0100
0001
0000
,
1000
0000
0010
0000
0100
0010
0100
0000
0001
0000
1000
0000
0010
0100
0001
0000
,
1000
0000
0001
0000
1000
0100
1000
0000
0001
0000
1000
0000
0001
0010
0001
0000
,
1000
0100
1000
0100
0010
0001
0010
0001
1000
0010
1000
0010
0100
0001
0100
0001
,
1000
1001
0000
0101
0000
1010
0000
1001
,
0101
0100
0010
0110
0010
1000
1010
1000
,
1001
0001
0100
0110
0010
1000
1010
1000
,
0001
0010
0100
0010
0001
0010
0100
0010
0001
0010
0100
0010
0001
0010
0100
0010
,
0001
1000
0100
0010
0100
1000
0100
0010
0100
0010
0001
0010
0100
1000
0100
0010
,
0001
0100
0010
1010
1000
0001
1001
1000
,
0001
0100
0010
1000
0100
0010
0100
1000
0001
0100
0010
1000
0100
1000
0001
1000
,
0001
0000
1000
0100
0010
0001
0100
0010
,
1000
1001
0101
1001
,
1000
0000
0100
0000
0010
0001
0010
0000
0100
0000
1000
0000
0001
1000
0001
0000
,
1000
0000
0100
0000
0010
0001
0010
0000
0100
0000
1000
0000
0001
1000
0001
0000
,
0100
0000
0010
0000
1000
0001
1000
0000
0001
0000
0100
0000
0010
1000
0010
0000
,
1000
1001
0101
1001
,
1000
0000
0100
0000
0010
0001
0010
0000
0100
0000
1000
0000
0001
1000
0001
0000
,
1000
0000
0001
0000
0100
0001
1000
0000
0001
0000
0100
0000
0001
1000
0010
0000
,
1000
0000
0100
0000
1000
0001
1000
0000
0001
0000
0100
0000
0001
1000
0001
0000
,
1000
0010
1000
0010
0100
0001
0100
0001
1000
0100
0010
0100
1000
0001
0100
0001
,
1000
0000
1000
0010
0000
0000
1000
0000
,
2002
3003
0000
0202
0303
0000
0001
0100
,
0102
0000
1000
1003
0000
0000
1010
0000
,
1000
0100
0010
0100
1000
0001
0100
0010
,
1000
0100
1000
0100
0010
0001
0010
0001
1000
0010
1000
0010
0100
0001
0100
0001
,
1000
0100
0010
0100
1000
0001
0010
0100
0010
0001
1000
0100
0010
0100
1000
0001
,
1000
0001
1000
0001
1000
0001
1000
0001
1000
0001
1000
0001
1000
0001
1000
0001
,
1000
0001
0100
0010
,
1000
0000
0100
0000
1000
0100
1000
0000
0001
0000
0010
0000
0001
0010
0001
0000
,
1000
0000
0010
0000
1000
0010
1000
0000
0001
0000
0100
0000
0001
0100
0001
0000
,
1000
0000
0001
0000
0100
0001
0100
0000
0001
0000
1000
0000
0001
1000
0001
0000
,
1000
0000
0010
0000
1000
0010
1000
0000
0001
0000
1000
0000
0001
0010
0100
0000
,
1000
0100
1000
0100
0010
0001
0010
0001
1000
0010
1000
0010
0100
0001
0100
0001
,
1000
0100
1000
0100
0010
0001
0010
0001
1000
0100
0010
0100
1000
0001
0010
0100
,
0010
0001
1000
0100
0010
0100
1000
0001
0100
0001
1000
0010
1000
0001
1000
0001
,
1000
0011
0101
1001
,
1000
0010
0100
0001
0100
0010
0100
0001
,
0100
0010
1000
1010
0000
0000
1010
0000
,
1001
0000
0001
0201
0000
0000
0001
0000
,
1300
0000
1010
0101
,
1000
0100
1000
0001
1000
0100
0010
0001
0100
0010
1000
0010
0100
0001
1000
0001
,
1000
0010
0100
0001
,
2002
3003
0000
0000
;

//---------------dance-double - Copied from----------------
#NOTES:
     dance-double:
     Copied from:
     Hard:
     15:
     0.833,1.000,0.359,0.131,0.307: // measure 1
00000000
00000000
00000000
00000000
,  // measure 2
00000000
00000000
00000000
00000000
,  // measure 3
00011000
00000000
00010000
00000000
00000100
00001000
00000100
00000000
,  // measure 4
00001000
00000001
00001000
00000000
00000001
00000010
00000001
00000000
,  // measure 5
00002002
00000000
00000000
00000000
,  // measure 6
00000000
00000000
00000000
00003003
,  // measure 7
00010100
00000100
00100000
00010000
,  // measure 8
00110000
00010000
10000000
01000000
,  // measure 9
11000000
00000000
10000000
00000000
00010000
01000000
00010000
00000000
,  // measure 10
00100000
00001000
00010000
00000000
00000100
00010000
00000010
00000000
,  // measure 11
00001100
00000000
00000100
00000000
00010000
00001000
00010000
00000000
,  // measure 12
00001000
00100000
00010000
10000000
01000000
10000000
00010000
00000000
,  // measure 13
20020000
00000000
00000000
00000000
,  // measure 14
00000000
00000000
00000000
30030000
,  // measure 15
00101000
00000000
00000000
00000000
,  // measure 16
00001100
00000011
00011000
00000000
,  // measure 17
10010000
00000000
00010000
10000000
00000000
00100000
01000000
00100000
,  // measure 18
10000000
00000000
00010000
01000000
00000000
00010000
00100000
00010000
,  // measure 19
01000000
00000000
00001000
00010000
00000000
00001000
00010000
00000100
,  // measure 20
00001000
00000000
00000010
00010000
00000000
00010000
00000010
00000100
,  // measure 21
00000001
00000000
00001000
00000010
00000000
00010000
00001000
00010000
,  // measure 22
00001000
00000000
00100000
00010000
00000000
10000000
01000000
10000000
,  // measure 23
01000000
10000000
01000000
10000000
01000000
10000000
01000000
10000000
01000000
10000000
01000000
10000000
01000000
10000000
01000000
10000000
,  // measure 24
00010000
01000000
00010000
00100000
00002000
00000000
00003000
00000000
,  // measure 25
00011000
00000000
00010000
00000100
00000000
00001000
00000010
00001000
,  // measure 26
00001010
00000000
00000100
00000001
00000000
00000010
00000100
00001000
,  // measure 27
00001100
00000000
00000100
00010000
00000000
00001000
00100000
00010000
,  // measure 28
00110000
00000000
00010000
01000000
00000000
00100000
10000000
01000000
,  // measure 29
11000000
00000000
00100000
01000000
00000000
00001000
00100000
00010000
,  // measure 30
10000000
00000000
00010000
00100000
00000000
00000100
00010000
00001000
,  // measure 31
00100000
00001000
00010000
00100000
01000000
10000000
00010000
10000000
,  // measure 32
20020000
00000000
00000000
30030000
,  // measure 33
10010000
00000000
10000000
00100000
10000000
00000000
00010000
01000000
,  // measure 34
00010000
00000000
10000000
00000000
00000000
00000000
00001000
00010000
,  // measure 35
00010100
00000000
00001000
00000001
00000000
00000100
00000000
00000001
,  // measure 36
00000000
00000000
00000000
00100000
,  // measure 37
10010000
10000000
00100000
01000000
,  // measure 38
00010000
00000000
00100000
00010000
00000000
00000000
00010000
00000000
,  // measure 39
10010000
00000000
10000000
00010000
00000000
10000000
00000000
00010000
,  // measure 40
10000000
01000000
10000000
01000000
10000000
00000000
00000000
00000000
00010000
00100000
00010000
00100000
00010000
00000000
00000000
00000000
,  // measure 41
10010000
10000000
01000000
00010000
00001000
00000010
00000001
00000010
,  // measure 42
00001000
00010000
01000000
10000000
00010000
00100000
00000000
00000000
,  // measure 43
00001000
00010000
00000010
00000100
00000001
00000100
00001000
00000100
,  // measure 44
00000001
00010000
00001000
00100000
00010000
10000000
00010000
00000000
,  // measure 45
10100000
00000000
10000000
00200000
00000000
00000000
01300000
00000000
,  // measure 46
00010000
00000000
00100000
00020000
00000000
00000000
10030000
00000000
,  // measure 47
01000000
00000000
00100000
00002000
00000000
00000000
00013000
00000000
,  // measure 48
00220000
00000000
00000000
00330000
,  // measure 49
00010000
00000100
00001000
00000010
00010000
00000100
00001000
00000010
,  // measure 50
00010000
00000100
00001000
00000010
00001000
00000000
00000100
00010000
,  // measure 51
00001000
01000000
00000100
00010000
00001000
00100000
00000100
00010000
,  // measure 52
00001000
01000000
00001000
00010000
00001000
01000000
00001000
00000000
,  // measure 53
00100000
00010000
10000000
00010000
10000000
00000000
10010000
00000000
,  // measure 54
10000000
00010000
00100000
00001000
00100000
00010000
01000000
00000000
,  // measure 55
00001000
00010000
00001000
00000000
00010000
00000100
00010000
00000000
00000100
00001000
00000100
00000000
00001000
00000001
00001000
00000000
,  // measure 56
00000001
00001001
00000000
00001010
00000000
00010010
00000000
00011000
,  // measure 57
00001000
00100000
00010000
10000000
01000000
00010000
00001000
00000010
,  // measure 58
00000001
00000010
00001000
00010000
01000000
10000000
00010000
00100000
,  // measure 59
01000000
10000000
01000000
10000000
01000000
10000000
01000000
10000000
01000000
10000000
01000000
10000000
01000000
00000000
00000000
00000000
,  // measure 60
00100000
00010000
00100000
00010000
00100000
00010000
00100000
00010000
00100000
00010000
00100000
00010000
10000000
00000000
00000000
00000000
,  // measure 61
10000000
00001000
00010000
00000010
00001000
00000010
00001000
00000010
,  // measure 62
00000100
00000001
00000100
00000001
00000100
00000010
00001000
00000100
,  // measure 63
00001000
00000000
00000100
00001000
00000001
00000100
00000010
00001000
,  // measure 64
00000010
00001010
00010100
00101000
,  // measure 65
00001000
00000000
00100000
00000000
00000100
00001000
00000100
00000000
00000010
00000000
00000001
00000000
00001000
00000001
00001000
00000000
,  // measure 66
00000001
00000000
00000010
00000000
00000100
00001000
00000100
00000000
00000010
00000000
00000001
00000000
00001000
00000001
00001000
00000000
,  // measure 67
00000010
00000000
00000100
00000000
00000001
00001000
00000001
00000000
00001000
00000000
00000010
00000000
00000100
00000001
00000100
00000000
,  // measure 68
00000001
00001001
00001010
00010010
,  // measure 69
00001000
00010000
00001000
00001000
00100000
00010000
01000000
01000000
,  // measure 70
00100000
10000000
01000000
01000000
00010000
01000000
00100000
00100000
,  // measure 71
00001000
00010000
00002000
00100000
00000000
00000000
00010000
00000000
,  // measure 72
00013000
00001000
00010000
00000100
00010000
00000010
00010000
00001000
,  // measure 73
00010000
00000000
00000000
00000000
00000010
00000100
00000010
00000000
00000000
00000000
00000000
00000000
00001000
00000100
00000010
00000000
,  // measure 74
00000000
00000000
00000000
00000000
00000001
00000010
00000100
00000000
00000000
00000000
00000000
00000000
00010000
00001000
00010000
00000000
,  // measure 75
00001000
00000000
01000000
01010000
00000000
00010000
10010000
00000000
,  // measure 76
10000000
00010000
01000000
00100000
10000000
00001000
00010000
00001000
,  // measure 77
00010000
00001000
00010000
00001000
00010000
00000000
00000000
00000000
00000100
00001000
00000100
00001000
00000100
00000000
00000000
00000000
,  // measure 78
00010000
00000100
00010000
00000100
00010000
00000000
00000000
00000000
00000010
00000100
00000010
00000100
00000010
00000000
00000000
00000000
,  // measure 79
00001000
00000001
00001000
00000001
00001000
00000001
00001000
00000001
00001000
00000001
00001000
00000001
00001000
00000001
00001000
00000001
,  // measure 80
00001000
00000001
00001000
00000100
,  // measure 81
00010000
00000000
00001000
00000000
00010000
00001000
00010000
00000000
00001000
00000000
01000000
00000000
00100000
01000000
00100000
00000000
,  // measure 82
10000000
00000000
00100000
00000000
01000000
00010000
01000000
00000000
00001000
00000000
00010000
00000000
00001000
00010000
00001000
00000000
,  // measure 83
00010000
00000000
00000100
00000000
00010000
00000100
00010000
00000000
00000010
00000000
00000100
00000000
00000010
00000100
00000010
00000000
,  // measure 84
00010000
00000000
00001000
00000000
00010000
00000100
00010000
00000000
00000100
00000000
00001000
00000000
00000001
00001000
00000001
00000000
,  // measure 85
00000100
00000010
00010000
00001000
00100000
00000100
00001000
00000010
,  // measure 86
00001000
00000001
00001000
00000100
00010000
00001000
00100000
00010000
,  // measure 87
10000000
01000000
10000000
00010000
01000000
00010000
10000000
01000000
,  // measure 88
00100000
01000000
00100000
00000000
10100000
00000000
10010000
00000000
,  // measure 89
00010000
00100000
00010000
00100000
00001000
00010000
00001000
00010000
,  // measure 90
00000100
00001000
00000100
00001000
00000010
00001000
00000001
00000100
,  // measure 91
00000010
00001000
00000001
00000010
00000100
00000010
00000001
00000100
,  // measure 92
00000010
00010000
00000100
00010000
00000010
00010000
00001000
00000000
,  // measure 93
00010000
00001000
00010000
00001000
00100000
00010000
00100000
00010000
01000000
00100000
10000000
01000000
00100000
01000000
10000000
00010000
,  // measure 94
10000000
00100000
01000000
00010000
,  // measure 95
20020000
30030000
00000000
00000000
;
