#TITLE:the new moe groove;
#SUBTITLE:;
#ARTIST:Moe Shop;
#TITLETRANSLIT:;
#SUBTITLETRANSLIT:;
#ARTISTTRANSLIT:;
#CREDIT:;
#BANNER:;
#BACKGROUND:;
#LYRICSPATH:;
#CDTITLE:;
#MUSIC:[ROUND L] - the new moe groove.ogg;
#OFFSET:-0.048;
#SAMPLESTART:42.100;
#SAMPLELENGTH:14.000;
#SELECTABLE:YES;
#BPMS:0.000=136.980,160.000=68.501,172.000=137.000;
#STOPS:;
#BGCHANGES:;

//---------------dance-single - ----------------
#NOTES:
     dance-single:
     :
     Hard:
     10:
     0.500,0.603,0.319,0.210,0.155: // measure 1
0000
0000
0000
0000
,  // measure 2
0000
0000
0000
0000
,  // measure 3
0000
0000
0000
0000
,  // measure 4
0000
0000
0000
0000
,  // measure 5
1001
0000
0010
0001
0100
0010
1000
0010
,  // measure 6
0000
0100
0001
0010
0000
0100
1000
0002
,  // measure 7
0000
0000
0103
0020
0000
0000
1030
0200
,  // measure 8
0000
0000
0310
0001
0001
0000
1001
0000
,  // measure 9
1000
0001
0100
0020
0000
1030
0100
0020
,  // measure 10
0000
0031
0100
0020
0000
1030
0100
2000
,  // measure 11
0000
3001
0100
0020
0000
1030
0100
2000
,  // measure 12
0000
3001
0100
0020
0000
1030
0100
0020
,  // measure 13
0000
0031
0100
0020
0000
1030
0100
0010
,  // measure 14
0001
0100
0010
2000
0000
3001
0100
0002
,  // measure 15
0000
0013
0100
2000
0000
3100
1000
0100
,  // measure 16
0000
1001
0101
1001
,  // measure 17
0001
0100
1000
0100
0000
0001
0010
0001
,  // measure 18
0000
0100
0010
1000
0000
0100
0010
0001
,  // measure 19
0000
0100
0010
1000
0000
0100
0010
0001
,  // measure 20
0000
0100
0001
0100
0000
0010
1010
0000
,  // measure 21
1000
0001
0100
0010
0000
1000
0100
0010
,  // measure 22
0000
0001
0000
0010
0000
0001
0000
1000
,  // measure 23
1001
0110
1001
1001
,  // measure 24
0100
0100
0001
0001
1000
0010
2000
0000
,  // measure 25
3100
0000
0100
0000
0010
0001
0100
0010
,  // measure 26
0000
0000
1000
0000
0010
0000
0100
0001
0000
0000
0100
0000
0010
0000
0010
0000
,  // measure 27
1000
0000
0000
0000
0001
0000
1000
0001
1000
0000
0010
0000
0100
0000
0001
0000
,  // measure 28
0000
0000
0000
1000
0000
0000
0001
0000
1000
0000
0001
0000
1000
0000
0000
0100
0000
0000
0010
0000
0000
0001
0000
0000
,  // measure 29
0100
0010
1000
0001
,  // measure 30
0101
0000
0010
2000
0000
0000
0001
0000
,  // measure 31
3100
0010
0001
0100
0010
0000
1010
0000
,  // measure 32
1000
0100
0010
0000
1000
0000
1001
0000
,  // measure 33
0001
0000
1000
0000
0001
0100
0010
2000
,  // measure 34
0000
0000
3100
0000
0010
0000
0001
1000
0000
0000
0010
0000
0100
0000
0001
0000
,  // measure 35
0010
0000
0011
0001
1000
0100
0010
0010
,  // measure 36
0000
0000
0000
0001
0000
0000
1000
0000
0010
0000
0100
0000
0001
0000
0000
1000
0000
0000
0100
0000
0000
0010
0000
0000
,  // measure 37
0001
0101
0010
1010
,  // measure 38
2000
0000
0010
3010
0000
1000
0001
0000
,  // measure 39
0001
1000
0001
1000
0010
0000
1010
0000
,  // measure 40
0001
0000
0000
0100
0000
0000
0010
0000
0000
0000
0000
0000
1010
0000
0000
0000
0000
0000
1000
0000
0100
0000
1000
0000
,  // measure 41
0002
0000
0000
0000
0000
0000
0000
0203
0000
0000
0000
0310
0000
1000
0000
0001
,  // measure 42
0000
0000
0010
0000
0100
1000
0000
1001
0000
0001
0100
0010
0000
1000
0100
0010
,  // measure 43
0001
0100
1000
0100
0001
0010
1000
0000
0001
0100
0010
1000
0100
0010
0001
0000
,  // measure 44
1001
0110
1010
1001
,  // measure 45
0010
0000
0000
1000
0000
0000
0100
0000
0000
0010
0000
0000
0001
0000
0000
0010
0000
0000
0100
0000
1000
0000
0001
0000
,  // measure 46
0100
0000
0110
0000
0110
0010
1000
0010
,  // measure 47
0000
0000
0100
0000
0001
0000
0100
0001
0100
0000
0010
0000
0000
0000
1000
0000
,  // measure 48
1000
0000
0000
0000
0001
0000
0100
0001
0100
0000
0010
0000
1000
0000
0100
0000
,  // measure 49
0010
0000
0000
0001
0000
0000
0100
0000
0010
0000
1000
0000
0200
0000
0000
0000
0000
0000
0000
0000
0000
0000
0000
0000
,  // measure 50
0310
0000
0010
0000
0001
1000
0001
0010
,  // measure 51
0100
0000
1000
0010
0000
0000
0101
0000
,  // measure 52
0010
1000
0010
0100
0001
0001
0010
0010
,  // measure 53
0100
0000
0000
1000
0000
0000
0100
0000
0010
0000
0001
0000
0011
0000
0000
0000
0000
0000
1010
0000
0000
0000
0000
0000
,  // measure 54
2010
0000
3001
0000
0100
0001
0100
0001
,  // measure 55
0000
0000
0010
0000
0100
0000
1000
0001
0000
0000
0001
0000
1000
0000
0010
0000
,  // measure 56
1000
0000
0000
0000
0010
0000
0100
0001
0100
0000
0010
0000
1000
0000
0100
0000
,  // measure 57
0000
0000
0000
0010
0000
0000
0001
0000
0100
0000
0010
0000
1000
0000
0000
0000
0000
0000
0001
0000
0000
0010
0000
0000
,  // measure 58
0110
1010
0101
0101
,  // measure 59
0100
0000
0010
1000
0000
0000
0001
0000
,  // measure 60
0100
0010
0100
0010
1001
0000
1001
0000
,  // measure 61
0010
0100
0010
0000
1001
0000
1100
0000
,  // measure 62
2002
0000
0000
0000
,  // measure 63
0000
0000
3003
0000
;

//---------------dance-single - Copied from----------------
#NOTES:
     dance-single:
     Copied from:
     Medium:
     7:
     0.340,0.472,0.092,0.126,0.042: // measure 1
0000
0000
0000
0000
,  // measure 2
0000
0001
0000
0010
,  // measure 3
0000
0000
0001
0200
0000
0000
0310
2000
,  // measure 4
0000
0000
3001
0200
0000
0000
0301
0000
,  // measure 5
1000
0000
0100
0010
0000
0000
0010
0100
,  // measure 6
0000
0000
0001
0010
0000
0000
1000
0002
,  // measure 7
0000
0000
0103
0020
0000
0000
1030
0200
,  // measure 8
0000
0000
0310
0001
0010
0000
1001
0000
,  // measure 9
1000
0001
0000
0010
0000
0100
0000
1000
,  // measure 10
0000
0100
0000
0010
0000
0001
0000
0010
,  // measure 11
0000
0100
0000
1000
0000
0100
0000
0010
,  // measure 12
0000
0001
0001
0001
,  // measure 13
1000
0001
0000
0010
0000
0100
0000
1000
,  // measure 14
0000
0001
0000
0010
0000
0100
0000
1000
,  // measure 15
0000
0001
0000
0010
0000
0100
1000
0100
,  // measure 16
0000
1001
0101
1001
,  // measure 17
0001
0100
0000
0010
0000
1000
0000
0100
,  // measure 18
0000
0010
0000
0001
0000
0010
0000
0100
,  // measure 19
0000
1000
0000
0100
0000
0010
0000
0002
,  // measure 20
0000
0000
0000
0013
0100
0000
1000
0000
,  // measure 21
1000
0010
0000
0010
0000
1000
0000
0010
,  // measure 22
0000
0100
0000
0001
0000
1000
0000
0001
,  // measure 23
1000
0010
0001
0010
,  // measure 24
1000
0000
0001
0000
1000
0010
2000
0000
,  // measure 25
3100
0000
0010
0000
0100
0000
0001
0100
,  // measure 26
0000
0100
0001
0000
0100
0000
0010
0000
,  // measure 27
1000
0000
0001
0000
1000
0001
1000
0001
,  // measure 28
0000
1000
0001
0000
1000
0000
0010
0000
,  // measure 29
0100
0010
1000
0001
,  // measure 30
0101
0000
0010
2000
0000
0000
3001
0000
,  // measure 31
0100
0001
0010
0100
,  // measure 32
1000
0010
1000
1001
,  // measure 33
0001
0000
1000
0000
0001
0100
0010
2000
,  // measure 34
0000
3100
0010
0000
0000
0000
0001
0000
,  // measure 35
0010
0000
0011
0000
0001
0000
0010
0100
,  // measure 36
0000
1000
0100
0000
0010
0000
0001
0000
,  // measure 37
0100
0001
0010
1000
,  // measure 38
0020
0000
0030
1000
,  // measure 39
0100
0010
0001
1000
,  // measure 40
0001
0010
0100
1000
,  // measure 41
0002
0000
0000
0000
0000
0000
0000
0203
0000
0000
0000
0310
0000
1000
0000
0001
,  // measure 42
0000
0000
0010
0000
0100
1000
0000
0001
0000
0010
0001
0010
0000
0100
1000
0100
,  // measure 43
1000
0100
0010
0001
0010
0100
1000
0001
,  // measure 44
1000
1001
1001
0010
,  // measure 45
0010
0100
0100
1000
,  // measure 46
1000
0000
0001
0000
0010
0000
1000
0010
,  // measure 47
0000
0100
0001
0000
0100
0000
0000
0000
,  // measure 48
1000
0001
0100
0010
,  // measure 49
1000
0100
0100
0000
,  // measure 50
0100
0010
0001
0001
,  // measure 51
0010
0000
0100
0010
0000
0000
0001
0000
,  // measure 52
0010
0000
0100
0000
1000
0001
1000
0000
,  // measure 53
0001
0010
0001
1000
,  // measure 54
0001
0000
0100
0000
0100
0001
0100
0001
,  // measure 55
0000
0010
0100
0000
0000
0000
1001
0000
,  // measure 56
1000
0000
0010
0000
0100
0000
1000
0100
,  // measure 57
0000
0010
0001
0000
1000
0000
0001
0000
,  // measure 58
1000
1000
0001
0001
,  // measure 59
0100
0000
0010
1000
0000
0000
0001
0000
,  // measure 60
0100
0100
0001
0001
,  // measure 61
0010
0010
1000
1000
,  // measure 62
2002
0000
0000
0000
,  // measure 63
0000
0000
3003
0000
;

//---------------dance-single - ----------------
#NOTES:
     dance-single:
     :
     Easy:
     4:
     0.194,0.236,0.017,0.025,0.000: // measure 1
0000
0000
0000
0000
,  // measure 2
0000
0001
0000
0010
,  // measure 3
0000
0001
0000
0010
,  // measure 4
0000
0001
0000
0001
,  // measure 5
1000
0100
0000
0010
,  // measure 6
0000
0001
0000
1000
,  // measure 7
0000
0100
0000
1000
,  // measure 8
0000
0010
0001
1001
,  // measure 9
1000
0000
0000
0001
,  // measure 10
0000
1000
0000
0010
,  // measure 11
0000
0100
0000
0001
,  // measure 12
0000
0001
0001
0001
,  // measure 13
1000
0001
0000
0100
,  // measure 14
0000
0010
0000
1000
,  // measure 15
0000
0100
0000
1000
,  // measure 16
0000
1000
0001
1000
,  // measure 17
0001
0100
0000
0010
,  // measure 18
0000
1000
0000
0100
,  // measure 19
0000
0010
0000
0001
,  // measure 20
0000
0000
0010
0100
,  // measure 21
1000
0100
0000
0010
,  // measure 22
0000
0001
0000
0100
,  // measure 23
1000
1000
0010
0010
,  // measure 24
0100
0100
0001
0001
,  // measure 25
0100
0100
0100
0001
,  // measure 26
0000
0001
0000
0010
,  // measure 27
0000
1000
0001
1000
,  // measure 28
0000
0001
1000
0010
,  // measure 29
0000
1000
0000
0001
,  // measure 30
0000
0001
0000
0001
,  // measure 31
0100
0001
0010
0100
,  // measure 32
1000
0001
1000
0001
,  // measure 33
0000
0001
0001
0000
,  // measure 34
0000
0010
0000
0001
,  // measure 35
0000
0001
0000
0001
,  // measure 36
0000
0010
0001
0010
,  // measure 37
0001
0010
0001
0010
,  // measure 38
0001
0000
0000
0000
,  // measure 39
0000
0010
0000
0001
,  // measure 40
0000
0010
0000
1000
,  // measure 41
0002
0000
0000
0000
0000
0000
0000
0003
0000
0000
0000
0000
0000
0000
0000
0000
,  // measure 42
0000
0001
0000
1000
,  // measure 43
0001
0100
0010
1000
,  // measure 44
0001
1000
0001
1000
,  // measure 45
0001
1000
0001
1000
,  // measure 46
0001
0000
0010
0010
,  // measure 47
0000
0001
0001
0000
,  // measure 48
1000
0100
1000
0100
,  // measure 49
0000
0000
1000
0000
,  // measure 50
0100
0000
0010
0000
,  // measure 51
0010
0010
0000
0001
,  // measure 52
0010
0100
1000
0001
,  // measure 53
0001
0010
0001
1000
,  // measure 54
0001
0001
0001
0000
,  // measure 55
0000
0100
0000
1000
,  // measure 56
0100
1000
0100
1000
,  // measure 57
0000
0001
1000
0001
,  // measure 58
1000
0000
0001
0000
,  // measure 59
0010
0000
0000
0000
,  // measure 60
0100
0000
0001
0000
,  // measure 61
0010
0000
1000
0000
,  // measure 62
2002
0000
0000
0000
,  // measure 63
0000
0000
3003
0000
;

//---------------dance-single - Copied from----------------
#NOTES:
     dance-single:
     Copied from:
     Beginner:
     3:
     0.140,0.131,0.017,0.025,0.000:
0000
0000
0000
0000
,
0000
0001
0000
0010
,
0000
0001
0000
0010
,
0000
0001
0000
0000
,
1000
0000
0000
1000
,
0000
0001
0000
1000
,
0000
0100
0000
1000
,
0000
0010
0000
1001
,
0000
0000
0000
0001
,
0000
1000
0000
0010
,
0000
0100
0000
0001
,
0000
0001
0000
0001
,
0000
0001
0000
0100
,
0000
0010
0000
1000
,
0000
0100
0000
1000
,
0000
1000
0000
1000
,
0000
0100
0000
0010
,
0000
0001
0000
0100
,
0000
0010
0000
1000
,
0000
0000
0001
0000
,
1000
0000
0000
0010
,
0000
0001
0000
0000
,
1000
0000
0010
0000
,
0100
0000
0001
0000
,
0100
0000
0000
0001
,
0000
0001
0000
0010
,
0000
1000
0000
1000
,
0000
0001
0000
0010
,
0000
1000
0000
0001
,
0000
0001
0000
0001
,
0000
0001
0000
0010
,
0000
1000
0000
1000
,
0000
0001
0001
0000
,
0000
0010
0000
0001
,
0000
0001
0000
0001
,
0000
0010
0000
0010
,
0000
0010
0000
0010
,
0000
0000
0000
0000
,
0000
0010
0000
0001
,
0000
0010
0000
0000
,
0002
0000
0000
0000
0000
0000
0000
0003
0000
0000
0000
0000
0000
0000
0000
0000
,
0000
0001
0000
1000
,
0000
0100
0000
1000
,
0001
0000
0001
0000
,
0001
0000
0001
0000
,
0001
0000
0010
0010
,
0000
0001
0001
0000
,
1000
0000
1000
0000
,
0000
0000
1000
0000
,
0100
0000
0010
0000
,
0010
0010
0000
0001
,
0000
0100
0000
0001
,
0000
0010
0000
1000
,
0001
0000
0001
0000
,
0000
0100
0000
1000
,
0000
1000
0000
1000
,
0000
0001
0000
0001
,
0000
0000
0001
0000
,
0010
0000
0000
0000
,
0100
0000
0001
0000
,
0010
0000
1000
0000
,
2002
0000
0000
0000
,
0000
0000
3003
0000
;
