#TITLE:Snow Blind;
#SUBTITLE:;
#ARTIST:Lo-fi;
#TITLETRANSLIT:;
#SUBTITLETRANSLIT:;
#ARTISTTRANSLIT:;
#CREDIT:;
#BANNER:;
#BACKGROUND:;
#LYRICSPATH:;
#CDTITLE:;
#MUSIC:Snow Blind.ogg;
#OFFSET:0.015;
#SAMPLESTART:41.737;
#SAMPLELENGTH:11.921;
#SELECTABLE:YES;
#BPMS:0.000=80.530;
#STOPS:;
#BGCHANGES:;

//---------------dance-single - ----------------
#NOTES:
     dance-single:
     :
     Challenge:
     15:
     0.653,0.659,0.173,0.606,0.996:
0000
0000
0000
0000
,
1000
0000
0100
0000
0000
0000
0100
0000
0010
0000
0000
0000
0010
0000
0001
0000
0100
0000
0010
0000
0000
0000
0010
0000
1000
0100
1000
0000
0001
0100
0001
0000
,
0010
0000
0000
0000
0000
0000
0100
0000
1100
0000
1000
0000
0000
0000
0010
0000
0000
0000
0100
0001
0100
0000
0000
0000
1010
0000
0010
0000
1000
0000
0000
0000
,
0100
0000
0010
0000
0000
0000
0001
0000
1001
0000
1000
0000
0000
0000
0100
0000
0000
0000
0010
0001
0010
0000
0000
0000
1100
0000
1000
0000
0100
0000
0000
0000
,
0010
0000
0000
0000
0000
0000
0001
0000
0101
0000
0100
0000
0000
0000
0010
0000
0000
0000
1000
0100
1000
0000
0000
0000
0011
0000
0010
0000
0001
0000
0000
0000
,
0001
1000
0000
0100
0110
0010
0000
0001
0100
0100
0000
0010
0010
0000
0000
0000
,
2000
0000
3200
0000
0300
0000
0020
0000
0032
0000
0103
0000
0020
0000
2030
0000
3000
0000
0100
0010
0001
0000
0000
0000
0010
0000
0100
0000
1000
0000
0000
0000
,
0002
0000
0023
0000
0030
0000
0200
0000
2300
0000
3010
0000
0200
0000
0302
0000
0003
0000
0010
0100
1000
0000
0000
0000
0010
0000
0000
0000
0100
0000
0001
0000
,
0001
0000
0010
0000
0000
0000
0100
0000
1100
0000
1000
0000
0000
0000
0010
0000
0000
0000
0100
0001
0010
0000
0000
0000
0100
0000
1000
0000
0010
0000
0000
0000
,
0100
0001
0000
1000
1001
0001
0000
0100
0001
0001
0000
0010
0010
0000
0000
0000
,
0200
0000
0000
0000
1300
0000
0010
0000
0100
0000
0001
0000
0010
0000
0002
0000
0000
0000
0103
0010
1000
0000
0000
0000
0110
0000
0100
0000
0000
0000
0002
0000
,
0000
0000
0013
0000
0100
0000
1000
0000
0010
0000
1000
0000
0001
0000
2000
0000
0000
0000
3010
0100
0001
0000
0000
0000
0110
0000
0100
0000
0000
0000
0020
0000
,
0000
0000
1030
0000
0100
0000
1000
0000
0010
0000
0001
0000
0010
0000
2000
0000
0000
0000
3100
0010
0001
0000
0000
0000
1010
0000
0010
0000
0000
0000
0200
0000
,
0000
0301
0010
0100
1000
0100
0010
0001
0100
0001
1000
0001
0010
0100
1000
0100
,
0020
0000
0000
0000
0032
0000
0000
0000
2003
0000
0000
0000
3002
0000
0000
0000
0013
0000
0100
1000
0100
0000
1000
0010
1000
0000
0001
1000
0001
0000
1000
0100
,
1000
0000
0100
0010
0100
0000
0000
0000
0000
0000
0000
0000
0020
0000
0000
0000
0031
0000
0100
0010
1000
0000
0010
0100
0001
0000
0010
0100
1000
0000
0100
1000
,
0020
0000
0000
0000
0230
0000
0000
0000
0302
0000
0000
0000
0023
0000
0000
0000
0130
0000
1000
0010
1000
0000
0001
0100
0001
0000
1000
0100
0010
0000
0001
0010
,
0100
0000
1000
0010
2000
0000
0000
0000
0000
0000
0000
0000
3200
0000
0000
0000
0320
0000
0000
0000
0032
0000
0000
0000
0203
0000
0000
0000
0000
0000
0000
0000
,
0320
0000
0000
0000
2030
0000
0000
0000
3020
0000
0000
0000
0230
0000
0000
0000
0301
0000
0010
0100
1000
0000
0100
0010
0001
0000
0100
0001
1000
0000
0001
0100
,
0002
0000
0000
0000
0000
0000
0000
0000
0000
0000
0000
0000
0023
0000
0000
0000
0130
0000
1000
0010
1000
0000
0001
0100
0010
0000
1000
0010
0100
0000
0001
0010
,
0200
0000
0000
0000
2300
0000
0000
0000
3020
0000
0000
0000
0230
0000
0000
0000
0301
0000
0010
0100
1000
0000
0001
0010
0100
0000
1000
0100
0010
0000
0001
1000
,
0100
0000
0010
0001
0200
0000
0000
0000
0000
0000
0000
0000
0320
0000
0000
0000
2030
0000
0000
0000
3200
0000
0000
0000
0320
0000
0000
0000
0030
0000
0000
0000
,
0002
0000
0000
0000
0000
0000
0000
0000
0010
0000
0000
0010
0000
0000
0010
0000
,
0000
0013
0000
0000
0000
0000
0000
0000
0000
0000
0000
0000
0000
0000
0000
0000
,
0000
0000
0000
0000
0000
0000
0000
0100
0000
1000
0010
0000
0100
0001
0100
0010
,
1000
0100
0010
0001
1000
0000
0001
0010
0100
1000
0000
0100
0000
0010
0001
0000
,
1000
0000
0000
0000
0000
0000
0100
0000
0110
0000
0010
0000
0000
0000
0001
0000
0000
0000
0100
0010
1000
0000
0000
0000
0011
0000
0010
0000
0001
0000
0000
0000
,
0100
0000
0000
0010
1010
1000
0000
0001
0001
0001
0000
0000
0100
0100
0000
0000
,
0010
0000
0000
0000
0000
0000
1000
0000
1010
0000
0000
0000
0000
0000
0100
0000
0000
0000
0001
0100
0010
0000
0000
0000
1010
0000
1000
0000
0010
0000
0000
0000
,
0100
0001
0010
0100
1000
0001
0000
2000
0000
3020
0000
0030
0100
0000
0001
0000
,
0020
0000
0000
0000
0230
0000
0000
0000
2300
0000
0000
0000
3002
0000
0000
0000
0013
0000
0100
1000
0100
0000
1000
0010
1000
0000
0001
1000
0001
0000
1000
0010
,
1000
0000
0100
0010
0002
0000
0000
0000
0000
0000
0000
0000
0023
0000
0000
0000
0130
0000
1000
0010
1000
0000
0001
1000
0001
0000
0100
0001
0100
0000
0001
0010
,
0002
0000
0000
0000
2003
0000
0000
0000
3020
0000
0000
0000
0230
0000
0000
0000
0301
0000
0010
0001
0100
0000
0001
1000
0001
0000
0010
0100
1000
0000
0100
0010
,
0001
0000
1000
0001
0100
0000
0000
0000
0000
0000
0000
0000
0010
0000
0000
0000
1000
0000
0000
0000
0001
0000
0000
0000
1000
0000
0000
0000
0000
0000
0000
0000
,
2002
3003
0000
0000
;

//---------------dance-single - Copied from----------------
#NOTES:
     dance-single:
     Copied from:
     Hard:
     11:
     0.497,0.494,0.067,0.337,0.697:
0000
0000
0000
0000
,
0000
0000
0000
0000
0000
0000
0001
1000
,
1001
0000
0000
0001
0010
0010
0000
0100
0000
1000
0010
0000
1000
0010
1000
0000
,
0100
0010
0000
0001
0001
1000
0000
0100
0000
0010
0001
0000
1000
0100
1000
0000
,
1001
0000
0000
0001
0100
0100
0000
0010
0000
1000
0010
0000
0100
0010
0100
0000
,
0001
1000
0000
0100
0010
0010
0000
0001
0100
0010
0000
1000
0010
0000
0000
0000
,
1000
0100
0000
0010
0001
0100
0010
1000
0000
0100
0010
0000
0010
0100
1000
0000
,
0001
0010
0000
0100
1000
0100
0010
0001
0000
0001
1000
0000
0100
0000
1001
0000
,
0001
0010
0000
0100
1000
1000
0000
0010
0000
0100
0010
0000
1000
0010
0100
0000
,
0100
0001
0000
1000
1000
0001
0000
0100
0001
0010
0000
0100
1000
0000
0000
0000
,
0100
0000
1000
0010
0100
0001
0010
0001
0000
0010
0100
0000
0010
0100
0000
1000
,
0000
0000
0100
0010
0001
0010
0001
0020
0000
0130
1000
0000
0010
0100
0000
0020
,
0000
1030
0100
1000
0100
0010
0001
0020
0000
0130
0010
0000
1000
0010
0000
0200
,
0000
0301
0010
0100
1000
0100
0000
0010
0000
0001
0010
0001
0010
0000
0100
1000
,
0200
0000
2300
0000
3002
0000
2003
0000
3100
0010
0001
0010
0100
1000
0010
0100
,
0001
0100
0010
0000
0000
0000
0020
0000
0031
0100
0010
1000
0010
0100
0001
0100
,
0020
0000
0230
0000
0302
0000
0023
0000
0130
1000
0010
0100
0001
0100
0010
1000
,
0100
1000
0200
0000
0000
0000
0300
0000
0200
0000
2300
0000
3020
0000
0000
0000
,
0230
0000
0302
0000
0203
0000
0320
0000
1030
0100
1000
0100
0010
0001
0100
0010
,
2000
0000
0000
0000
0000
0000
3020
0000
0130
1000
0100
0010
0001
0100
0010
1000
,
0200
0000
2300
0000
3020
0000
0230
0000
0301
0010
0001
0010
0100
1000
0100
1000
,
0001
1000
0200
0000
0000
0000
0320
0000
0032
0000
0203
0000
0320
0000
0030
0000
,
2000
0000
0000
0000
0000
0000
0000
0000
0010
0000
0000
0010
0000
0000
0010
0000
,
0000
0010
3000
0000
0000
0000
0000
0000
0000
0000
0000
0000
0000
0000
0000
0000
,
0000
0000
0000
0000
0000
0000
0000
0100
0000
1000
0010
0000
0100
0001
0100
0010
,
1000
0100
0010
0001
1000
0000
0001
0010
0100
1000
0000
0100
0000
0010
0001
0000
,
1000
0000
0000
0001
0100
0001
0000
0100
0000
0010
1000
0000
0001
1000
0001
0000
,
1000
0000
0000
0010
0100
0010
0000
0100
0001
0001
0000
0000
1000
1000
0000
0000
,
1000
0000
0000
0010
0100
0001
0000
1000
0000
0010
0100
0000
0001
0010
0001
0000
,
1000
0000
0000
0010
0100
0001
0000
0010
0000
0010
0000
0000
1000
0001
1000
0001
,
1000
0000
1100
0000
0110
0000
0011
0000
0001
0100
1000
0100
0001
0010
1000
0010
,
0001
0100
0010
0000
0000
0000
0000
0000
0001
0100
1000
0100
0001
0010
1000
0010
,
0100
0010
0001
0000
0000
0000
0000
0000
0001
0100
1000
0100
0001
0100
0010
1000
,
0100
0000
0000
0010
1000
0001
1000
0000
,
2002
3003
0000
0000
;

//---------------dance-single - ----------------
#NOTES:
     dance-single:
     :
     Beginner:
     1:
     0.098,0.115,0.010,0.058,0.000:
0000
0000
0000
0000
,
0000
0000
0000
0000
,
0000
1000
0000
0001
,
0000
0100
0000
0010
,
0000
1000
0000
1000
,
0000
0010
0000
0010
,
0000
0100
0000
0100
,
0000
0001
0000
0001
,
0000
1000
0000
1000
,
0000
0010
0000
0000
,
0010
0000
0000
0000
,
0100
0000
0000
1000
,
0000
0001
0000
0100
,
0000
0010
0000
0000
,
1000
0000
1000
1000
,
1000
0000
0010
0010
,
0010
0000
0100
0100
,
0100
0000
0001
0001
,
0001
0000
1000
1000
,
1000
0000
0010
0010
,
0010
0000
0100
0100
,
0100
0000
0001
0000
,
0002
0000
0000
0003
,
2000
0000
0000
3000
,
0020
0000
0000
0030
,
0200
0000
0000
0300
,
0000
0001
0000
1000
,
0000
0001
0000
0100
,
0000
0010
0000
1000
,
0000
0001
0000
0000
,
1000
0000
1000
0000
,
1000
0000
0000
0000
,
0010
0010
0010
0000
,
0100
0000
0001
0000
,
2002
3003
0000
0000
;

//---------------dance-single - ----------------
#NOTES:
     dance-single:
     :
     Easy:
     6:
     0.206,0.263,0.048,0.125,0.000:
0000
0000
0000
0000
,
0000
0000
0000
0000
,
1000
0000
0001
0000
0000
0000
0100
0100
,
0010
1000
0000
0001
,
1000
0000
0001
0000
0000
0000
0100
0010
,
0100
0001
0000
1000
,
0001
0000
0100
0000
0001
0000
1000
0001
,
1000
0010
0100
0001
,
1000
0000
0010
1000
0010
0000
1000
0001
,
1000
0010
0100
0001
,
2000
3000
0002
0003
,
0200
0300
0020
0030
,
2000
0000
3000
0000
0001
1000
0001
0000
,
0100
0100
0010
0010
,
1000
0100
1000
0100
0010
0001
0010
0001
,
0200
0000
0000
0310
0010
1000
1000
0010
,
0200
0000
0000
0000
0301
1000
0001
1000
,
0002
0000
0000
0000
0103
0010
0100
0000
,
0001
1000
0001
1000
0100
0010
0100
0010
,
0200
0000
0000
0301
0000
0000
0000
0000
,
1000
0100
0010
0001
0100
0010
1000
0000
,
0002
0000
0000
1003
0000
0000
0000
0000
,
2000
0000
0000
0000
0001
0000
0000
0001
,
0000
3001
0000
0000
,
0000
0000
0000
0001
,
1000
0001
0100
0010
,
1000
1001
0010
1001
,
0100
1001
0010
0010
,
1001
0100
0000
0100
,
1000
0010
0001
0010
,
1000
0100
1000
0000
0001
0100
0001
0000
,
1000
0000
0000
0001
0100
0010
0100
0000
,
0001
1000
0001
0000
0100
0000
0010
0000
,
1000
0000
0000
0001
1000
0000
0010
0000
,
2002
3003
0000
0000
0000
0000
0000
0000
;

//---------------dance-single - ----------------
#NOTES:
     dance-single:
     :
     Medium:
     9:
     0.287,0.395,0.058,0.087,0.164:
0000
0000
0000
0000
,
0000
0000
0000
0000
,
0000
0000
0000
0000
0001
0000
0000
0100
0000
0000
0010
0000
1000
0000
0000
0000
,
0001
0000
0000
0000
0100
0000
0000
0010
0000
0000
1000
0000
0001
0000
0000
0000
,
0100
0000
0000
0000
0010
0000
0000
1000
0000
0000
0001
0000
0100
0000
0000
0000
,
0010
0000
0000
0000
1000
0000
0000
0001
0000
0000
0100
0000
0010
0000
0000
0000
,
1000
0000
0000
0000
0100
0000
0000
0010
0000
0000
0001
0000
0100
0000
0000
0000
,
0010
0000
0000
0000
1000
0000
0000
1000
0000
0000
0001
0000
0100
0000
0000
0000
,
0010
0000
0000
0000
1000
0000
0000
1000
0000
0000
0001
0000
0100
0000
0000
0000
,
0010
1000
1000
0001
,
1000
1000
1000
0000
0010
0010
0010
0000
,
0100
0001
0100
0000
0010
1000
0010
0000
,
0100
0001
0100
0000
0010
1000
0010
0000
,
0100
0001
0100
0000
0010
1000
0010
0000
,
1000
0000
0000
0000
0001
0000
0000
0000
1000
0001
1000
0001
1000
0001
1000
0001
,
1000
0000
0000
0000
0000
0000
0000
0000
0010
1000
0010
1000
0010
1000
0010
1000
,
0010
0000
0000
0000
0000
0000
0000
0000
0100
0001
0100
0000
0001
0100
1000
0000
,
0200
0000
0000
0000
0000
0000
0310
0000
1000
0010
1000
0010
1000
0000
0000
0000
,
0001
0000
0100
0000
0010
0000
1000
0000
0100
0010
0100
0010
0100
0010
0100
0010
,
0200
0000
0000
0000
0000
0000
0310
0000
0001
1000
0001
1000
0001
1000
0001
1000
,
0002
0103
0020
1030
0001
0100
0010
1000
,
0200
0000
0000
0310
0001
1000
0001
1000
,
0002
0000
0000
0000
0000
0000
0000
0000
1000
0000
0000
0100
0000
0000
1000
0000
,
0000
0200
0000
0000
0000
0000
0000
0000
0000
0000
0000
0000
0303
0000
0000
0000
,
0010
0000
0000
0000
0000
0000
0000
1000
0000
0000
0001
0000
0100
0000
0000
0000
,
0010
0000
0000
1000
0000
0000
0001
0000
0100
0000
0000
0010
0000
0000
1000
0000
,
0001
1001
0010
1001
,
0100
0000
0000
0000
1001
0000
0000
0000
0010
0010
0000
0000
0100
0100
0000
0000
,
0001
1001
0010
1001
,
1000
0100
1000
0000
0000
0000
0001
0000
,
1000
0001
1000
0001
0100
0010
1000
0010
,
0100
0001
0010
0100
1000
0100
0010
0001
,
0100
0010
1000
0010
0100
0001
0001
1000
,
0010
0000
0000
0100
0001
1000
0001
0000
,
2002
0000
0000
3003
0000
0000
0000
0000
0000
0000
0000
0000
0000
0000
0000
0000
;

//---------------dance-double - ----------------
#NOTES:
     dance-double:
     :
     Challenge:
     12:
     0.481,0.511,0.250,0.144,0.654: // measure 1
00000000
00000000
00000000
00000000
,  // measure 2
00000000
00000000
00000000
00000000
00000000
00000000
00001000
00010000
,  // measure 3
00011000
00000000
00000000
00001000
00100000
00001000
00000000
00100000
00000000
00010000
01000000
00000000
00100000
10000000
00100000
00000000
,  // measure 4
01000000
00010000
00000000
00100000
00001000
00010000
00000000
00001000
00000000
00010000
00001000
00000000
00010000
00000010
00000100
00000000
,  // measure 5
00000010
00000000
00000000
00000010
00000001
00000100
00000000
00000010
00000000
00001000
00000010
00000000
00001000
00000100
00010000
00000000
,  // measure 6
00001000
01000000
00000000
01000000
00010000
00010000
00000000
01000000
00100000
01000000
00000000
00001000
00010000
00000000
00000000
00000000
,  // measure 7
00010000
00001000
00000000
00010000
00001000
00010000
00001000
00010000
00000000
00001000
00100000
00000000
00010000
00100000
00010000
00000000
,  // measure 8
00100000
00001000
00000000
00010000
00000100
00001000
00000000
00000010
00000000
00000100
00000001
00000000
00000010
00000001
00000010
00000000
,  // measure 9
00000001
00000000
00000000
00001000
00000010
00001000
00000000
00000010
00000000
00000100
00000001
00000000
00001000
00000010
00001000
00000000
,  // measure 10
00000001
00000000
00000000
00001000
00000010
00001000
00000000
00000001
00000100
00001000
00000000
00000100
00000001
00000000
00000000
00000000
,  // measure 11
00000012
00000000
00000000
00000000
00000000
00000000
00000000
00000103
00000000
00000000
00000010
00000000
00021000
00000000
00000000
00130000
,  // measure 12
00000000
00000000
00010000
00000000
10010000
00000000
00000000
10000000
00000000
00010000
00100000
00000000
00001000
00010000
00001000
00010000
,  // measure 13
00000000
00000100
00001000
00000010
00010000
00000100
00001000
00000001
00000000
00001000
00000100
00000000
00010000
00001000
00000000
02000000
,  // measure 14
00000000
03010000
00100000
01000000
10000000
01000000
00000000
00100000
00000000
00010000
00100000
00010000
00100000
00000000
01000000
10000000
,  // measure 15
11000000
00000000
10010000
00000000
01010000
00000000
01010000
00000000
10000000
01000000
00010000
00001000
00000100
00000001
00000100
00001000
,  // measure 16
00010000
01000000
20000000
00000000
00000000
00000000
30010000
00000000
01000000
00001000
00010000
00000100
00010000
00001000
00100000
00010000
,  // measure 17
00110000
00000000
01010000
00000000
00101000
00000000
00001100
00000000
00000001
00000010
00001000
00010000
01000000
10000000
01000000
00010000
,  // measure 18
01000000
00100000
01000000
00000000
00000000
00000000
00000000
00000000
00002000
00000000
00100000
00000000
00200000
00000000
00303000
00000000
,  // measure 19
00011000
00000000
00001010
00000000
00000101
00000000
00001001
00000000
00000001
00000100
00001000
00010000
00100000
10000000
00100000
00010000
,  // measure 20
00200000
00000000
00000000
00000000
00000000
00000000
10300000
00000000
00010000
00100000
00000100
00001000
00000001
00001000
00000100
00001000
,  // measure 21
00001000
00000000
00010100
00000000
00101000
00000000
01001000
00000000
00010000
00100000
00010000
00100000
01000000
10000000
01000000
10000000
,  // measure 22
00010000
10000000
02000000
00000000
00000000
00000000
03200000
00000000
00320000
00000000
02030000
00000000
03200000
00000000
00300000
00000000
,  // measure 23
20000000
00000000
00000000
00000000
00000000
00000000
00000000
00000000
00100000
00000000
00000000
00100000
00000000
00000000
00100000
00000000
,  // measure 24
00000000
00100000
30000000
00000000
00000000
00000000
00000000
00000000
00000000
00000000
00000000
00000000
00000000
00000000
00000000
00000000
,  // measure 25
00000000
00000000
00000000
00000000
00000000
00000000
00000000
00000010
00000000
00000001
00000010
00000000
00000100
00001000
00000100
00010000
,  // measure 26
00001000
00100000
00010000
01000000
00100000
00000000
00100000
10000000
01000000
00100000
00000000
01000000
00000000
10000000
00100000
00000000
,  // measure 27
01000000
00000000
00000000
00010000
01000000
00010000
00000000
01000000
00000000
00100000
10000000
00000000
00010000
10000000
00010000
00000000
,  // measure 28
10000000
00000000
00000000
00100000
01000000
00100000
00000000
01000000
00001000
00001000
00000000
00000000
00100000
00100000
00000000
00000000
,  // measure 29
00000100
00000000
00000000
00001000
00000001
00001000
00000000
00000010
00000000
00000100
00000001
00000000
00000100
00000010
00000100
00000000
,  // measure 30
00000001
00000000
00000000
00000100
00001000
00000100
00000000
00000001
00000000
00000001
00000000
00000000
00010000
00001000
00010000
00001000
,  // measure 31
01000000
00000000
11000000
00000000
01100000
00000000
00110000
00000000
10000000
01000000
00010000
00001000
00000100
00000001
00000100
00001000
,  // measure 32
00000100
00000000
00000000
00000000
00000000
00000000
00000001
00000000
00000001
00000010
00001000
00010000
01000000
10000000
01000000
00010000
,  // measure 33
00001000
00000000
00011000
00000000
00010100
00000000
00000101
00000000
00000001
00000100
00001000
00010000
01000000
10000000
01000000
00010000
,  // measure 34
10000000
00000000
00000000
00100000
10000000
00010000
10000000
00000000
,  // measure 35
20020000
30030000
00000000
00000000
;
