#TITLE:Shut up and dance;
#SUBTITLE:;
#ARTIST:Walk the Moon;
#TITLETRANSLIT:;
#SUBTITLETRANSLIT:;
#ARTISTTRANSLIT:;
#CREDIT:;
#BANNER:;
#BACKGROUND:;
#LYRICSPATH:;
#CDTITLE:;
#MUSIC:[Drop The Zero] - Shut up and Dance.mp3;
#OFFSET:-0.160;
#SAMPLESTART:47.908;
#SAMPLELENGTH:15.360;
#SELECTABLE:YES;
#BPMS:0.000=127.980;
#STOPS:;
#BGCHANGES:;

//---------------dance-single - ----------------
#NOTES:
     dance-single:
     :
     Easy:
     5:
     0.212,0.263,0.075,0.075,0.000: // measure 1
0000
0000
0000
0000
,  // measure 2
0000
0000
0000
0000
,  // measure 3
0000
0001
0001
0001
,  // measure 4
1000
1000
1000
1000
,  // measure 5
0010
0010
0010
0010
,  // measure 6
0100
0001
1000
0001
,  // measure 7
1001
1000
0010
0100
,  // measure 8
0001
0010
0010
0100
,  // measure 9
1000
0002
0000
0203
,  // measure 10
0000
0310
1000
0001
,  // measure 11
0000
1000
0000
1000
,  // measure 12
0000
0001
0000
0001
,  // measure 13
0000
0100
0000
0010
,  // measure 14
0000
1000
0000
0001
,  // measure 15
0000
1000
0000
0001
,  // measure 16
0000
0100
0000
0010
,  // measure 17
0010
1000
1000
0001
,  // measure 18
0000
0100
0000
0010
,  // measure 19
1000
0001
0100
0010
,  // measure 20
0000
1000
0000
0001
,  // measure 21
0000
1000
1000
1000
,  // measure 22
0000
0001
0001
0001
,  // measure 23
0000
0000
1000
1000
,  // measure 24
1001
0000
0100
0100
,  // measure 25
0010
0000
0010
0100
,  // measure 26
0000
2002
0000
0000
0000
0000
3003
0000
,  // measure 27
0000
0000
1000
0000
0000
1000
0000
0000
,  // measure 28
0000
0000
0001
0000
0000
0001
0000
0000
,  // measure 29
0000
0000
0100
0000
0000
0100
0000
0000
,  // measure 30
0000
0010
1000
0001
,  // measure 31
1000
0001
0100
0010
,  // measure 32
1000
0000
0001
0000
0000
0001
0000
0000
,  // measure 33
0100
0020
0000
0030
,  // measure 34
0000
1000
0010
0100
,  // measure 35
0000
0001
0000
0001
,  // measure 36
0000
0100
0000
0100
,  // measure 37
0000
0010
0000
0010
,  // measure 38
0000
1000
0000
1000
,  // measure 39
0000
0001
0001
1000
,  // measure 40
0000
0010
0000
0100
,  // measure 41
0100
0100
0100
0010
,  // measure 42
0010
1000
0000
0001
,  // measure 43
0000
1001
0000
0010
,  // measure 44
0000
1001
0000
1000
,  // measure 45
0000
0000
0001
1000
,  // measure 46
1001
0000
0010
0100
,  // measure 47
0010
0000
1000
0001
,  // measure 48
0000
2002
0000
0000
0000
0000
3003
0000
,  // measure 49
0000
0000
1000
0000
0000
1000
0000
0000
,  // measure 50
0001
0000
0001
0000
0000
0100
0000
0000
,  // measure 51
0010
0000
0010
0000
0000
1000
0000
0000
,  // measure 52
0001
1000
0010
0100
,  // measure 53
0000
0000
0001
0000
0000
1000
0000
0000
,  // measure 54
0000
0000
0001
0000
0000
1000
0000
0000
,  // measure 55
0000
0020
0000
0030
,  // measure 56
0000
1000
0001
0000
,  // measure 57
1001
0000
0000
0000
;

//---------------dance-single - Copied from Copied f----------------
#NOTES:
     dance-single:
     Copied from Copied f:
     Medium:
     7:
     0.365,0.368,0.141,0.103,0.080: // measure 1
0000
0000
0000
0000
,  // measure 2
0000
0000
0000
0000
0000
0000
0000
0010
,  // measure 3
0001
0000
0000
0000
1000
0000
0000
1000
0000
0000
0001
0000
0000
0000
0000
0000
,  // measure 4
0001
0000
0000
0000
0010
0000
0000
0010
0000
0000
0010
0000
0000
0000
0000
0000
,  // measure 5
1001
0000
0000
0000
0001
0000
0000
1000
0000
0000
0001
0000
0000
0000
0000
0000
,  // measure 6
0010
0100
0001
0000
1000
0000
1001
0000
,  // measure 7
0001
0100
0000
0100
0000
0200
0000
0310
,  // measure 8
1000
0000
0000
0000
0100
0000
0000
1000
0000
0000
0001
0000
0000
0000
0001
0000
,  // measure 9
1000
0000
0001
0100
0001
0000
1000
0010
,  // measure 10
1000
0001
1000
0001
,  // measure 11
0100
0010
1000
0000
0010
0000
0100
0000
,  // measure 12
0001
0100
0010
1000
,  // measure 13
0010
0100
0001
0100
,  // measure 14
0010
0000
1000
0000
0000
0000
0010
0000
0000
0100
0000
0000
0001
0000
0000
0000
,  // measure 15
1000
0001
0200
0000
0320
0000
2030
0000
,  // measure 16
0001
3001
0000
0000
0000
0000
0001
0100
,  // measure 17
0010
0000
0000
0000
1000
0000
0100
0000
1000
0000
0000
0000
0001
0000
0000
0100
,  // measure 18
0000
0001
0000
0000
0100
1000
0000
1000
,  // measure 19
0001
0000
0001
0000
1000
0001
1000
0000
,  // measure 20
0001
0010
0100
1000
,  // measure 21
0100
0020
0000
0030
0001
0000
0100
0001
,  // measure 22
0000
0020
0000
0030
0100
0000
0100
0000
,  // measure 23
0001
1000
0000
1000
0010
0000
0101
0000
,  // measure 24
1001
0000
1000
0000
0100
0000
0010
0001
,  // measure 25
1000
0100
0000
0000
0001
0100
1000
0000
,  // measure 26
0001
0010
0000
0000
0100
0000
1000
0001
,  // measure 27
1000
0000
0001
0000
1000
0000
0000
0100
0000
0000
1000
0000
0000
0000
0000
0000
,  // measure 28
0000
0000
0000
0000
0001
0000
0000
0001
0000
0000
0001
0000
0000
0000
0000
0000
,  // measure 29
0000
0000
0000
0000
0001
0000
0000
0001
0000
0000
0001
0000
0000
0000
0000
0000
,  // measure 30
0100
0001
1001
1010
,  // measure 31
1000
0001
0000
0100
0000
0002
0000
0003
,  // measure 32
0100
0000
0000
0000
0001
0000
0000
0001
0000
0000
0001
0000
0000
0000
1000
0000
,  // measure 33
0010
0010
0001
0010
,  // measure 34
0100
0011
1001
0110
,  // measure 35
1000
0000
0001
0000
0100
0000
0001
0000
0000
1000
0000
0000
0010
0000
0000
0100
,  // measure 36
0000
0001
0000
0010
0000
1000
0001
0000
,  // measure 37
1001
0000
1000
0000
0010
0100
0001
0200
,  // measure 38
0000
0310
0000
0000
0000
1000
0010
0100
,  // measure 39
0001
0000
0000
0000
1000
0000
0100
0000
1000
0000
0000
0000
0001
0000
0000
1000
,  // measure 40
0000
0001
0000
0000
0000
0001
0100
0000
,  // measure 41
0010
1000
0001
1000
,  // measure 42
0100
0001
0000
0000
1000
0010
0000
0010
,  // measure 43
0100
0001
0000
0000
1000
0000
0010
0100
,  // measure 44
0000
0100
0000
0001
0100
0000
1000
0000
,  // measure 45
0001
1000
0000
0010
0100
0001
0100
0000
,  // measure 46
1010
1000
0010
0001
,  // measure 47
1000
0001
0000
0000
0010
0000
0001
0000
,  // measure 48
1000
0002
0000
0003
0100
0000
0010
1000
,  // measure 49
0001
0000
1000
0000
0001
0000
0000
0010
0000
0000
0100
0000
0000
0000
0000
0000
,  // measure 50
0000
0000
0000
0000
0010
0000
0000
0100
0000
0000
0001
0000
0000
0000
0000
0000
,  // measure 51
0000
0000
0000
0000
0100
0000
0000
0010
0000
0000
1000
0000
0000
0000
0000
0000
,  // measure 52
0010
1010
1001
0101
,  // measure 53
0001
0010
0100
0001
,  // measure 54
0010
0000
0000
0000
0001
0000
0000
0100
0000
0000
0100
0000
0000
0000
0010
0000
,  // measure 55
1000
0000
0002
0000
0103
0020
0000
1030
,  // measure 56
0010
0000
0100
0000
0101
0000
1000
0001
,  // measure 57
1000
0000
0000
0000
;

//---------------dance-single - ----------------
#NOTES:
     dance-single:
     :
     Beginner:
     3:
     0.141,0.157,0.028,0.047,0.000: // measure 1
0000
0000
0000
0000
,  // measure 2
0000
0000
0000
0000
,  // measure 3
0000
1000
0000
0000
,  // measure 4
0000
0001
0000
0000
,  // measure 5
0000
0100
0000
0000
,  // measure 6
0000
0010
0000
0010
,  // measure 7
0000
1000
0000
0000
,  // measure 8
0000
0000
0000
0000
,  // measure 9
0000
0100
0000
0010
,  // measure 10
0000
0100
0000
0100
,  // measure 11
0000
1000
0000
0000
,  // measure 12
0000
0001
0000
0000
,  // measure 13
0000
1000
0000
0000
,  // measure 14
0000
0001
0000
0000
,  // measure 15
0000
0100
0100
0100
,  // measure 16
0000
0000
0000
0010
,  // measure 17
0000
1000
0000
0001
,  // measure 18
0000
0000
0000
1000
,  // measure 19
0000
0001
0000
0001
,  // measure 20
0000
0100
0000
0010
,  // measure 21
0000
1000
0000
1000
,  // measure 22
0000
0001
0000
1000
,  // measure 23
0000
0000
0001
0001
,  // measure 24
0000
0000
0100
0100
,  // measure 25
0100
0000
0010
0010
,  // measure 26
0000
2000
0000
3000
,  // measure 27
0000
0002
0000
0003
,  // measure 28
0000
2000
0000
3000
,  // measure 29
0000
0020
0000
0030
,  // measure 30
0000
1000
1000
1000
,  // measure 31
0000
1001
0000
0001
,  // measure 32
0000
0100
0000
0010
,  // measure 33
0000
2000
0000
3000
,  // measure 34
0000
0001
0001
1000
,  // measure 35
0000
0001
0000
0001
,  // measure 36
0000
0100
0000
0010
,  // measure 37
0000
0010
0000
1000
,  // measure 38
0000
1000
0000
0010
,  // measure 39
0000
0010
0000
0100
,  // measure 40
0000
0100
0000
0001
,  // measure 41
0000
0001
0000
0001
,  // measure 42
0000
1000
0000
1000
,  // measure 43
0000
0001
0000
0100
,  // measure 44
0000
0010
0000
1000
,  // measure 45
0000
0000
0001
0000
,  // measure 46
1001
0000
1000
0000
,  // measure 47
0010
0000
0100
0100
,  // measure 48
0000
0110
0000
0000
,  // measure 49
0000
1000
1000
1000
,  // measure 50
0000
0001
0001
0001
,  // measure 51
0000
0100
0100
0100
,  // measure 52
0000
0010
0000
0010
,  // measure 53
0000
1000
0000
1000
,  // measure 54
0000
0001
0000
0001
,  // measure 55
0000
1000
0000
0001
,  // measure 56
0000
1000
0000
0001
;

//---------------dance-single - Copied from Copied f----------------
#NOTES:
     dance-single:
     Copied from Copied f:
     Hard:
     10:
     0.499,0.500,0.197,0.103,0.174: // measure 1
0000
0000
0000
0000
,  // measure 2
0000
0000
0000
0000
0000
0000
0000
0010
,  // measure 3
0001
0000
0010
0000
0100
0000
0000
1000
0000
0000
0001
0000
0000
0000
0010
0000
,  // measure 4
0001
0000
0100
0000
0010
0000
0000
0010
0000
0000
0010
0000
0000
0000
0001
0000
,  // measure 5
1001
0000
0100
0000
0001
0000
0000
1000
0000
0000
0001
0000
0000
0000
1000
0000
,  // measure 6
0010
0100
0001
0000
1000
0000
1001
0000
,  // measure 7
0001
0100
0000
0100
0000
0200
0000
0310
,  // measure 8
1000
0000
0100
0000
0010
0000
0000
0001
0000
0000
1000
0000
0000
0000
0001
0000
,  // measure 9
1000
0000
0001
0100
0001
0100
0010
1000
,  // measure 10
0010
1000
0001
0100
1000
0100
0001
0010
,  // measure 11
0100
0000
0010
0000
0001
0000
1000
0000
0001
0100
0000
0001
0100
0000
0010
1000
,  // measure 12
0000
0000
1000
0001
0000
0000
1000
0000
0001
0100
0000
0100
0010
0000
0010
1000
,  // measure 13
0000
0010
1000
0010
0000
0000
0100
0000
0001
0100
0000
0100
0001
0000
0001
1000
,  // measure 14
0000
0000
1000
0001
0000
0000
0010
0000
0000
0100
0000
0000
1000
0000
0000
0000
,  // measure 15
1001
0001
0200
0000
0320
0000
2030
0000
,  // measure 16
0001
3001
0000
0000
0000
1000
0001
0100
,  // measure 17
0010
0000
0000
0000
1000
0000
0100
0000
1000
0000
0000
0000
0001
0000
0000
0100
,  // measure 18
0000
0001
0010
0000
0100
1000
0000
1000
,  // measure 19
0010
0100
0001
0000
1000
0001
1000
0000
,  // measure 20
0001
0100
0010
0000
0000
1000
0000
0001
,  // measure 21
0100
0020
0000
1030
0100
0010
0001
0100
,  // measure 22
0000
0020
0000
1030
0100
0010
0100
1000
,  // measure 23
0001
1001
0000
1000
0010
0100
0101
0000
,  // measure 24
1001
0000
1000
0100
0001
0100
1000
0010
,  // measure 25
1000
0101
0000
0001
0100
0010
1000
0000
,  // measure 26
0001
0000
0010
0000
0000
0000
0100
0000
0100
0000
0100
0000
1000
0000
0001
1000
,  // measure 27
0001
1000
0001
1000
0001
0000
0000
0100
0000
0000
1000
0000
0000
0000
0100
0000
,  // measure 28
0010
0000
0100
0000
0001
0000
0000
0001
0000
0000
0001
0000
0000
0000
1000
0000
,  // measure 29
0010
0000
0100
0000
0001
0000
0000
0001
0000
0000
0001
0000
0000
0000
1000
0000
,  // measure 30
0100
0010
0001
0000
1001
0000
1010
0000
,  // measure 31
1000
0001
0000
0100
0000
0002
0000
1003
,  // measure 32
0010
0000
0100
0000
0001
0000
0000
0001
0000
0000
0001
0000
0000
0000
1000
0000
,  // measure 33
0010
0000
0010
0100
0001
0100
0010
1000
,  // measure 34
0100
0010
0011
0000
1001
0000
0110
0000
,  // measure 35
1000
0000
0001
0000
0100
0000
0001
0000
0000
1000
0000
0000
0010
0000
0000
0100
,  // measure 36
0000
0000
0001
0100
0000
0000
0010
0000
0000
0000
1000
0000
0001
0000
0000
0000
,  // measure 37
1001
0000
1000
0000
0010
0100
0001
0200
,  // measure 38
0000
0310
0000
0000
0000
1000
0010
0100
,  // measure 39
0001
0000
0000
0000
1000
0000
0100
0000
1000
0000
0000
0000
0001
0000
0000
1000
,  // measure 40
0000
1001
0000
0000
0000
0001
0100
0100
,  // measure 41
0010
0010
1000
0000
0001
0100
1000
0000
,  // measure 42
0100
0001
0000
0000
1000
0010
0000
0010
,  // measure 43
0100
0001
0000
1000
1000
0010
0010
0110
,  // measure 44
0000
0100
0000
0001
0100
0010
1000
1000
,  // measure 45
0001
1000
0000
0010
0100
0001
0101
0000
,  // measure 46
1010
0000
1000
0100
0010
0001
0100
0010
,  // measure 47
1000
0001
0000
1000
0010
0100
0001
0000
,  // measure 48
1000
0000
0002
0000
0000
0000
0103
0000
0100
0000
0100
0000
0010
0000
1000
0001
,  // measure 49
1000
0001
1000
0001
1000
0000
0000
0010
0000
0000
0100
0000
0001
0000
0100
0000
,  // measure 50
0010
0000
1000
0000
0010
0000
0000
0100
0000
0000
0001
0000
1000
0000
0010
0000
,  // measure 51
0100
0000
0001
0000
0100
0000
0000
0010
0000
0000
1000
0000
0001
0000
0100
0000
,  // measure 52
0010
1000
1010
0000
1001
0000
0101
0000
,  // measure 53
0001
0100
0010
1000
0100
0010
0001
0100
,  // measure 54
0010
0000
1000
0000
0001
0000
0000
0100
0000
0000
0100
0000
0000
0000
0010
0000
,  // measure 55
1000
0000
0002
0000
0103
0020
0000
1030
,  // measure 56
0010
0000
0100
0000
0101
0000
1000
0001
,  // measure 57
1000
0000
0000
0000
;
