#TITLE:Showdown;
#SUBTITLE:;
#ARTIST:USAO;
#TITLETRANSLIT:;
#SUBTITLETRANSLIT:;
#ARTISTTRANSLIT:;
#CREDIT:;
#BANNER:;
#BACKGROUND:;
#LYRICSPATH:;
#CDTITLE:;
#MUSIC:Showdown.ogg;
#OFFSET:0.933;
#SAMPLESTART:43.557;
#SAMPLELENGTH:12.000;
#SELECTABLE:YES;
#BPMS:0.000=178.000,96.000=89.000,98.000=178.000,162.000=89.000,178.000=178.000;
#STOPS:;
#BGCHANGES:;

//---------------dance-single - ----------------
#NOTES:
     dance-single:
     :
     Medium:
     11:
     0.636,0.805,0.661,0.272,0.126: // measure 1
0000
0000
0000
0000
,  // measure 2
0000
0000
0000
0000
,  // measure 3
0000
0000
0000
0000
,  // measure 4
0000
0000
0000
0000
,  // measure 5
0000
0000
0000
0000
0000
0000
1000
0001
,  // measure 6
0200
0000
0000
0010
0310
0000
0000
1000
,  // measure 7
0001
0000
0000
0000
1000
0000
0000
0001
0000
0000
0200
0000
0000
0000
0010
0000
,  // measure 8
0310
0000
0001
0100
0000
0010
1000
0001
,  // measure 9
1001
0000
0000
0110
0000
0000
1001
0000
,  // measure 10
1010
0000
1000
0200
0000
0310
0001
0200
,  // measure 11
0010
0000
0000
0000
0310
0000
0000
0010
0000
0000
1000
0000
0000
0000
0001
0000
,  // measure 12
0100
0000
0100
0001
0000
0001
0000
1000
,  // measure 13
0100
0010
0001
0100
0010
1000
0100
0010
,  // measure 14
0001
0000
0000
0000
0001
0000
1000
0000
0000
0000
1000
0000
0000
0001
0000
0000
,  // measure 15
0002
0000
0000
0000
0013
0000
0000
0010
0000
0000
0100
0000
1000
0000
0001
0000
,  // measure 16
1000
0100
0010
0001
0000
1000
0010
1000
,  // measure 17
0020
0000
0000
0000
0130
0000
0000
0001
0000
0000
0100
0000
0010
0000
0000
0000
,  // measure 18
1020
0000
0000
0100
0230
0000
0000
0300
,  // measure 19
0201
0000
0000
0010
0310
0000
0010
0000
,  // measure 20
2010
0000
0000
0001
3002
0000
0003
0000
,  // measure 21
0201
0000
0000
0010
0310
0000
1000
0100
,  // measure 22
0011
0001
1001
1000
,  // measure 23
1001
0010
1001
1000
,  // measure 24
1000
0100
0010
0001
0100
0010
1000
0001
,  // measure 25
2002
0000
0000
3003
0110
0000
1001
0000
,  // measure 26
0100
1010
0100
0011
,  // measure 27
1000
0110
0001
1001
,  // measure 28
1000
0101
0100
0010
,  // measure 29
1010
1000
1001
1010
,  // measure 30
0001
0110
0001
1010
,  // measure 31
0010
0000
0202
0303
2002
3003
1001
0000
,  // measure 32
0100
0000
0001
0000
1001
0000
0001
0100
,  // measure 33
0000
0100
0001
0000
1001
0000
1000
0000
,  // measure 34
1000
0100
1000
0100
0010
0001
0010
0001
,  // measure 35
0100
0100
1010
1001
,  // measure 36
1000
0100
1000
0100
0010
0001
0010
0100
,  // measure 37
1000
0001
1000
0000
1001
0000
1010
0000
,  // measure 38
1000
0100
0010
0001
0100
0010
1000
0100
,  // measure 39
0010
0100
0010
0000
1001
0000
1001
0000
,  // measure 40
0100
0100
0010
0000
1010
0000
0000
1010
,  // measure 41
0000
0000
0000
0000
0101
0000
0000
0000
1001
0000
0000
0000
0010
0001
0010
0001
,  // measure 42
1000
0100
1000
0100
1000
0001
1000
0001
0010
0000
0100
0000
0001
0010
0001
0010
,  // measure 43
0100
1000
0100
1000
0001
0100
0001
1000
0001
0000
0000
0000
0000
1000
0001
1000
,  // measure 44
0001
0000
0010
0000
0100
1000
0001
0100
0001
0000
0010
1000
0010
0000
0100
0000
,  // measure 45
0100
0000
0000
1010
0000
0000
1001
0000
1001
0000
0000
0000
1100
0000
1000
0000
,  // measure 46
0100
0000
0011
0001
0010
0000
1100
1000
,  // measure 47
0100
0000
0011
0001
0010
0000
1100
1000
,  // measure 48
0100
0000
0011
0001
0010
0000
1100
1000
,  // measure 49
0100
0000
1001
1000
0001
0100
0010
2000
,  // measure 50
0000
3001
0100
0020
0000
0000
1030
0000
,  // measure 51
1001
0001
1000
0100
1000
0100
0010
0001
,  // measure 52
0000
1000
0100
1000
0001
0000
0001
0100
,  // measure 53
0000
0100
0010
0000
1010
0000
1010
0000
,  // measure 54
0100
0011
0100
1010
,  // measure 55
0100
0011
0100
1010
,  // measure 56
0100
0011
0100
0010
,  // measure 57
1000
0010
1010
0101
,  // measure 58
0101
0000
1000
0100
0002
0000
0103
1000
,  // measure 59
0020
0000
0031
0010
1000
0100
0010
0001
,  // measure 60
0100
0010
1000
0001
1000
0100
0100
0010
,  // measure 61
0001
0001
0100
0000
0010
1000
0100
0002
,  // measure 62
0000
0103
1000
0020
0100
0000
0130
0000
,  // measure 63
0001
0101
0010
1010
,  // measure 64
1000
0000
0000
0000
0011
0000
0000
0000
1001
0000
0000
0000
1000
0000
0000
0010
,  // measure 65
0000
0100
0001
0010
0100
1000
0100
0020
,  // measure 66
0000
0000
0031
0000
0100
0000
0020
0000
0100
0000
0000
0000
0130
0000
0000
1000
,  // measure 67
0000
0001
0100
0010
1000
0100
0010
0001
,  // measure 68
1000
0000
0001
0000
0100
0000
0001
0000
0010
0000
0000
0000
0110
0000
0000
0100
,  // measure 69
0000
0001
0001
0100
0220
0000
0000
0000
,  // measure 70
0330
0000
0000
0000
;

//---------------dance-single - ----------------
#NOTES:
     dance-single:
     :
     Easy:
     7:
     0.446,0.604,0.651,0.185,0.005: // measure 1
0000
0000
0000
0000
,  // measure 2
0000
0000
0000
0000
,  // measure 3
0000
0000
0000
0000
,  // measure 4
0000
0000
0000
0000
,  // measure 5
0000
0000
0000
1000
,  // measure 6
0201
0000
0310
0000
,  // measure 7
0002
0000
1003
0000
,  // measure 8
0010
0001
0000
1000
,  // measure 9
1001
0000
0000
0110
0000
0000
1001
0000
,  // measure 10
0002
0000
0103
0000
,  // measure 11
0020
0000
1030
0000
,  // measure 12
1000
0001
0100
0000
,  // measure 13
0010
1000
0001
0000
,  // measure 14
2000
0000
3010
0000
,  // measure 15
0200
0000
0301
0000
,  // measure 16
1000
0001
1000
0000
,  // measure 17
0002
0000
0003
0000
,  // measure 18
1020
0000
0130
0000
,  // measure 19
0201
0000
0310
0010
,  // measure 20
2010
0000
3001
0000
,  // measure 21
0201
0000
0310
1000
,  // measure 22
0011
1000
1010
1000
,  // measure 23
1010
0100
1001
1000
,  // measure 24
1000
0010
0100
0001
,  // measure 25
2002
0000
0000
3003
0000
0000
1001
0000
,  // measure 26
0100
1010
0100
0011
,  // measure 27
1000
0110
0001
1001
,  // measure 28
1000
0101
0100
0010
,  // measure 29
1010
1000
1001
1010
,  // measure 30
0001
0110
0001
1010
,  // measure 31
0010
0101
1001
1001
,  // measure 32
0100
0000
0001
0000
1001
0000
0001
0100
,  // measure 33
0000
0100
0001
0000
1001
0000
1000
0000
,  // measure 34
1000
1000
0010
0010
,  // measure 35
0100
0100
1010
1001
,  // measure 36
1000
1000
0100
0010
,  // measure 37
1000
1000
1010
1010
,  // measure 38
1000
0001
0100
0010
,  // measure 39
0010
0010
1001
1001
,  // measure 40
0100
0000
0010
0000
1010
0000
0000
1010
,  // measure 41
0000
0000
0101
0000
1001
0000
0001
0010
,  // measure 42
0100
1000
1000
1000
0010
0000
0001
0001
,  // measure 43
0100
0010
1000
0100
1010
0000
0000
1000
,  // measure 44
1001
0010
0100
0001
0101
0010
0010
0100
,  // measure 45
0100
0000
0000
1000
0000
0000
0001
0000
1000
0000
0000
0000
1001
0000
0000
0000
,  // measure 46
0001
1000
0010
0101
,  // measure 47
0001
1000
0001
0011
,  // measure 48
0100
1000
0001
0011
,  // measure 49
0100
1000
0020
0230
,  // measure 50
1300
0001
1000
0001
,  // measure 51
0101
0010
1010
1000
,  // measure 52
1100
1000
0001
0001
,  // measure 53
0000
0010
1010
1010
,  // measure 54
0100
0011
0100
1010
,  // measure 55
0100
0011
0100
1010
,  // measure 56
0100
0011
0100
0010
,  // measure 57
1000
0010
1010
0101
,  // measure 58
0101
1000
0002
0103
,  // measure 59
0020
0000
1030
0000
1000
0001
1000
0001
,  // measure 60
1000
0001
1000
0001
1000
0000
0000
0000
,  // measure 61
0000
0001
1000
0100
,  // measure 62
0000
1000
0010
0100
,  // measure 63
0001
0101
0010
1010
,  // measure 64
1000
0011
1001
1000
,  // measure 65
0000
0100
1010
0100
,  // measure 66
0000
0100
0100
0100
,  // measure 67
0000
0101
1000
0010
,  // measure 68
1000
0100
0010
0110
,  // measure 69
0000
0001
0220
0000
,  // measure 70
0330
0000
0000
0000
;

//---------------dance-single - Copied from Copied f----------------
#NOTES:
     dance-single:
     Copied from Copied f:
     Hard:
     13:
     0.729,1.000,0.729,0.253,0.219: // measure 1
0000
0000
0000
0000
,  // measure 2
0000
0000
0000
0000
,  // measure 3
0000
0000
0000
0000
,  // measure 4
0000
0000
0000
0000
,  // measure 5
0000
0000
0000
0000
0000
0000
1000
0001
,  // measure 6
0201
0000
0000
0010
0310
0000
0000
1000
,  // measure 7
0001
0000
0000
0000
1000
0000
0000
0001
0000
0000
0200
0000
0000
0000
0010
0000
,  // measure 8
0310
0000
0000
0000
0001
0000
0100
0000
0000
0000
0010
0000
1000
0001
1000
0001
,  // measure 9
0100
0000
0000
0110
0000
0000
1001
0000
,  // measure 10
1010
0000
1000
0200
0000
0310
0001
0200
,  // measure 11
0010
0000
0000
0000
0310
0000
0000
0010
0000
0000
1000
0000
0000
0000
0001
0000
,  // measure 12
0100
0000
0100
0001
0000
1001
0000
1000
,  // measure 13
0100
0010
0001
0100
0010
1000
0100
0010
,  // measure 14
0001
0000
0000
0000
0001
0000
1000
0000
0000
0000
1000
0000
0000
0001
0000
0000
,  // measure 15
0002
0000
0000
0000
0013
0000
0000
0010
0000
0000
0100
0000
1000
0000
0001
0000
,  // measure 16
1000
0100
0010
0001
0000
1000
0010
1000
,  // measure 17
1010
0000
0000
0000
0100
0000
0000
0001
0000
0000
0100
0000
0010
0000
1000
0000
,  // measure 18
1020
0000
0000
0100
0130
0000
0000
0001
,  // measure 19
0201
0000
0000
0010
0310
0000
0010
1000
,  // measure 20
2010
0000
0000
0001
3001
0000
0000
0001
,  // measure 21
0201
0000
0000
0010
0310
0000
1000
0100
,  // measure 22
0011
0000
1000
0001
1010
0000
1000
0001
,  // measure 23
1010
0000
0100
0010
1001
0000
1000
0001
,  // measure 24
1000
1000
0010
0010
0100
0100
0001
1000
,  // measure 25
2002
0000
0000
3003
0110
0000
1001
0001
,  // measure 26
0100
0000
1010
1000
0100
0000
0011
0001
,  // measure 27
1000
0000
0110
0100
0001
0000
1001
0001
,  // measure 28
1000
0000
0101
0001
0100
0000
0010
1000
,  // measure 29
1010
0000
1000
0001
1001
0000
1010
1000
,  // measure 30
0001
0000
0110
0100
0001
0000
1010
1000
,  // measure 31
0010
0000
0202
0303
2002
3003
1001
0001
,  // measure 32
0100
0000
0001
1000
1001
0000
0001
0100
,  // measure 33
0000
0100
0001
0000
1001
0000
1000
0001
,  // measure 34
1000
1000
1000
1000
0010
0010
0010
0010
,  // measure 35
0100
0001
0100
0000
1010
0000
1001
0000
,  // measure 36
1000
1000
1000
1000
0100
0100
0010
0100
,  // measure 37
1000
1000
1000
0001
1001
0000
1010
0000
,  // measure 38
1000
1000
0001
0001
0100
0100
0010
0100
,  // measure 39
0010
0010
0010
0000
1001
0000
1001
0001
,  // measure 40
0100
0000
0100
0000
0010
1000
0010
1000
0010
0000
0000
0000
0000
0000
1010
0000
,  // measure 41
0000
0000
0000
0000
0101
0000
0000
0000
1001
0000
0000
0000
0011
0001
0010
0010
,  // measure 42
0100
0100
1000
1000
1001
0001
1000
0001
0010
0000
0100
0000
0001
0001
0001
0001
,  // measure 43
0100
0010
1000
0100
0010
0001
0100
0010
1010
0000
0000
0000
0000
1000
1000
1000
,  // measure 44
1001
0000
0000
0000
0010
0000
0010
0000
0100
0000
1000
0000
0001
0000
0100
0000
0101
0000
0000
0000
0010
0000
1000
0000
0020
0000
0000
0000
0130
0001
0100
0001
,  // measure 45
0100
0000
0000
1010
0000
0000
1001
0000
1001
0000
0000
0000
1001
0000
0100
0000
,  // measure 46
0010
1000
0100
0010
0001
0000
0101
0001
,  // measure 47
0100
0010
1000
0100
0010
0000
0011
0001
,  // measure 48
0100
0010
1000
0100
0010
0000
0011
0001
,  // measure 49
0100
0010
1000
0100
0020
0000
0032
0000
,  // measure 50
1003
0100
0001
0100
1000
0000
0001
0100
,  // measure 51
0101
0000
0010
1000
1010
0000
1000
0100
,  // measure 52
1100
0000
1000
1000
0001
0000
0001
0100
,  // measure 53
0000
0100
0010
0000
1010
0000
1010
1000
,  // measure 54
0100
0010
0011
0001
0100
0000
1010
1000
,  // measure 55
0100
0010
0011
0001
0100
0000
1010
1000
,  // measure 56
0100
0000
0010
0000
0011
0000
0001
0000
0100
0000
0000
0000
0010
1000
0010
0000
,  // measure 57
0100
0001
0100
0000
0010
1000
0010
0000
1010
0000
0000
0000
0101
0000
0000
0000
,  // measure 58
0101
0000
1000
0100
0002
0000
0103
1000
,  // measure 59
0020
0000
0000
0000
0031
0000
0010
0000
1000
0001
1000
0001
1000
0001
1000
0001
,  // measure 60
1000
0001
1000
0001
1000
0001
1000
0001
1000
0000
0100
0000
0100
0000
0010
0000
,  // measure 61
0001
0001
0100
0000
0010
1000
0100
0002
,  // measure 62
0000
0103
1000
0020
0100
0000
0130
0000
,  // measure 63
0001
0100
0101
0000
0010
0000
1010
0000
,  // measure 64
1000
0000
0100
0000
0011
0000
0000
0000
1001
0000
0000
0000
1000
0000
0000
0010
,  // measure 65
0000
0100
0100
0001
1010
1000
0100
0020
,  // measure 66
0000
0000
0031
0000
0100
0000
0020
0000
0100
0000
0000
0000
0130
0000
0000
1000
,  // measure 67
0000
0001
0101
0010
1000
0100
0010
0001
,  // measure 68
1000
0000
0001
0000
0100
0000
0001
0000
0010
0000
0000
0000
0110
0000
0000
1100
,  // measure 69
0000
0001
0001
0100
0220
0000
0000
0000
,  // measure 70
0330
0000
0000
0000
;

//---------------dance-single - Copied from Copied f----------------
#NOTES:
     dance-single:
     Copied from Copied f:
     Challenge:
     16:
     0.974,1.000,0.710,0.146,0.666:
0000
0000
0000
0000
,
0000
0000
0000
0000
,
1000
0100
1000
0100
0010
0001
0010
0001
0100
0010
0100
0010
1000
0100
0010
0001
,
0010
0100
1000
0001
0010
0100
1000
0100
0010
0001
0100
0010
1000
0100
1000
0100
,
0010
0001
0100
0010
1000
0100
0010
0001
0100
0010
1000
0001
1000
0100
0010
0001
,
0010
0100
1000
0001
0100
0010
1000
0100
1000
0001
0100
0010
1000
0100
0010
0100
,
1000
0001
0010
0001
1000
0100
0010
0001
0010
0100
1000
0001
0010
0001
1000
0100
,
0010
0001
0100
0010
1000
0100
0010
0001
0100
0010
1000
0001
1000
0001
1000
0001
,
0100
0000
0000
0110
0000
0000
1001
0000
,
1010
0000
1000
0200
0000
0310
0001
0200
,
0010
0000
0000
0000
0310
0000
0000
0010
0000
0000
1000
0000
0001
0000
0100
0000
,
0001
0000
0100
0000
0010
0000
1000
0000
0000
0000
1000
0000
0000
0001
0000
0000
,
1000
0100
1000
0100
0010
0001
0010
0001
0100
0010
0100
0010
1000
0100
1000
0100
,
0010
0000
0001
0000
0010
0000
0100
0000
0000
0000
1000
0000
0100
0010
0001
0000
,
0011
0000
0010
0000
0100
0000
0000
0010
0000
0000
0100
0000
1000
0000
0001
0000
,
1000
0000
0100
0000
0010
0000
0001
0000
0000
0000
1000
0000
0010
1000
0010
0000
,
1010
0000
0000
0000
0100
0000
0000
0001
0000
0000
0100
0000
0010
0000
1000
0000
,
1010
0000
0100
0000
0001
0000
0100
0000
0000
0000
0001
0000
0100
0001
0100
0000
,
0101
0000
0010
0000
1000
0000
0010
0000
0000
0000
0100
0000
0001
1000
0010
0000
,
1010
0000
1000
0000
0001
0000
0100
0000
0000
0000
0010
0000
1000
0001
0100
0000
,
0101
0000
0000
0000
0000
0000
0010
0000
0000
1000
0000
0000
0010
0000
0000
0100
0000
0000
0001
0000
0000
0100
0000
0000
0001
0000
0000
1000
0000
0000
0010
0000
0000
1000
0000
0000
0010
0000
1000
0000
0010
0000
1000
0000
0010
0000
1000
0000
,
0010
0100
0010
0100
1001
0010
0100
0010
,
1001
0100
0010
0100
1001
0000
1000
0001
,
1000
0100
1000
0100
0010
0001
0010
0001
0100
0010
0100
0010
1000
0001
1000
0000
,
2002
0000
0000
3003
0110
1000
1001
0001
,
0100
0010
1010
1000
0100
0010
0011
0001
,
1000
0010
0110
0100
0010
1000
1001
0001
,
1000
0001
0101
0001
0100
0010
1010
0010
,
1000
0001
1001
1000
0001
1000
1010
1000
,
0001
0100
0110
0100
0001
1000
1010
1000
,
0010
0000
0202
0303
2002
3003
1001
0001
,
0100
0000
0010
0000
0001
0010
0100
1000
0100
0000
0000
0000
0010
0000
0100
0000
,
0000
0000
0100
0000
0001
1000
0001
1000
0001
0000
0000
0000
1000
0000
0001
0000
,
1000
1000
1100
1000
0010
0010
0110
0010
,
0100
0001
0100
0000
1010
0000
1001
0000
,
1000
1000
1001
1000
0100
0100
0110
0010
,
1000
1000
1001
0001
1001
0000
1010
0000
,
1000
1000
0001
0001
0100
0100
0010
0100
,
0010
0010
0010
0000
1001
0000
1001
0001
,
0100
0000
0100
0000
0010
1000
0010
1000
0010
0100
0001
0100
0010
1000
0100
0010
,
0001
0100
0010
0100
0001
1000
0001
1000
1001
0000
0000
0000
0011
0001
0010
0010
,
0100
0100
1000
1000
1001
0001
1000
0001
0010
0000
0100
0000
0001
0001
0001
0001
,
0100
0010
1000
0100
0010
0001
0100
0010
1010
0000
0000
0000
0000
1000
1000
1000
,
1001
0000
0000
0000
0010
0000
0010
0000
0100
0000
1000
0000
0001
0000
0100
0000
0101
0000
0000
0000
0010
0000
1000
0000
0020
0000
0000
0000
0130
0001
0100
0001
,
0100
0000
0000
1010
0000
0000
1001
0000
1001
0000
0000
0000
1001
0000
0100
0000
,
0010
1000
0100
0010
0001
0100
0101
0001
,
0100
0010
1000
0100
0010
0001
0011
0001
,
0100
0010
1000
0100
0010
0001
0011
0001
,
0100
0010
1000
0100
0010
0001
0010
0001
,
1000
0100
0001
0100
1000
0001
0100
0001
,
0101
0010
1000
0010
1010
1000
0100
1000
,
1100
0000
0000
0000
1000
0001
1000
0000
1001
0000
0000
0000
0001
0000
0110
0000
,
0000
0100
0010
1000
1010
1000
1010
1000
,
0100
0010
0011
0001
0100
0010
1010
1000
,
0100
0010
0011
0001
0100
0010
1010
1000
,
0100
0000
0010
0000
0011
0000
0001
0000
0100
0010
1000
0100
0010
0001
0100
0010
,
1000
0001
0100
0010
1000
0000
0001
0000
0100
0000
0001
0000
0100
0000
0001
0000
,
0001
0100
1000
0100
0001
0010
0100
1000
,
0010
0000
0100
0000
0010
0000
1000
0000
0001
0100
0010
1000
0100
0010
0100
1000
,
0001
0100
0010
1000
0010
1000
0001
0100
0010
0000
0100
0000
0100
0000
0010
0000
,
0001
0000
0001
0010
0100
0000
1000
0000
0010
0000
1000
0000
0100
0000
0002
0000
,
0000
0000
0103
0000
1000
0000
0020
0000
0100
0000
0000
0000
0130
0000
0001
0100
,
0001
0100
0101
0010
1000
0010
1010
1000
,
0100
0000
0010
0000
0011
0000
0001
0000
1001
0000
0000
0000
1000
0000
0100
0010
,
0100
0001
0100
1000
1010
1000
0100
0020
,
0000
0000
0031
0000
0100
0000
0020
0000
0100
0000
0000
0000
0130
0000
1000
0001
,
1000
0001
0101
0010
1000
0100
0010
0001
,
1000
0000
0001
0000
0100
0000
0001
0000
0010
0000
0000
0000
0110
0000
0000
1100
,
0000
0001
0001
0100
0220
0000
0000
0000
,
0330
0000
0000
0000
;

//---------------dance-single - Copied from----------------
#NOTES:
     dance-single:
     Copied from:
     Beginner:
     3:
     0.163,0.300,0.126,0.029,0.000: // measure 1
0000
0000
0000
0000
,  // measure 2
0000
0000
0000
0000
,  // measure 3
0000
0000
0000
0000
,  // measure 4
0000
0000
0000
0000
,  // measure 5
0000
0000
0000
0000
,  // measure 6
1001
0000
0010
0000
,  // measure 7
0001
0000
1000
0000
,  // measure 8
0010
0000
0000
0000
,  // measure 9
1001
0000
0000
0000
,  // measure 10
0001
0000
0100
0000
,  // measure 11
0010
0000
1000
0000
,  // measure 12
1000
0000
0100
0000
,  // measure 13
0010
0000
0001
0000
,  // measure 14
1000
0000
0010
0000
,  // measure 15
0100
0000
0001
0000
,  // measure 16
1000
0000
0001
0000
,  // measure 17
0001
0000
0000
0000
,  // measure 18
1001
0000
0100
0000
,  // measure 19
1001
0000
0010
0000
,  // measure 20
1001
0000
0010
0000
,  // measure 21
1001
0000
0010
0000
,  // measure 22
1001
0000
0010
0000
,  // measure 23
0100
0000
0001
0000
,  // measure 24
1000
0000
0100
0000
,  // measure 25
1001
0000
1000
0000
,  // measure 26
0001
0000
0100
0000
,  // measure 27
0010
0000
1000
0000
,  // measure 28
0100
0000
0010
0000
,  // measure 29
0001
0000
0100
0000
,  // measure 30
0010
0000
1000
0000
,  // measure 31
0010
0000
0001
0000
,  // measure 32
0100
0000
0010
0000
,  // measure 33
0000
0000
0000
0000
,  // measure 34
2000
0000
0000
0000
,  // measure 35
0000
3000
0000
0000
,  // measure 36
0002
0000
0000
0000
,  // measure 37
0000
0003
0000
0000
,  // measure 38
2000
0000
0000
0000
,  // measure 39
0000
0000
3000
0000
,  // measure 40
0010
0000
1001
0000
,  // measure 41
0000
0000
1001
1000
,  // measure 42
0100
0010
0001
0010
,  // measure 43
0100
1000
0010
0100
,  // measure 44
0001
0100
0010
0100
,  // measure 45
1000
0000
1000
0000
,  // measure 46
0000
0000
0010
0000
,  // measure 47
0000
0000
0001
0000
,  // measure 48
0000
0000
0001
0000
,  // measure 49
0000
0000
0010
0000
,  // measure 50
0000
0000
1000
0000
,  // measure 51
0000
0000
1000
0000
,  // measure 52
0000
0000
0001
0000
,  // measure 53
0000
0000
1001
0000
,  // measure 54
0000
0000
0100
0000
,  // measure 55
0000
0000
0100
0000
,  // measure 56
0000
0000
0100
0000
,  // measure 57
0000
0000
0010
0000
,  // measure 58
0000
0000
0001
0000
,  // measure 59
0010
0000
1000
0001
,  // measure 60
1000
0001
1000
0000
,  // measure 61
0000
0000
1001
0000
,  // measure 62
0000
0000
1000
0000
,  // measure 63
0000
0000
0001
0000
,  // measure 64
0000
0000
0100
0000
,  // measure 65
0000
0000
0010
0000
,  // measure 66
0000
0000
1000
0000
,  // measure 67
0000
0000
0010
0000
,  // measure 68
0000
0000
0100
0000
,  // measure 69
0000
0010
0110
0000
;
