#TITLE:sharaku;
#SUBTITLE:;
#ARTIST:Hige Driver;
#TITLETRANSLIT:;
#SUBTITLETRANSLIT:;
#ARTISTTRANSLIT:;
#CREDIT:;
#BANNER:;
#BACKGROUND:;
#LYRICSPATH:;
#CDTITLE:;
#MUSIC: sharaku.ogg;
#OFFSET:0.015;
#SAMPLESTART:55.574;
#SAMPLELENGTH:16.948;
#SELECTABLE:YES;
#BPMS:0.000=87.500,16.000=175.000,212.000=87.500,228.000=175.000;
#STOPS:260.000=1.029
;
#BGCHANGES:;

//---------------dance-single - ----------------
#NOTES:
     dance-single:
     :
     Challenge:
     20:
     1.000,1.000,0.362,0.107,1.000:
0000
0000
0000
0000
,
0000
0000
0000
0000
,
0000
0000
0000
0000
,
0000
0000
0000
0000
,
1001
0000
0001
0100
0001
0100
0010
1000
0010
0100
0001
0010
0100
1000
0100
0010
,
0001
0000
1000
0100
1000
0000
0001
0100
0001
0000
0000
0101
0000
0000
1010
0000
,
1000
0000
0001
0100
0001
0000
1000
0000
1010
0000
0000
0101
0000
0000
1001
0000
,
1000
0000
0010
0000
0110
0000
0000
0000
0101
0000
0000
1001
0000
0000
1010
0000
,
1000
0100
1000
0100
1000
0000
0010
0000
0101
0000
0010
1000
0010
0000
0100
0001
,
0100
0000
0010
0000
1000
0000
0100
0000
0020
0000
0000
0032
0000
0000
0013
0000
,
0100
0000
0010
0001
0100
0000
0010
0000
1000
0000
0000
0100
0000
0000
1000
0100
,
1000
0000
0001
0000
0100
0000
0010
0000
1000
0000
0000
0001
0000
0000
0100
0000
,
1010
0000
1000
0100
0010
0000
0001
0100
0010
0000
1000
0010
0100
0000
0001
1000
,
0002
0000
1003
0010
2010
0000
3001
0100
,
0001
0000
0001
0100
0010
0000
0000
1000
0000
0000
1000
0000
0010
0000
0100
0000
,
0001
0000
0100
0000
1000
0000
0100
0000
0001
0000
0100
0010
0100
0000
0001
0000
,
0100
0000
0010
1000
0010
0000
0100
0000
0001
0000
1000
0100
0010
0001
1000
0000
,
1001
0100
0010
1000
1010
0100
0001
0100
,
0101
0000
0001
1000
0010
0000
0100
0000
0101
0000
0000
1010
0000
0000
1001
0000
,
0001
0000
0100
0000
0010
0000
1000
0000
0100
0000
0010
0001
1000
0000
0010
0000
,
0100
0000
0001
0010
0001
0000
1000
0100
1000
0001
0100
0010
1000
0100
0010
0001
,
0100
0000
0010
1000
0010
1000
0001
0100
0001
0100
0010
1000
0010
1000
0001
0000
,
0100
0000
0010
0000
1000
0000
0100
0000
0010
0000
0001
0000
0100
0000
0001
1000
,
0001
0000
1000
0000
0100
0000
0010
0000
0001
0000
0100
0010
0100
0000
0010
0000
,
1010
0000
1000
0100
0010
0000
0001
0100
0010
0000
1000
0010
0100
0001
0100
0010
,
1000
0000
0001
0010
0001
0010
0100
1000
0100
0010
0001
0100
0010
1000
0001
0000
,
1000
0000
0001
0100
0010
1000
0100
0010
0001
0000
0000
0100
0000
0000
0010
0000
,
1000
0000
0100
0000
0010
0000
0001
0000
0100
0000
0010
1000
0010
0000
1000
0000
,
0001
0010
0001
0010
0100
1000
0100
1000
0010
0100
0010
0100
0001
1000
0001
1000
,
0001
0010
0001
1000
0100
1000
0001
0010
0001
1000
0100
1000
0001
0100
0010
0100
0010
1000
0100
0010
0001
0010
0100
1000
,
0001
0000
0010
0000
0100
0000
1000
0000
0100
0000
0010
0000
0001
0000
0100
0000
0010
0000
1000
0000
0010
0000
0100
0000
0001
0000
0000
0000
0000
0000
0100
0000
0000
0000
0000
0000
0100
0000
0000
0000
0000
0000
0010
0000
0000
1000
0000
0000
,
0020
0000
0000
0100
0000
0000
0130
0000
0002
0000
0000
1000
0000
0000
1003
0000
,
0001
0000
0100
0000
1000
0000
0100
0001
0200
0000
0000
0000
0320
0000
0000
0000
,
1030
0100
1000
0001
0010
0001
1000
0100
0010
0001
1000
0100
1000
0001
0010
0100
1000
0001
0010
0001
1000
0100
0010
0001
,
1000
0000
0100
0000
0010
0000
0001
0000
0010
0000
0100
0000
1000
0000
0001
0000
0010
0000
0001
0000
1000
0000
0010
0000
1000
0000
0000
0000
0000
0000
0000
0000
0000
0000
0000
0000
0001
0000
0000
0000
0000
0000
1000
0000
0000
0001
0000
0000
,
2000
0000
0000
0010
0000
0000
3010
0000
0200
0000
0000
0001
0000
0000
0301
0000
,
0011
0000
0001
0100
0010
1000
0100
0010
0100
1000
0001
0100
0010
1000
0100
0010
,
0001
0000
0100
0010
0100
0000
0001
0100
0001
0000
1000
0000
0100
0000
0001
0000
,
0100
0000
1000
0100
0010
0000
0001
0100
0010
0000
1000
0000
0001
0000
0100
0010
,
1000
0000
0000
1000
0010
0000
0100
0000
0001
0000
1000
0001
1000
0000
0010
0000
,
0100
0000
0000
0100
0001
0000
2000
0000
0020
0000
0000
0000
3030
0000
1000
0001
,
1000
0000
0001
0100
0001
0000
1000
0010
1000
0000
0001
0000
0100
0000
1000
0100
,
1000
0000
0100
0001
0100
0000
0010
1000
0010
0000
0100
0000
0001
0000
0100
1000
,
0100
0000
0000
0100
0010
0000
0000
0010
0001
0000
0001
1000
0001
0000
0001
0000
,
0100
0000
0010
0000
1000
0000
0010
0000
1010
0000
1000
0001
0100
0010
1000
0000
,
1010
0000
1000
0001
0100
0000
0100
0001
1000
0000
0010
0000
0100
0000
0001
0000
,
1000
0000
0001
0010
0001
0000
1000
0100
1000
0000
0001
0000
0100
0000
0010
0000
,
1000
0000
0000
1000
0010
0000
0000
0010
0100
0000
0000
0100
0001
0000
0000
0001
,
1000
0000
0000
1000
0010
0000
1000
0001
1000
0000
0010
0000
0100
0000
0001
1000
,
0100
0000
0100
0010
0001
0000
0010
0100
1000
0000
0001
0000
0100
0000
0010
1000
,
0001
0000
0100
0010
1000
0000
0100
0010
0001
0000
1000
0000
0010
0000
1000
0010
,
1000
0000
0000
0010
1000
0000
0000
0001
0100
0000
0000
0010
1000
0000
0000
0010
,
0100
0000
0001
1000
0001
0000
1000
0010
1000
0000
0001
0100
0010
1000
0001
1000
,
0001
0000
0000
0000
0000
0000
1000
0000
0100
0000
0000
0000
0000
0000
0010
0000
0001
0000
1000
0010
1000
0000
0001
0000
0100
0000
0000
0000
0010
0000
1000
0000
,
0001
0000
0000
0000
0100
0000
0010
0000
1000
0000
0001
1000
0010
0000
1000
0000
0001
0000
0000
0000
0100
0000
0000
0000
0010
0000
0000
0000
0000
0000
0000
0000
,
1000
0000
0000
0000
0000
0000
1000
0000
0100
0000
0000
0000
0000
0000
1000
0000
0010
0000
0100
0001
1000
0000
0010
0000
0100
0000
0000
0001
0000
0000
1000
0000
,
0010
0000
0000
0000
1000
0000
0000
0000
0001
0000
1000
0100
1000
0000
0001
0000
0100
0000
0000
0000
0010
0000
0000
0000
1000
0000
0000
0000
0000
0000
0000
0000
,
0001
0100
0001
0100
0010
1000
0010
2000
3001
0100
0001
0100
0010
1000
0100
0010
,
0001
0100
0010
1000
0100
0010
0001
0100
0010
1000
0100
0010
0001
0100
0010
1000
,
0010
0100
0001
0010
0001
1000
0100
0010
0001
0100
0010
1000
0100
1000
0001
0100
,
0010
0100
0001
0010
0001
1000
0100
1000
0001
0100
0010
1000
0100
0010
0001
0100
,
0010
1000
0100
0010
0100
1000
0100
0010
0001
0100
0010
1000
0100
0010
0001
0100
,
0010
1000
0100
0010
0100
1000
0001
0010
0001
1000
0100
1000
0001
0100
0010
0100
,
0001
0010
0001
0010
0100
1000
0100
1000
0010
0100
0010
0100
0001
0010
0001
0010
,
0001
1000
0100
1000
0001
0100
0010
0100
0001
1000
0010
0100
0001
1000
0100
1000
0001
0100
0010
1000
0001
1000
0010
0100
,
0001
0000
0000
0000
0200
0020
0000
0000
0000
0000
0330
0000
0010
0000
0000
0000
,
1001
0000
0000
0000
1100
0000
1000
0001
0100
0000
0100
0001
1000
0000
0010
0000
,
0100
0000
0001
0000
0101
0000
0010
1000
0010
0000
0100
0001
0100
0000
0010
0000
,
1000
0000
0100
0010
0100
0000
0010
0001
0010
0000
0100
0010
0100
0000
1000
0100
,
1000
0000
0001
0000
0100
0000
0000
0100
0010
0000
1000
0000
0001
0000
0100
0000
,
0001
0000
0100
0000
0110
0000
0010
1000
0010
0000
0100
0001
0100
0000
0010
0000
,
0010
0000
1000
0000
0001
0000
1000
0100
1000
0000
0001
0000
1000
0000
1000
0000
,
0001
0000
0100
0010
0100
0000
0001
0100
0001
0000
1000
0010
1000
0000
0001
0100
,
0001
0000
1000
0010
1000
0000
0001
1000
0001
0000
1000
0010
1000
0000
0001
0100
,
0010
1000
0001
1000
0001
0000
1000
0100
1000
0000
0001
0100
0010
0000
1000
0000
,
0100
0000
0001
0000
0100
0000
1000
0010
0100
0000
0001
0100
0010
0000
1000
0000
,
0001
0000
1000
0001
1000
0000
0000
1000
0100
0000
0000
0100
0010
0000
0001
1000
,
0001
1000
0100
0001
0100
1000
0001
0010
,
0100
0000
1000
0001
1000
0000
0100
0001
0100
0000
1000
0010
0100
0000
0001
0000
,
0100
0000
1000
0000
0100
0000
0001
0100
1000
0000
0100
0001
0100
0000
0010
0000
,
1000
0000
0001
0100
0001
0000
0000
1000
0010
0000
0000
0010
0100
0000
0001
1000
,
0001
0000
1000
0000
0001
0000
0100
0010
1000
0000
0100
0010
0001
0000
0100
0010
,
1000
0000
0000
0100
0000
0000
0010
0000
0000
0001
0000
0000
1000
0000
0100
0000
1000
0000
0100
0000
1000
0000
0100
0000
1000
0000
0100
0000
1000
0000
0100
0000
1000
0000
0100
0000
0010
0000
0001
0000
0010
0000
0001
0000
0010
0000
0001
0000
,
0010
0000
0001
0000
0010
0000
0001
0000
0010
0000
0100
0000
1000
0000
0000
0000
0000
0000
0010
0000
0000
0100
0000
0000
0001
0000
0000
1000
0000
0000
0100
0000
0000
0010
0000
0000
0001
0000
0000
0100
0000
0000
0010
0000
0000
1000
0000
0000
,
0001
0100
0010
1000
0001
0000
0100
0000
0110
0000
0010
0000
1010
0000
0000
1001
,
0000
0000
0101
0000
0010
0000
1000
0100
0010
0000
0001
0000
0101
0000
0000
1010
,
0000
0000
1001
0000
0101
0000
0010
1000
0100
0000
0010
0000
0011
0000
0000
1001
,
0000
0000
1010
0000
1000
0000
0001
0100
0010
1000
0001
0000
1001
0000
1000
0010
,
1000
0000
0001
0100
0001
0000
1000
0000
0100
0000
0001
0000
0101
0000
0000
1100
,
0000
0000
1001
0000
0001
0000
1000
0100
1000
0000
0001
0000
0110
0000
0000
1001
,
0000
0000
0101
0000
0001
0000
0100
0000
0010
0000
1000
0000
1010
0000
0000
1001
,
0000
0000
0101
0000
0001
0000
1000
0001
1000
0000
0001
0100
1010
0000
0000
1010
,
0000
1001
0000
0000
0000
0000
0000
0000
;

//---------------dance-single - Copied from----------------
#NOTES:
     dance-single:
     Copied from:
     Easy:
     5:
     0.233,0.295,0.099,0.149,0.000:
0000
0000
0000
0000
,
0000
0000
0000
0000
,
0000
0000
0000
0000
,
0000
0000
0000
0000
,
2002
0000
0000
3003
,
1000
0100
1000
0000
,
0001
0010
0001
0000
,
1000
0001
1000
0000
,
0001
0010
0001
0000
,
1001
0000
0100
0000
,
0001
0000
0100
0000
,
0010
0000
1000
0000
,
0100
0000
0010
0000
,
1000
0000
1000
0000
,
0001
0010
0001
0000
,
1000
0000
0001
0000
,
1000
0100
1000
0000
,
1001
0000
1010
0000
,
0001
0100
0001
0000
,
1000
0100
1000
0001
,
0010
0001
1000
0001
,
1001
0000
1001
0000
,
1000
0001
1000
0000
,
0001
0000
1000
0000
,
0001
1000
0001
0000
,
1000
0000
1000
0000
,
0001
0010
0001
0000
,
1000
0000
0010
0000
,
0100
0000
0001
0000
,
2000
3000
0020
0030
,
0200
0000
0300
0000
,
2000
3000
0020
0030
,
1000
0000
2000
3000
,
0200
0300
0002
0003
,
0200
0000
0000
0300
,
1001
0000
0110
0000
,
2002
0000
0000
3003
,
1000
0100
1000
0000
,
0001
0010
0001
0000
,
1000
0000
0010
0000
,
0100
0000
0001
0000
,
1000
0100
1000
0000
,
0001
0100
0001
0000
,
1000
0000
0010
0000
,
0100
0000
0001
0000
,
1000
0001
1000
0000
,
0001
0100
0001
0000
,
0010
0000
0010
0000
,
0100
0000
0100
0000
,
1000
0001
1000
0000
,
0001
0000
0001
0000
,
1000
0000
1000
0000
,
0010
0000
0010
0000
,
1001
0000
1000
0000
0001
0010
0001
0000
,
1000
0010
0100
0000
,
0001
1000
0010
0010
,
0100
0001
1000
0001
,
2002
0000
0000
0000
,
0000
0000
0000
0000
,
0000
0000
0000
0000
,
0000
0000
0000
3003
,
0010
0010
0100
0100
,
0010
0010
0100
0100
,
2002
0000
0000
3003
,
0020
0000
0000
0030
,
0000
0000
0000
0000
,
0000
1000
0001
1000
,
0000
0001
0100
0001
,
0000
1000
0000
0100
,
0000
0001
0000
0100
,
0000
1000
0000
0010
,
0000
0100
0000
0001
,
0000
1000
0000
0100
,
0000
0001
0000
0100
,
0000
1000
0000
0010
,
0000
0001
0000
0010
,
0000
1000
0000
0100
,
0000
0010
0000
0001
,
0000
0100
0000
0010
,
0000
1000
0000
0001
,
0000
0100
0000
0100
,
0000
0010
0000
1000
,
0001
2000
0000
3020
,
0000
2030
0000
0000
,
3000
1001
0000
0001
,
0000
0100
0000
1000
,
0000
0100
0000
0001
,
0000
0010
0000
1000
,
0000
0010
0000
0001
,
0000
0100
0000
0010
,
0000
1000
0000
0000
,
0000
0000
0000
0001
,
0000
1001
0000
0000
0000
0000
0000
0000
;

//---------------dance-single - Copied from Copied f----------------
#NOTES:
     dance-single:
     Copied from Copied f:
     Hard:
     15:
     0.771,0.851,0.462,0.355,0.469:
0000
0000
0000
0000
,
0000
0000
0000
0000
,
0000
0000
0000
0000
,
0000
0000
0000
0000
,
1001
0001
0010
0100
1000
0010
0100
0001
,
1000
0000
1000
0000
0100
0000
0010
0000
0001
0000
0000
0101
0000
0000
1010
0000
,
1000
0000
0001
0000
1000
0000
0010
0000
0101
0000
0000
1010
0000
0000
1010
0000
,
1000
0000
0010
0000
0100
0000
0000
0000
0101
0000
0000
1001
0000
0000
1010
0000
,
1000
0000
0100
0000
1000
0000
0010
0000
0100
0000
0010
1000
0010
0000
0100
0001
,
0100
0000
0010
0000
1000
0000
0100
0000
0020
0000
0000
0032
0000
0000
0013
0000
,
0100
0000
0010
0001
0100
0000
0010
0000
1000
0000
0000
0100
0000
0000
1000
0100
,
1000
0000
0001
0000
0100
0000
0010
0000
1000
0000
0000
0001
0000
0000
0100
0000
,
1010
0000
1000
0100
0010
0000
0001
0100
0010
0000
1000
0010
0100
0000
0001
1000
,
0002
0000
1003
0010
2000
0000
3001
0100
,
0001
1000
0001
0000
0100
0000
0010
0000
0000
1000
0000
0000
0010
0000
0100
0000
,
0001
0000
0100
0000
1000
0000
0100
0000
0001
0000
0100
0010
0100
0000
0001
0000
,
0100
0000
0010
1000
0010
0000
0100
0000
0001
0000
1000
0100
0010
0001
1000
0000
,
0001
0100
0010
1000
0010
1000
0100
0010
,
0001
0000
0001
0000
0100
0000
0001
0000
0101
0000
0000
1010
0000
0000
1001
0000
,
0002
0000
0203
0000
0310
0000
0001
0010
,
0100
0000
1000
0001
1000
0000
0001
0100
0001
0010
0100
1000
0100
0010
0001
0100
,
0020
0000
0130
0001
0200
0000
0310
1000
,
0001
0000
0001
0010
0100
0000
1000
0000
0002
0000
0000
0000
1003
0000
0100
0000
,
0020
0000
0000
0000
0031
0000
0010
0000
0001
0000
1000
0001
1000
0000
0010
0000
,
1010
1001
0202
0303
,
1001
0000
1000
0010
2000
0000
3001
0100
,
0010
0000
0100
0001
0100
0000
0010
0000
1000
0000
0000
0100
0000
0000
0010
0000
,
0001
0000
0000
0000
0010
0000
0000
0000
0100
0000
1000
0010
1000
0000
0001
0000
,
1000
0100
0001
0100
1000
0010
0100
0001
,
0200
0000
0000
0000
0000
0000
0000
0000
0320
0000
0000
0000
0000
0000
0031
1000
,
0002
0000
0000
0000
0000
0000
0013
0100
,
2000
0000
0000
0100
0000
0000
3100
0000
0020
0000
0000
0001
0000
0000
0031
0000
,
0010
0100
1000
0100
2000
0000
3020
0000
,
0230
0000
0000
0000
0000
0000
0000
0000
0302
0000
0000
0000
0000
0000
1003
0010
,
0200
0000
0000
0000
0000
0000
0000
0000
0000
0000
0000
0000
0301
0000
1000
0001
,
2000
0000
0000
0010
0000
0000
3010
0000
0200
0000
0000
0001
0000
0000
0301
0000
,
0010
0000
0001
0100
0010
1000
0100
0010
0100
1000
0001
0100
0010
1000
0100
0010
,
0001
0000
0101
0000
0100
0010
1000
0010
,
0110
0000
0000
0000
1001
0000
0000
0000
0001
0000
0010
0000
0100
0000
0000
0100
,
1000
0000
0000
1000
0010
0000
0100
0000
0001
0000
1000
0001
1000
0000
0010
0000
,
0100
0000
0000
0100
0001
0000
2000
0000
0020
0000
0000
0000
3030
0000
0000
0000
,
1001
0000
0101
0000
0001
0100
0010
1000
,
1100
0000
0110
0000
0011
0000
0100
0010
,
1000
0000
0000
0100
0010
0000
0000
0010
0001
0000
1000
0000
0001
0000
0100
0000
,
0010
1000
0010
1000
1010
0000
1000
0000
,
1010
0000
1001
0000
1000
0010
0100
0001
,
1001
0000
0001
0000
1010
0001
0100
0010
,
1000
0000
0000
1000
0010
0000
0000
0010
0100
0000
0000
0100
0001
0000
0000
0001
,
1000
0000
0000
1000
0010
0000
1000
0000
0001
0000
0010
0000
0100
0000
0000
0000
,
1001
0110
0022
0033
,
1100
0011
0202
0303
,
1010
0000
0000
0010
1000
0000
0000
0001
0100
0000
0000
0010
1000
0000
0000
0010
,
0100
0000
0001
1000
0001
0000
1000
0010
1000
0000
0001
0100
0010
1000
0001
1000
,
0001
0000
0000
0000
0000
0000
1000
0000
0100
0000
0000
0000
0000
0000
0010
0000
0001
0000
1000
0010
1000
0000
0001
0000
0100
0000
0000
0000
0010
0000
1000
0000
,
0001
0000
0000
0000
0100
0000
0010
0000
1000
0000
0001
1000
0010
0000
1000
0000
0001
0000
0000
0000
0100
0000
0000
0000
0010
0000
0000
0000
0000
0000
0000
0000
,
1000
0000
0000
0000
0000
0000
1000
0000
0100
0000
0000
0000
0000
0000
1000
0000
0010
0000
0100
0001
1000
0000
0010
0000
0100
0000
0000
0001
0000
0000
1000
0000
,
0010
0000
0000
0000
1000
0000
0000
0000
0001
0000
1000
0100
1000
0000
0001
0000
0100
0000
0000
0000
0010
0000
0000
0000
1000
0000
0000
0000
0000
0000
0000
0000
,
0002
0000
0000
0010
0023
0000
0000
1000
,
2030
0000
3020
0000
0032
0000
0200
0003
,
0320
2030
3200
0320
,
0032
0000
2003
0000
0000
0000
0002
3003
,
0001
0100
0001
0100
0010
1000
0010
1000
,
0100
0010
0001
0100
0010
1000
0001
1000
,
0001
0010
0001
0010
0100
1000
0100
1000
0010
0100
0010
0100
0001
0010
0001
2000
,
0002
0000
0000
0000
,
3003
0000
0000
0000
0200
0020
0000
0000
0000
0000
0330
0000
0010
0000
0000
0000
,
1001
0000
1100
0000
0110
0000
0001
0100
,
0010
1000
0100
0000
0110
0000
0101
0000
,
0001
0100
0010
1000
0100
0010
0001
0100
,
0010
1000
0001
1000
0010
1000
0001
0100
,
0001
0100
0110
0000
1010
0000
1000
0100
,
0010
0100
0110
0000
0101
0000
0010
1000
,
0100
0000
0010
0000
0001
0000
0000
0100
1000
0000
0100
0000
0001
0000
0010
0000
,
1000
0000
0010
0000
0001
0000
1000
0001
1000
0000
0010
1000
0010
0000
0001
0100
,
0010
1000
0001
1000
0001
0000
0000
0000
1100
0000
0000
0000
0100
0000
0001
0000
,
0100
0001
0101
0000
1010
0000
0001
1000
,
0001
0000
0000
0001
1000
0000
0000
1000
0100
0000
0000
0100
0010
0000
0000
1000
,
0001
1000
0100
0001
0100
1000
0001
0010
,
0100
0000
1100
0000
0101
0000
0001
0100
,
1000
0100
0001
0000
1010
0000
0100
0010
,
1000
0000
0001
0100
0001
0000
0000
1000
0010
0000
0000
0010
0100
0000
0001
1000
,
0001
0000
1000
0000
0001
0000
0100
0010
1000
0000
0100
0010
0001
0000
0100
0010
,
1000
0100
0010
0001
2000
0000
0000
0000
0000
0000
0000
0000
3020
0000
0000
0000
,
0000
0000
0000
0000
1030
0000
0010
0100
0001
1000
0100
0010
0001
0100
0010
1000
,
0001
0100
0010
1000
0001
0000
0100
0000
0010
0000
1000
0000
1010
0000
0000
1001
,
0000
0000
0101
0000
0010
0000
1000
0000
0100
0000
0010
0000
0011
0000
0000
1010
,
0000
0000
1001
0000
0001
0000
0010
0000
0100
0000
0010
0000
0011
0000
0000
1001
,
0000
0000
1010
0000
1000
0000
0001
0000
0010
0000
0001
0000
0001
0000
1000
0010
,
1000
0000
0001
0100
0001
0000
1000
0000
0100
0000
0001
0000
0001
0000
0000
1000
,
0000
0000
1000
0000
0001
0000
1000
0000
0100
0000
0010
0000
0001
0000
0000
1000
,
0000
0000
0001
0000
0001
0000
0100
0000
0010
0000
1000
0000
1010
0000
0000
1001
,
0000
0000
0101
0000
0001
0000
1000
0001
1000
0000
0001
0100
0010
0000
0000
1000
,
0000
1010
0000
0000
0000
0000
0000
0000
;

//---------------dance-single - Copied from Copied f----------------
#NOTES:
     dance-single:
     Copied from Copied f:
     Medium:
     9:
     0.547,0.720,0.426,0.412,0.110:
0000
0000
0000
0000
,
0000
0000
0000
0000
,
0000
0000
0000
0000
,
0000
0000
0000
0000
,
2002
0000
0000
3003
,
1000
0000
0000
0000
0100
0000
0000
0000
0010
0000
0000
0001
0000
0000
0100
0000
,
0010
0000
0000
0000
1000
0000
0000
0000
0100
0000
0000
0010
0000
0000
0001
0000
,
1000
0000
0000
0000
0010
0000
0000
0000
0100
0000
0000
0001
0000
0000
0100
0000
,
0010
1000
0001
0001
,
1001
0000
0000
0000
1000
0000
0000
0000
0001
0000
0000
1000
0000
0000
0001
0000
,
1000
0000
0000
0000
0100
0000
0000
0000
0001
0000
0000
0100
0000
0000
1000
0000
,
0001
0000
0000
0000
0100
0000
0000
0000
1000
0000
0000
0100
0000
0000
0001
0000
,
1000
0010
0100
0001
,
2000
0000
3000
0001
0200
0000
0300
0010
,
1000
0000
0001
0000
1000
0000
0001
0010
,
0001
0000
1000
0000
0010
0100
0010
0000
,
2000
3200
0320
0030
,
2002
3003
2020
3030
,
0001
0000
0000
0000
0100
0000
0000
0000
0001
0000
0000
1000
0000
0000
0001
0000
,
2000
0000
3200
0000
0310
0000
0001
0010
,
0100
0000
1000
0001
0100
0010
1000
0001
,
0020
0000
0130
0001
0200
0000
0310
1000
,
0001
0010
0100
1000
0002
0000
1003
0100
,
0020
0000
0031
0010
0001
0000
1000
0000
,
1010
1001
0202
0303
,
1001
0000
1000
0010
2000
0000
3001
0100
,
0010
0000
0000
0000
0101
0000
0000
0000
1001
0000
0000
0100
0000
0000
0010
0000
,
0001
0010
0100
1000
,
0010
0100
0001
0000
1000
0010
1000
0000
,
0200
0000
0320
0000
,
0032
0000
0000
0000
0000
0000
0013
0100
,
2000
0000
0000
0000
3020
0000
0000
0030
,
1000
0100
1000
0100
2000
0000
3020
0000
,
0230
0000
0302
0000
,
0203
0000
0000
0301
,
1001
0000
0110
0000
,
2002
0000
0000
0000
0000
0000
0000
3003
,
1001
0000
0101
0000
1001
0000
0000
0010
,
1000
1001
1001
0000
,
0001
0000
0010
0000
0100
1000
0100
0000
,
1000
0001
1000
0000
2020
0000
3030
0000
,
1001
0000
0101
0000
0101
0000
0000
1000
,
0100
0110
0011
0100
,
1000
0000
0100
0000
0010
0001
0010
0000
,
0100
1000
0010
0000
1010
0000
1000
0000
,
1010
0000
1001
0000
1001
0000
0000
0001
,
1000
1001
1010
0001
,
1000
0000
0010
0000
0100
0001
0100
0000
,
0010
1000
0010
0000
1001
0000
0100
0000
,
1001
0110
0022
0033
,
1100
0011
0202
0303
,
1010
1000
1001
0001
,
1000
0100
1000
0000
0001
0100
0001
0000
,
1001
0000
0000
1000
0100
0000
0000
0010
0001
1000
0001
0000
0100
0000
0010
1000
,
0001
0000
0100
0010
1000
0001
0010
0100
1000
0000
0100
0000
0010
0000
0000
0000
,
1000
0000
0000
0000
0000
0000
1000
0000
0100
0000
0000
0000
0000
0000
1000
0000
0010
0000
0100
0000
0001
0000
0010
0000
0100
0000
0000
1000
0000
0000
0100
0000
,
0010
0000
1000
0000
0001
1000
0100
0010
0001
0000
0010
0000
0001
0000
0000
0000
,
0002
0000
0023
0000
,
2030
0000
3020
0000
0032
0000
0200
0003
,
0320
2030
3200
0320
,
0032
0000
2003
0000
0002
0000
0000
3003
,
0001
0100
0001
0100
0010
1000
0010
1000
,
0100
0010
0001
0100
0010
1000
0001
1000
,
2002
0000
0000
3003
,
0020
0000
0000
0030
,
1001
0000
0000
0000
0200
0020
0000
0000
0000
0000
0330
0000
0010
0000
0000
0000
,
1001
1000
0001
0010
,
1000
0010
0001
0000
0010
0000
0100
0000
,
1000
0000
0100
0000
0010
0001
0010
0000
,
0100
1000
0010
0100
,
0001
1001
1010
1010
,
0000
0100
0010
0000
0101
0000
1001
0000
,
1000
0000
0001
0000
0100
0000
0010
1000
,
0010
0000
0100
0001
0100
0000
0001
1000
,
0001
1001
1100
0101
,
0100
0001
0100
0000
1010
0000
0001
1000
,
0001
0100
0010
1000
,
0001
0000
1000
0100
0001
0000
0101
0000
,
1000
1100
0101
0101
,
0000
0100
0001
0000
1010
0000
1001
0000
,
0001
1000
0100
0001
,
0100
0000
1000
0000
0010
0100
0001
0000
,
1001
2000
0000
3020
,
0000
0000
1030
0001
0100
0010
1000
0100
,
0010
0000
0001
0000
1000
0000
0100
0000
0010
0000
1000
0000
0010
0000
0000
1000
,
0000
0000
0001
0000
0010
0000
0100
0000
1000
0000
0100
0000
0010
0000
0000
0001
,
0000
0000
1000
0000
0001
0000
0010
0000
0100
0000
0010
0000
0001
0000
0000
1000
,
0000
0010
1000
0001
0010
0001
0001
1000
,
1000
0000
0001
0000
0001
0000
1000
0000
0010
0000
0001
0000
0010
0000
0000
1000
,
0000
0000
1000
0000
0001
0000
1000
0000
0100
0000
0010
0000
0001
0000
0000
1000
,
0000
0000
0001
0000
0001
0000
0100
0000
0010
0000
1000
0000
0010
0000
0000
1000
,
0000
0000
0001
0000
0001
0000
1000
0000
1000
0000
0001
0000
0010
0000
0000
1000
,
0000
1010
0000
0000
0000
0000
0000
0000
;

//---------------dance-single - ----------------
#NOTES:
     dance-single:
     :
     Beginner:
     3:
     0.145,0.229,0.050,0.071,0.000:
0000
0000
0000
0000
,
0000
0000
0000
0000
,
0000
0000
0000
0000
,
0000
0000
0000
0000
,
2002
0000
0000
3003
,
1000
0000
0000
0000
,
0001
0000
0000
0000
,
1000
0000
0000
0000
,
0001
0000
0000
0000
,
1001
0000
0000
0000
,
0001
0000
0000
0000
,
0010
0000
0000
0000
,
0100
0000
0000
0000
,
1000
0000
1000
0000
,
0001
0000
0000
0000
,
1000
0000
0001
0000
,
1000
0000
0000
0000
,
1000
0000
0010
0000
,
1000
0000
0000
0000
,
1000
0000
1000
0000
,
0001
0000
1000
0000
,
1000
0000
0001
0000
,
0010
0000
0000
0000
,
0001
0000
0010
0000
,
0001
0000
0000
0000
,
1000
0000
1000
0000
,
0001
0000
0000
0000
,
1000
0000
0010
0000
,
0100
0000
0001
0000
,
2000
3000
0020
0030
,
0200
0000
0300
0000
,
1000
0000
0010
0000
,
1000
0000
0001
0000
,
1000
0000
0001
0000
,
1000
0000
0000
0000
,
0001
0000
0100
0000
,
2002
0000
0000
3003
,
1000
0000
1000
0000
,
0001
0000
0001
0000
,
1000
0000
0000
0000
,
0100
0000
0000
0000
,
1000
0000
1000
0000
,
0001
0000
0001
0000
,
1000
0000
0000
0000
,
0100
0000
0000
0000
,
1000
0000
1000
0000
,
0001
0000
0001
0000
,
0010
0000
0000
0000
,
0100
0000
0000
0000
,
1000
0000
1000
0000
,
0001
0000
0001
0000
,
1000
0000
1000
0000
,
0010
0000
0010
0000
,
1000
0000
0001
0000
,
1000
0000
0100
0000
,
0001
0000
0010
0000
,
0100
0000
1000
0000
,
2002
0000
0000
0000
,
0000
0000
0000
0000
,
0000
0000
0000
0000
,
0000
0000
0000
3003
,
1000
0000
0001
0000
,
0010
0000
0100
0000
,
1001
0000
0000
0000
,
0020
0000
0000
0030
,
0000
0000
0000
0000
,
0000
1000
0000
1000
,
0000
0001
0000
0001
,
0000
1000
0000
0000
,
0000
0001
0000
0000
,
0000
1000
0000
0000
,
0000
0100
0000
0000
,
0000
1000
0000
0000
,
0000
0001
0000
0000
,
0000
1000
0000
0000
,
0000
0001
0000
0000
,
0000
1000
0000
0000
,
0000
0010
0000
0000
,
0000
0100
0000
0000
,
0000
1000
0000
0000
,
0000
0100
0000
0000
,
0000
0010
0000
1000
,
0000
1000
0000
0010
,
0000
1000
0000
0000
,
0000
1001
0000
0001
,
0000
0100
0000
1000
,
0000
0100
0000
0001
,
0000
0010
0000
1000
,
0000
0010
0000
0001
,
0000
0100
0000
0010
,
0000
1000
0000
0000
,
0000
0000
0000
0001
,
0000
1001
0000
0000
0000
0000
0000
0000
;
