#TITLE:Sapphire;
#SUBTITLE:;
#ARTIST:voltex;
#TITLETRANSLIT:;
#SUBTITLETRANSLIT:;
#ARTISTTRANSLIT:;
#CREDIT:;
#BANNER:;
#BACKGROUND:;
#LYRICSPATH:;
#CDTITLE:;
#MUSIC:Sapphire.ogg;
#OFFSET:-0.102;
#SAMPLESTART:0.102;
#SAMPLELENGTH:15.000;
#SELECTABLE:YES;
#BPMS:0.000=67.500;
#STOPS:;
#BGCHANGES:;

//---------------dance-single - ----------------
#NOTES:
     dance-single:
     :
     Hard:
     15:
     0.669,0.701,0.058,0.058,1.000: // measure 1
0000
0000
0000
0000
,  // measure 2
1000
0000
0000
0001
0000
0000
0100
0000
0010
0000
0000
0010
1000
0000
0100
0000
0010
0000
0000
0001
0000
0000
0100
0000
0010
1000
0000
1000
0010
0000
0100
0000
,  // measure 3
0001
0000
0000
1000
0010
0000
0100
0000
0001
0100
0000
0100
0001
0000
0010
0000
0100
1000
0000
0100
1000
0000
0100
0000
0010
0001
0000
0010
0001
0000
0100
0000
,  // measure 4
0010
1000
0000
0001
0100
0000
0010
0000
1000
0001
0000
0001
1000
0000
0100
0000
0010
0001
0010
0001
1000
0100
1000
0100
0010
0001
0010
0001
1000
0001
1000
0100
,  // measure 5
0010
0000
0000
0000
0001
0010
0001
0000
0010
0000
1000
0010
0000
0100
0001
1000
0010
0000
0100
0000
0001
1000
0001
0000
0100
0010
1000
0100
0000
0010
0001
0100
,  // measure 6
0001
0000
1000
0000
0010
0100
0010
0000
1000
0000
0001
0010
0000
0100
1000
0001
0100
0000
0010
0000
1000
0100
0010
0000
0001
0100
0010
1000
0000
0010
0100
0001
,  // measure 7
1000
0000
0010
0000
0100
0001
0100
0000
0010
0000
1000
0010
0000
0100
0001
0100
0010
0000
1000
0000
0100
0010
0001
0000
0010
0000
0100
1000
0000
0001
0100
0010
,  // measure 8
1000
0000
0001
0000
0100
0010
0100
0000
0001
0000
0100
0010
0000
0010
1000
0010
1000
0000
0100
0000
0010
0001
0010
0000
0001
0100
0010
1000
0000
0100
0010
0000
,  // measure 9
0001
0000
1000
0000
0100
0010
0001
0000
0100
0000
0010
1000
0000
0010
0100
0001
0100
0000
0010
0000
1000
0100
0010
0000
0001
0000
0010
0100
0000
1000
0001
0100
,  // measure 10
0010
0000
1000
0000
0100
0010
0001
0000
0100
0000
0010
1000
0000
0010
1000
0010
1000
0000
0001
0000
1000
0010
0100
0000
0001
1000
0100
0010
0000
0001
0100
0010
,  // measure 11
1000
0000
0010
0000
0100
0001
0100
0000
0010
0000
1000
0100
0000
0010
0001
0100
0010
0000
1000
0000
0001
1000
0001
0000
1001
1000
0001
0100
0000
0010
1000
0010
,  // measure 12
0100
0000
0001
0000
0100
0010
0100
0000
0001
0000
0100
0010
0000
1000
0010
0100
0001
0010
0001
0010
0100
1000
0100
1000
0001
0100
0001
0100
0010
1000
0010
1000
,  // measure 13
0001
0000
0100
0000
0010
0000
1000
0000
1100
0000
0000
0010
0000
0000
0001
0000
1000
0000
0001
0000
0100
0010
0100
0000
0001
0010
0100
1000
0000
1000
0100
0010
,  // measure 14
0001
0000
1000
0000
0001
0010
1000
0000
0010
0000
0001
0100
0000
0100
0001
0100
0010
1000
0010
1000
0001
0100
0001
0100
0010
1000
0010
1000
0001
0100
0001
0100
,  // measure 15
0002
0000
0000
0000
0000
0000
0000
0000
1003
0000
0000
1000
0010
0000
0100
0000
0002
0000
0000
0100
0000
0000
1000
0000
1003
0000
0000
0010
0100
0000
0001
0000
,  // measure 16
0100
0000
0000
0010
0000
0000
1000
0000
1010
0000
0000
0100
0001
0000
1000
0000
0001
0010
0001
0010
0100
1000
0100
1000
0001
0100
0001
0100
0010
1000
0010
1000
,  // measure 17
0001
0100
0000
0100
0001
0000
0010
0000
1000
0010
0000
0010
1000
0000
0001
0000
0100
0010
0000
0010
0100
0000
0001
0000
1000
0010
0000
0010
1000
0000
0001
0000
,  // measure 18
0100
0010
0000
0010
1000
0000
0001
0000
0100
0010
0000
0010
1000
0000
0100
0000
0010
0001
0000
0001
1000
0000
0010
0000
0100
0001
0000
0001
0010
0000
0001
0000
,  // measure 19
2002
0000
0000
0000
,  // measure 20
0000
0000
0000
3003
,  // measure 21
1000
0000
0000
0000
0010
0000
0000
0000
0100
0100
0001
0000
1000
1000
0001
0000
,  // measure 22
1001
0001
0100
0010
1000
0100
0010
0001
0100
0000
0000
0000
0010
0000
0000
0000
,  // measure 23
1000
0000
0100
0000
0010
0001
0010
0000
0100
0000
0000
1000
0000
0000
0010
0000
0100
0000
0001
0000
1000
0100
0010
0000
0001
0000
0000
0100
0000
0000
0010
0000
,  // measure 24
1000
0000
0100
0000
0001
0100
1000
0000
0010
0000
0000
0100
0000
0000
0001
0000
0100
0010
1000
0100
0010
0001
0100
0010
0100
0001
1000
0010
1000
0001
0100
0010
,  // measure 25
1000
0000
0001
0000
0100
0010
0100
0000
0001
0000
1000
0010
0000
0100
0001
0100
0010
0000
1000
0000
0001
0100
0010
0000
1000
0100
0010
0001
0000
0100
0010
1000
,  // measure 26
0001
0000
0100
0000
0010
1000
0010
0000
0100
0000
0001
0100
0000
0010
1000
0100
0010
0000
0001
0000
0100
0010
1000
0000
0001
0100
0010
1000
0000
0100
1000
0000
,  // measure 27
2002
0000
0000
0000
,  // measure 28
0000
0000
0000
3003
;

//---------------dance-single - Copied from----------------
#NOTES:
     dance-single:
     Copied from:
     Easy:
     6:
     0.215,0.243,0.078,0.039,0.000:
0000
0000
0000
0000
,
1000
0001
0100
0010
,
1000
0100
0010
0001
,
0100
0000
0010
0000
1000
0001
1000
0001
,
1000
0010
0100
0001
,
0100
0110
0000
1001
0000
0000
0000
0000
,
1000
0001
1000
0000
0001
0100
0001
0000
,
1000
0010
0100
0000
0001
0100
0010
0000
,
1000
0100
0010
0000
0001
0010
0100
0000
,
1000
0100
1000
0100
0010
0001
0100
0001
,
0100
0010
1000
0010
0100
0001
0100
0010
,
1000
0001
1000
0001
0100
0010
0100
0010
,
1000
0001
0101
0000
0010
1000
0101
0000
,
0001
0100
0110
0000
1000
1000
0001
0001
,
1000
0010
0100
0001
,
0100
0010
1000
0100
,
0001
0010
0100
1000
0001
0100
1000
0001
,
0010
0100
0010
0001
0100
0010
1000
0001
,
2002
0000
0000
0000
,
0000
0000
0000
3003
,
1000
0000
0010
0000
0100
0001
1000
0001
,
1001
0100
1000
0010
0100
0000
0010
0000
,
1000
0100
1000
0100
0010
0001
0010
0001
,
0100
0010
0100
0010
1000
0001
0100
0010
,
1000
0100
0010
0001
0100
0010
1000
0100
,
0010
0100
1000
0001
1000
0000
0000
0000
,
2002
0000
0000
0000
,
0000
0000
0000
3003
;

//---------------dance-single - Copied from Copied f----------------
#NOTES:
     dance-single:
     Copied from Copied f:
     Medium:
     11:
     0.398,0.445,0.058,0.039,0.583:
0000
0000
0000
0000
,
1000
0000
0000
0001
0000
0000
0100
0000
0010
0000
0000
0000
1000
0000
0100
0000
0010
0000
0000
0001
0000
0000
0100
0000
0010
0000
0000
0000
1000
0000
0100
0000
,
0001
0000
0100
0010
0001
0000
0001
0010
0100
0000
1000
0100
0010
0000
0001
0100
,
0010
0000
0100
0010
1000
0000
1000
0100
0010
0001
0010
0001
1000
0100
1000
0100
,
0010
0000
0001
0000
0010
0000
0000
0000
0100
0000
0000
0100
0000
0000
1000
0000
0010
0000
0100
0000
0001
0000
0000
0000
0100
0000
0000
0010
0000
0000
1000
0000
,
0001
0000
1000
0000
0001
0000
0000
0000
0010
0000
0000
0100
0000
0000
1000
0000
0001
0000
0010
0000
0001
0000
0000
0000
1000
0000
0000
0001
0000
0000
1000
0000
,
1000
0000
0010
0000
0100
0000
0000
0000
0010
0000
0000
1000
0000
0000
0100
0000
0010
0000
0001
0000
0100
0000
0001
0000
0010
0000
0000
0100
0000
0000
0100
0000
,
1000
0000
0001
0000
0100
0000
0000
0000
0001
0000
0000
0010
0000
0000
0100
0000
1000
0000
0100
0000
0010
0000
0000
0000
0001
0000
0000
1000
0000
0000
0001
0000
,
0100
0000
0010
0000
0100
0000
0000
0000
0001
0000
0000
0000
0000
1000
0100
1000
0100
0000
0010
0000
0001
0000
0000
0000
0001
0000
0000
0000
0000
1000
0001
1000
,
0001
0000
1000
0000
0100
0000
0000
0000
0010
0000
0000
0010
0000
0000
0001
0000
0100
0000
0010
0000
1000
0000
0000
0000
0100
0000
0000
0100
0000
0000
0010
0000
,
0001
0000
1000
0000
0001
0000
0000
0000
0100
0000
0000
0010
0000
0000
1000
0000
0001
0000
0100
0000
0010
0000
0000
0000
1000
0000
0000
0100
0000
0000
0001
0000
,
0100
1000
0100
0000
0010
0001
0010
0000
0001
0100
0001
0100
0010
1000
0010
1000
,
0001
0000
0100
0000
0010
0000
1000
0000
1100
0000
0000
0010
0000
0000
0001
0000
1000
0000
0001
0000
0010
0000
0100
0000
1000
0000
0100
0000
1000
0000
0100
0000
,
0010
0001
0010
0001
0100
0010
0100
0010
1000
0100
1000
0100
0010
0001
0100
0010
,
1000
0000
0000
0000
1001
0000
0010
1000
0100
0000
0000
0000
0011
0000
0001
1000
,
0010
0100
0010
0100
0001
0010
0100
1000
0100
0010
0001
0100
0010
1000
0100
0010
,
0001
0010
0100
1000
0001
0100
1000
0001
,
0010
0100
0010
0001
0100
0010
1000
0001
,
2002
0000
0000
0000
,
0000
0000
0000
3003
,
1000
0000
0010
0000
0100
0001
1000
0001
,
1001
0100
1000
0010
0100
0000
0010
0000
,
1000
0000
0100
0000
1000
0000
0000
0000
0001
0000
0000
0100
0000
0000
0010
0000
1000
0000
0100
0000
0010
0000
0000
0000
0001
0000
0000
0100
0000
0000
0010
0000
,
1000
0100
0001
1000
0010
0001
0100
1000
0100
0001
0100
0010
1000
0100
0001
0100
,
1000
0000
0010
0000
0100
0000
0001
0000
0100
0000
0010
0000
1000
0000
0100
0000
0010
0000
0001
0000
1000
0010
1000
0000
0010
0000
0000
0100
0000
0000
0001
0000
,
0100
0010
1000
0010
0100
0001
1000
0100
0010
0000
0000
0000
0000
0000
0000
0000
,
2002
0000
0000
0000
,
0000
0000
0000
3003
;

//---------------dance-single - ----------------
#NOTES:
     dance-single:
     :
     Beginner:
     1:
     0.050,0.087,0.000,0.010,0.000:
0000
0000
0000
0000
,
0000
0000
0000
0000
,
1000
0000
0000
0000
,
0001
0000
0000
0000
,
0010
0000
0000
0000
,
1000
0000
0000
0000
,
0001
0000
0000
0000
,
1000
0000
0000
0000
,
0010
0000
0000
0000
,
0001
0000
0001
0000
,
1000
0000
0010
0000
,
0100
0000
0001
0000
,
0100
0000
0010
0000
,
1000
0000
0001
0000
,
1000
0000
0000
0000
,
0001
0000
0100
0000
,
0010
0000
0000
0000
,
0001
0000
0000
0000
,
2000
0000
0000
0000
,
3000
0000
0000
0000
,
0001
0000
0000
0000
,
0100
0000
0000
0000
,
1000
1000
1000
0000
,
0001
0001
0001
0000
,
0100
0000
0010
0000
,
1000
0000
0001
0000
;
