#TITLE:SMS;
#SUBTITLE:;
#ARTIST:Barcode Brothers;
#TITLETRANSLIT:;
#SUBTITLETRANSLIT:;
#ARTISTTRANSLIT:;
#CREDIT:;
#BANNER:;
#BACKGROUND:;
#LYRICSPATH:;
#CDTITLE:;
#MUSIC:sms.ogg;
#OFFSET:-0.900;
#SAMPLESTART:55.200;
#SAMPLELENGTH:14.307;
#SELECTABLE:YES;
#BPMS:0.000=134.220;
#STOPS:188.000=0.020
;
#BGCHANGES:;

//---------------dance-single - ----------------
#NOTES:
     dance-single:
     :
     Easy:
     6:
     0.301,0.297,0.255,0.255,0.000: // measure 1
0000
0000
1000
0001
,  // measure 2
2002
0000
3003
0000
0011
0000
0000
0220
,  // measure 3
0000
0330
0000
0000
0010
0000
0200
0000
,  // measure 4
1000
0000
1300
0000
0020
0000
0000
0130
,  // measure 5
0000
0000
0001
0100
,  // measure 6
0010
1000
0100
0010
,  // measure 7
0001
0001
0010
0010
,  // measure 8
0100
0100
1000
1000
,  // measure 9
0100
0100
0010
0010
,  // measure 10
0001
0001
0100
0100
,  // measure 11
0010
0010
1000
1000
,  // measure 12
0010
0010
0100
0100
,  // measure 13
0001
0001
0010
0010
,  // measure 14
0100
0100
1000
0010
,  // measure 15
1010
0110
0202
0303
,  // measure 16
0000
0000
0010
2000
,  // measure 17
3000
0100
0020
0030
,  // measure 18
0000
0000
0001
0010
,  // measure 19
0022
0000
0033
0000
,  // measure 20
0000
0000
0100
1000
,  // measure 21
2200
0000
3300
0000
,  // measure 22
0020
0030
0002
0003
,  // measure 23
0100
0010
1000
0000
,  // measure 24
0010
0100
0001
0000
,  // measure 25
0010
0100
1000
0010
,  // measure 26
1000
0001
0100
0000
,  // measure 27
0010
1000
0100
0000
,  // measure 28
0010
0001
0010
0000
,  // measure 29
0011
0000
0110
0000
,  // measure 30
0010
0100
1000
0100
,  // measure 31
1100
0000
0001
1000
,  // measure 32
1001
0000
0000
0000
1100
0000
0000
0110
,  // measure 33
0000
0000
0100
0020
,  // measure 34
0001
0000
0031
0000
0200
0000
0000
0310
,  // measure 35
0000
0000
1000
0010
,  // measure 36
1010
0000
0000
0000
0110
0000
0000
0101
,  // measure 37
0000
0000
0100
0002
,  // measure 38
0010
0000
0013
0000
0200
0000
0000
1300
,  // measure 39
0000
0000
0100
0010
,  // measure 40
0110
0000
0000
0000
0011
0000
0000
1001
,  // measure 41
0000
0000
1000
0002
,  // measure 42
0010
0000
0013
0000
0200
0000
0000
1300
,  // measure 43
0000
0000
0100
0010
,  // measure 44
0110
0000
0000
0000
0011
0000
0000
1001
,  // measure 45
0000
0000
1000
0002
,  // measure 46
0010
0000
0013
0000
0200
0000
0000
1300
,  // measure 47
0000
0000
0000
0000
,  // measure 48
1100
0000
0000
0000
,  // measure 49
0010
0001
1000
0000
,  // measure 50
0100
0000
0000
1100
,  // measure 51
0010
0001
0100
1000
,  // measure 52
0100
0001
0010
1000
,  // measure 53
0010
0001
0100
0010
,  // measure 54
1000
0010
0100
0001
,  // measure 55
0010
0100
1000
0100
,  // measure 56
0010
0001
0100
0010
,  // measure 57
1000
0100
0010
0001
,  // measure 58
0010
0100
1000
0100
,  // measure 59
2200
0000
3300
0000
0011
0000
0000
2002
,  // measure 60
0000
0000
0000
3003
0000
0000
0000
0000
;

//---------------dance-single - Copied from Copied f----------------
#NOTES:
     dance-single:
     Copied from Copied f:
     Hard:
     10:
     0.459,0.488,0.146,0.373,0.018: // measure 1
0000
0000
0000
0000
,  // measure 2
0000
0000
0000
0000
,  // measure 3
0000
0000
0000
0000
,  // measure 4
0000
0000
0000
0000
,  // measure 5
0001
0000
0100
0000
0010
0000
1000
0100
1000
0000
0010
0000
0100
0000
0001
1000
,  // measure 6
0001
0100
0001
0010
0000
0100
1000
0100
,  // measure 7
0010
0001
0010
0000
0001
0100
0001
0000
,  // measure 8
1000
0010
1000
0001
0100
0010
1000
0000
,  // measure 9
0001
0100
1000
0000
1000
0100
0001
0000
,  // measure 10
1000
0100
0010
0100
1000
0001
0100
0010
,  // measure 11
1000
0100
1000
0100
0010
0001
0010
0001
,  // measure 12
0100
0010
0100
0010
1000
0100
1000
0000
,  // measure 13
0001
0100
0001
0000
1000
0010
1000
0000
,  // measure 14
0001
0010
0100
1000
0010
0100
0001
1000
,  // measure 15
0100
0010
0001
1000
0001
0000
1000
0000
,  // measure 16
0001
0000
0010
0001
0100
0010
1000
0100
,  // measure 17
0010
0000
0001
1000
0001
0000
0100
0000
,  // measure 18
0010
0000
1000
0100
2000
0000
3200
0000
,  // measure 19
0310
0001
0010
0001
0000
0000
0000
0000
,  // measure 20
0000
0000
0000
1000
0200
0000
0320
0000
,  // measure 21
0031
1000
0001
1000
0000
0000
0000
0000
,  // measure 22
0010
0000
0000
0010
0000
0000
0000
0000
0100
0000
0000
0100
0000
0000
1000
0000
,  // measure 23
0100
2000
0000
0002
0000
3003
0000
0100
,  // measure 24
0001
0200
0000
0020
0000
0330
0000
1000
,  // measure 25
0100
0020
0000
0032
0000
0203
0000
0320
,  // measure 26
0000
2030
0000
3002
0000
0003
0000
0010
,  // measure 27
0001
0020
0000
0031
0000
0000
0000
0010
,  // measure 28
0100
2000
0000
3010
0000
0000
0000
1000
,  // measure 29
0100
0020
0000
0032
0000
0203
0000
0320
,  // measure 30
0000
2030
0000
0001
0001
0000
3001
0000
,  // measure 31
0000
0000
0000
1000
0010
1000
0010
0100
,  // measure 32
0001
0000
1000
0000
1001
0000
0001
0100
,  // measure 33
0000
0000
0001
0100
0010
1000
0100
0010
,  // measure 34
0002
0000
0203
0000
0320
0000
0000
1030
,  // measure 35
0000
0000
0000
0001
1000
0010
0100
0001
,  // measure 36
2000
0000
3000
0000
0002
0000
1003
0010
,  // measure 37
1000
0000
0001
0100
0001
0000
0100
0010
,  // measure 38
2000
0000
3020
0000
0230
0000
0000
0301
,  // measure 39
0000
0000
0000
1000
0100
0010
0001
0100
,  // measure 40
0202
0000
0303
0000
0220
0330
0000
2020
,  // measure 41
0000
3030
0000
0010
1000
0100
0010
0001
,  // measure 42
0010
0000
0110
0000
1100
0000
0000
2020
,  // measure 43
0000
3030
0000
0100
0001
0010
0100
1000
,  // measure 44
2200
0000
3300
0000
0110
0000
0100
0010
,  // measure 45
0001
0000
0000
0100
0010
0000
1000
0100
,  // measure 46
1000
0000
0110
0000
0011
0000
0000
0010
,  // measure 47
0001
0100
0010
1000
0010
0100
0001
0010
,  // measure 48
0011
0000
0000
0000
,  // measure 49
0110
0000
1100
0000
1000
0100
0010
0000
,  // measure 50
0001
0010
0100
1000
0000
0001
0001
0100
,  // measure 51
0010
1000
0010
0000
0010
0100
0010
0000
,  // measure 52
0010
1000
0100
0010
0001
0100
0010
0000
,  // measure 53
1000
0010
1000
0000
0001
0100
0001
0000
,  // measure 54
1000
0010
0001
0010
0100
0010
1000
0000
,  // measure 55
0001
0100
1000
0000
1000
0100
0001
0000
,  // measure 56
1000
0010
0100
0001
0100
0010
1000
0000
,  // measure 57
1000
0010
1000
0000
0001
0100
0001
0000
,  // measure 58
0001
0100
0010
1000
0010
0100
0010
1000
,  // measure 59
1000
0000
0000
0000
1100
0000
0000
2002
,  // measure 60
0000
0000
3003
0000
;

//---------------dance-single - ----------------
#NOTES:
     dance-single:
     :
     Challenge:
     14:
     0.654,0.759,0.273,0.246,0.255: // measure 1
0000
0000
0000
1000
0100
0010
0001
0100
,  // measure 2
0002
0000
0000
0000
0203
0000
0000
0310
,  // measure 3
0000
0000
0000
1000
0100
0010
0001
0010
,  // measure 4
0200
0000
2300
0000
3020
0000
0000
0130
,  // measure 5
0001
0000
0100
0000
0010
0000
1000
0100
0010
0000
0001
0000
0010
0000
0100
1000
,  // measure 6
0010
1000
0010
0100
0001
0100
0001
0100
0001
0010
0001
0010
0100
1000
0100
1000
,  // measure 7
0001
0001
0010
0100
0110
0100
1000
0100
,  // measure 8
1100
0001
0100
0010
1000
0100
0001
0100
,  // measure 9
1100
0010
0001
0010
0011
0100
0010
0100
,  // measure 10
0011
0001
0010
0001
0010
0100
1000
0010
,  // measure 11
0110
0100
0001
0100
0101
0010
1000
0010
,  // measure 12
1010
0010
1000
0100
0001
0100
0010
0100
,  // measure 13
0110
0000
0100
0000
0010
0000
0001
0010
0001
0000
1000
0000
0100
0000
0100
1000
,  // measure 14
0100
0010
0001
0010
0100
1000
0100
0010
0001
0010
0001
0010
0100
1000
0100
1000
,  // measure 15
0100
0001
0010
0100
2000
0010
3010
0100
,  // measure 16
0001
0100
0010
0100
0001
1000
0001
0100
,  // measure 17
0010
1000
0020
2030
3020
0130
0001
0100
,  // measure 18
0010
1000
0100
0010
0001
0000
0012
0000
,  // measure 19
1000
1000
1000
1003
0001
0100
0010
1000
,  // measure 20
0100
0010
0001
0100
0120
0000
0230
0000
,  // measure 21
0001
0001
0001
0301
0000
0000
0000
0000
,  // measure 22
0010
0000
0000
0010
0000
0000
0000
0000
0100
0000
0000
0100
0000
0000
1000
0000
,  // measure 23
0100
0001
0100
1000
0010
0100
0001
0001
,  // measure 24
0100
1000
0100
0001
0010
0100
1000
0001
,  // measure 25
0010
1000
0010
0001
0100
1000
0100
0001
,  // measure 26
0010
1000
0010
0100
1000
0010
0100
0001
,  // measure 27
0100
1000
0100
0001
0100
0010
1000
0001
,  // measure 28
0100
1000
0100
0001
0100
0010
1000
0100
,  // measure 29
0100
0000
0010
0000
0001
0000
0010
0000
0100
0000
1000
0000
0100
0000
0010
0001
,  // measure 30
0100
0010
1000
0100
0010
0100
1000
0001
0100
0010
1000
0001
0100
0010
1000
0000
,  // measure 31
0000
0000
0000
0010
1000
0100
0010
0001
,  // measure 32
0102
0000
0000
0000
0010
0000
0000
1003
,  // measure 33
0000
0000
0000
0100
0010
0001
1000
0100
,  // measure 34
2100
0000
3002
0000
0023
0000
0000
1030
,  // measure 35
0010
0001
0100
0001
1000
0010
0100
0001
,  // measure 36
0102
0000
0000
0000
0010
0000
1000
1003
,  // measure 37
0000
0000
0000
1000
0200
0000
0010
0010
,  // measure 38
0310
0000
0000
0000
0002
0000
0000
0000
0203
0000
0000
0000
0000
0000
0310
1000
,  // measure 39
0010
0100
0001
0100
0010
1000
0100
0010
0100
0010
0001
0100
0001
0010
0100
0010
,  // measure 40
0200
0000
0300
0000
0020
0000
0000
2000
,  // measure 41
0000
3030
0000
0010
1000
0100
0010
0001
,  // measure 42
0011
0000
0110
0000
1100
1000
0010
1010
,  // measure 43
0100
0001
0100
0100
0001
0010
0100
1000
,  // measure 44
1100
1000
0100
0010
0110
0010
0001
0011
,  // measure 45
0001
0010
0100
1000
0010
0100
0001
1000
,  // measure 46
1100
0000
0000
0000
0110
0000
0000
0000
0022
0000
0033
0000
0000
0000
0010
0001
,  // measure 47
0010
0100
1000
0010
0100
0001
0100
0010
1000
0100
0010
0001
0010
0001
0010
0000
,  // measure 48
0011
0000
0000
0000
,  // measure 49
0110
0000
0000
0000
1100
0000
0100
1000
0100
0000
0010
0000
0001
0000
0010
0001
,  // measure 50
0100
0010
1000
0100
0010
0100
1000
0001
0100
0010
1000
0100
0010
0001
0100
0000
,  // measure 51
0010
1000
0100
0001
0100
1000
0001
1000
,  // measure 52
0010
0001
0010
1000
0100
0010
0001
0100
,  // measure 53
1000
0100
0001
0010
1000
0010
0100
1000
,  // measure 54
0100
0001
0100
1000
0010
0100
0001
0010
,  // measure 55
1000
0010
0001
0100
1000
0100
0010
0100
,  // measure 56
0001
0010
1000
0010
0100
0010
0001
0100
,  // measure 57
0010
1000
0100
0001
0100
0010
0001
0100
,  // measure 58
1000
0100
0010
1000
0100
0010
0001
0010
,  // measure 59
0011
0000
0000
0000
1100
0000
0000
2002
,  // measure 60
0000
0000
3003
0000
;

//---------------dance-single - ----------------
#NOTES:
     dance-single:
     :
     Beginner:
     3:
     0.155,0.214,0.073,0.091,0.000: // measure 1
0000
0000
0000
0000
,  // measure 2
0000
0000
0000
0000
,  // measure 3
0000
0000
0000
0000
,  // measure 4
0000
0000
0000
0000
,  // measure 5
1000
0000
0001
0000
,  // measure 6
0100
0000
0010
0000
,  // measure 7
2000
0000
0000
3000
,  // measure 8
0002
0000
0000
0003
,  // measure 9
0200
0000
0000
0300
,  // measure 10
0020
0000
0000
0030
,  // measure 11
2000
0000
0000
3000
,  // measure 12
0002
0000
0000
0003
,  // measure 13
0200
0000
0000
0300
,  // measure 14
0010
0000
0010
0000
,  // measure 15
1001
0000
1000
0000
,  // measure 16
0000
0000
0010
0010
,  // measure 17
0000
0100
0100
0000
,  // measure 18
0000
0000
0001
0000
,  // measure 19
1000
0000
0000
0000
,  // measure 20
0000
0000
0001
0000
,  // measure 21
0100
0000
0000
0000
,  // measure 22
0010
0000
0000
0000
,  // measure 23
1000
0000
0001
0000
,  // measure 24
0100
0000
0010
0000
,  // measure 25
1000
0000
1000
0000
,  // measure 26
0001
0000
0100
0000
,  // measure 27
0010
0000
0010
0000
,  // measure 28
1000
0000
1000
0000
,  // measure 29
0001
0000
0001
0000
,  // measure 30
0100
0100
0100
0000
,  // measure 31
1001
0000
1000
0000
,  // measure 32
1001
0000
0001
0000
,  // measure 33
0000
0000
0010
0010
,  // measure 34
0010
0000
0200
0000
,  // measure 35
0300
0000
0001
0001
,  // measure 36
0001
0000
1000
0000
,  // measure 37
0000
0000
0001
0000
,  // measure 38
1000
1000
1000
0000
,  // measure 39
0001
0000
1000
0000
,  // measure 40
1001
0000
1000
0000
,  // measure 41
0000
0000
0010
0010
,  // measure 42
0000
0000
0000
0000
,  // measure 43
0000
0000
0100
0100
,  // measure 44
0100
0000
0001
0000
,  // measure 45
2000
3000
0002
0003
,  // measure 46
0100
0100
0100
0000
,  // measure 47
0010
0000
0010
0000
,  // measure 48
1001
0000
0000
0000
,  // measure 49
1000
1000
1000
0000
,  // measure 50
0001
0000
0000
0000
,  // measure 51
0001
0001
0001
0000
,  // measure 52
1000
1000
1000
0000
,  // measure 53
0010
0010
0010
0000
,  // measure 54
0100
0000
1001
0000
,  // measure 55
0001
0000
0100
0000
,  // measure 56
0010
0000
1000
0000
,  // measure 57
0001
0000
1000
0000
,  // measure 58
0010
0000
0100
0000
,  // measure 59
0001
0000
0000
0000
1001
0000
0000
1001
;

//---------------dance-single - ----------------
#NOTES:
     dance-single:
     :
     Medium:
     8:
     0.319,0.456,0.082,0.118,0.000: // measure 1
0000
0000
0000
0000
,  // measure 2
0000
0000
0000
0000
,  // measure 3
0000
0000
0000
0000
,  // measure 4
0000
0000
0000
0000
,  // measure 5
1000
0001
1000
0001
,  // measure 6
1000
0000
0000
0000
,  // measure 7
0001
0100
0001
0000
1000
0010
1000
0000
,  // measure 8
0001
0001
0100
0100
,  // measure 9
1000
0100
0001
0000
0001
0100
0010
0000
,  // measure 10
0010
1000
0001
0100
,  // measure 11
0010
1000
0010
0000
0100
0001
0100
0000
,  // measure 12
0010
1000
0100
0001
,  // measure 13
0100
0000
1000
0000
0010
0100
0010
0000
,  // measure 14
1000
0001
1000
0010
,  // measure 15
1001
0000
1000
0000
0002
0000
0000
0003
,  // measure 16
0000
0000
0100
0020
,  // measure 17
0000
1030
2000
0000
,  // measure 18
3000
0000
0001
1000
,  // measure 19
0010
1000
0010
2000
0000
0000
3000
0000
,  // measure 20
0000
0000
0001
0100
,  // measure 21
0001
0100
0001
0200
0000
0000
0300
0000
,  // measure 22
0001
0000
1000
0000
,  // measure 23
0001
0100
0000
0010
0000
0000
0000
1000
,  // measure 24
0010
0100
0000
0001
0000
0000
0000
1000
,  // measure 25
0010
0100
0000
0001
0000
0001
0000
1000
,  // measure 26
0000
1000
0000
0010
0000
0000
0000
0100
,  // measure 27
0001
0000
0001
0000
,  // measure 28
0100
0010
0000
1000
0000
0000
0000
0001
,  // measure 29
1000
0001
0000
0100
0000
0100
0000
0010
,  // measure 30
0000
1000
0000
0001
0100
0000
0010
1000
,  // measure 31
0000
0000
0000
0001
0100
0001
1000
0001
,  // measure 32
1000
0000
0000
0000
1001
0000
0000
0110
,  // measure 33
0000
0000
0000
0001
0010
0001
0100
0001
,  // measure 34
1000
0000
0001
0000
2000
0000
0000
3010
,  // measure 35
0000
0000
0000
0100
0001
0100
0001
0100
,  // measure 36
0001
0000
0000
0000
1000
0000
0001
0100
,  // measure 37
0000
0000
0000
0010
1000
0000
0001
0100
,  // measure 38
0002
0000
0203
0000
0320
0000
0000
1030
,  // measure 39
0000
0000
0000
0001
0100
0001
0100
0001
,  // measure 40
1000
0000
0000
0000
1001
0000
0000
0110
,  // measure 41
0000
0000
0000
1000
0010
0100
0001
1000
,  // measure 42
0010
0000
0010
0000
2000
0000
3000
0001
,  // measure 43
0000
0000
0000
0100
0010
0100
0010
0100
,  // measure 44
0010
0000
0000
0000
1001
0000
0010
1000
,  // measure 45
0000
0000
0000
0001
1000
0000
0010
0100
,  // measure 46
0020
2030
0002
0000
,  // measure 47
0000
0000
0000
3003
,  // measure 48
1001
0000
0000
0000
,  // measure 49
1000
0000
1000
0000
0001
0100
0001
0000
,  // measure 50
1000
0010
1000
0010
0000
1000
0010
0000
,  // measure 51
0001
0001
0100
0100
,  // measure 52
0010
1000
0010
0000
0001
0100
0001
0000
,  // measure 53
0001
0001
0100
0100
,  // measure 54
0010
1000
0010
0000
0100
0001
0100
0000
,  // measure 55
0001
0001
0010
0010
,  // measure 56
1000
1000
0100
0100
,  // measure 57
0001
0010
0100
1000
0010
0100
0001
0010
,  // measure 58
0100
1000
0010
0100
0001
0010
0100
1000
,  // measure 59
0010
0000
0000
0000
1001
0000
0000
1001
;
