#TITLE:Pinball Spring;
#SUBTITLE:;
#ARTIST:Kevin McLeod;
#TITLETRANSLIT:;
#SUBTITLETRANSLIT:;
#ARTISTTRANSLIT:;
#CREDIT:;
#BANNER:;
#BACKGROUND:;
#LYRICSPATH:;
#CDTITLE:;
#MUSIC:Pinball Spring.ogg;
#OFFSET:-0.097;
#SAMPLESTART:76.520;
#SAMPLELENGTH:15.000;
#SELECTABLE:YES;
#BPMS:0.000=116.000;
#STOPS:;
#BGCHANGES:;

//---------------dance-single - ----------------
#NOTES:
     dance-single:
     :
     Hard:
     10:
     0.200,0.196,0.085,0.030,0.061:
0000
0000
0000
0000
,
1000
0100
0000
0010
0001
0000
1000
0000
0100
0000
0010
0000
0001
0000
0100
0000
,
0010
1000
0000
0001
0100
0010
2000
0000
,
3001
0100
0000
0100
0010
0000
1000
0000
0100
0000
0010
0000
0001
0000
1000
0000
,
0001
0200
0000
0310
1000
0100
0010
0001
,
1000
0010
0000
0010
1000
0000
0100
0000
0010
0000
0001
0000
0010
0000
0100
0000
,
1000
0001
0000
0020
0000
0031
0001
0000
,
0001
0100
0000
0100
0001
0000
1000
0000
0100
0000
0010
0000
0001
0000
0000
0000
,
1000
0010
1000
0100
0010
0000
0011
0000
,
0001
0100
0001
0100
0010
1000
0010
1000
,
0001
0100
0010
1000
0100
0010
1001
0000
,
0001
0100
0010
1000
0100
0010
0001
0100
,
0010
1000
0100
1000
0001
1000
1001
0000
,
1000
0001
0100
0010
1000
0100
1000
0001
,
0100
0010
1000
0100
0010
0001
1001
0000
,
0001
0000
0100
0010
0000
0000
0010
0000
1000
0000
0100
0000
0010
0000
0001
0000
,
0010
0011
1000
0011
,
0001
0100
0000
0100
0001
0000
0100
0000
1000
0000
0100
0000
0001
0000
0100
0000
,
0010
1010
0100
0101
,
0001
0100
0000
0100
0010
0000
1000
0000
0010
0000
0100
0000
0001
0000
0000
0000
,
0100
0011
0100
1010
,
1000
0001
0000
0001
0100
0000
0010
0000
1000
0000
0100
0000
0010
0000
0000
0000
,
0010
0001
0010
0011
,
0001
0000
1000
0010
1000
0001
1000
0000
,
0100
0001
0000
0001
0100
0010
1000
0000
,
1000
0100
0000
0010
0001
0000
1000
0000
0100
0000
1000
0000
0100
0000
0000
0000
,
0010
0001
0011
0001
0010
0100
1000
0000
,
1000
0100
0000
0010
0001
0000
1000
0000
0010
0000
1000
0000
0100
0000
0000
0000
,
0001
0010
0000
0001
0010
0100
1000
0000
,
0002
0000
0103
0010
1000
0100
0010
0000
,
0010
0010
1001
0100
0000
0100
1001
0000
,
0001
0000
0000
0001
0000
0000
1000
0000
0001
1000
0001
1000
0001
0000
0000
0000
,
1000
0000
0010
0000
0100
0000
0001
1000
0000
0010
0000
0000
1010
0000
0000
0000
,
0001
0100
1000
0100
0001
0010
1000
0010
,
0001
0100
0010
1000
0100
0010
0011
0000
,
0001
0100
0010
1000
0100
0001
0100
1000
,
0001
0100
0010
1000
0100
0010
1001
0000
,
0001
0100
0010
1000
0100
0001
0100
1000
,
0010
0100
0001
1000
0001
1000
1001
0000
,
2000
0000
0000
3010
0000
0000
0100
0000
0001
0100
0001
0100
0010
1000
0010
1000
,
0001
0100
0010
1000
0200
0000
0320
0000
,
0031
0100
0000
0010
1000
0100
0010
0001
,
1000
0010
0100
0001
0100
0000
1010
0000
,
1000
0001
0100
0001
0100
0010
1000
0000
,
1001
0000
0000
0000
;

//---------------dance-double - ----------------
#NOTES:
     dance-double:
     :
     Hard:
     15:
     0.342,0.347,0.042,0.034,0.457:
00000000
00000000
00000000
00000000
,
00000000
00000000
00000000
00000000
,
00000000
00000000
00000000
00000000
,
00000000
00000000
00000000
00000000
,
00000000
00000000
00000000
00000000
,
00001000
00000010
00001000
00000010
00000100
00000001
00000100
00000001
,
00000010
00000001
00000010
00000001
00001000
00000100
00001000
00000100
,
00010000
00001000
00010000
00001000
00100000
00010000
00100000
00010000
10000000
00100000
10000000
00100000
01000000
00010000
01000000
00010000
,
00100000
00010000
00000000
10000000
01000000
00000000
00000000
00000000
01010000
00000000
00000000
00011000
00000000
00000000
00001100
00000000
,
00002002
00003003
00000000
00000000
00000000
00000000
00000000
00000000
00000000
00000000
00000000
00000000
00000000
00000000
00000000
00000000
00000010
00000000
00000000
00000000
00000000
00000000
00000000
00000000
00000001
00000000
00000000
00000000
00000100
00000000
00000000
00000000
00000000
00000000
00000000
00000000
00000010
00000000
00000000
00000000
00000100
00000000
00000000
00000000
00000000
00000000
00000000
00000000
00000010
00000000
00000000
00000000
00001000
00000000
00000000
00000000
00000000
00000000
00000000
00000000
00000100
00000000
00000000
00000000
,
00010000
00000000
00001000
00100000
00010000
00000000
01000000
00010000
00000000
10000000
01000000
00000000
00100000
01000000
00000000
00100000
,
00001000
00000000
00010000
00000100
00001000
00000000
00000100
00000010
00000000
00000100
00001000
00000000
00000001
00000100
00000000
00000010
,
00001000
00000000
00000100
00010000
00001000
00000000
01000000
00010000
00000000
10000000
01000000
00000000
00100000
00000000
00010000
10000000
,
00000000
00100000
01000000
00000000
00100000
00000000
10000000
01000000
00000000
10000000
01000000
00000000
00100000
01000000
00000000
00010000
,
00001000
00000000
00010000
00000010
00001000
00000000
00000001
00000100
00000000
00000001
00000100
00000000
00000010
00000100
00000000
00001000
,
00000100
00000000
00000010
00001000
00000001
00000000
00000010
00000100
00000000
00010000
00001000
00000000
00100000
00000000
00010000
01000000
,
00000000
00100000
01000000
00000000
00010000
00000000
00100000
01000000
00000000
10000000
00010000
00000000
01000000
00000000
00001000
00010000
,
00000000
00000010
00001000
00000000
00000100
00000000
00001000
00000100
00000000
00000100
00000010
00000000
00000010
00000001
00000000
00000001
,
00000100
00000000
00000010
00001000
00000010
00000000
00000100
00001000
00000000
00001000
00010000
00000000
00010000
00100000
00000000
00100000
,
10000000
00000000
01000000
10000000
01000000
00000000
00100000
00010000
00000000
00010000
01000000
00000000
00100000
00010000
00000000
00010000
,
00001000
00000000
00010000
00001000
00010000
00000000
00000010
00001000
00000000
00001000
00000100
00000000
00000010
00000000
00000001
00000100
,
00000000
00000100
00000010
00000000
00001000
00000000
00000010
00000100
00000000
00000001
00000100
00000000
00000001
00000010
00000000
00000100
,
00001000
00000000
00000010
00010000
00001000
00000000
00100000
00010000
00000000
10000000
00100000
00000000
01000000
00010000
00000000
10000000
,
01000000
00000000
00100000
00010000
00100000
00000000
00001000
00100000
00000000
00001000
00100000
00000000
00001000
00010000
00000000
00001000
,
00010000
00000000
00000100
00001000
00000001
00000000
00000100
00000010
00000000
00001000
00000010
00000000
00000100
00000010
00000000
00001000
,
00000010
00000000
00000100
00000000
00000010
00001000
00000000
00001000
00000000
00001000
00000100
00000000
00000010
00000000
00000001
00000000
,
00000100
00000010
00000000
00010000
00000000
00000000
00001000
00000000
01000000
00010000
00000000
10000000
00000000
00000000
01000000
00000000
,
00100000
00000000
00010000
00000000
10000000
00100000
00000000
00100000
00000000
01000000
00100000
00000000
10000000
00000000
01000000
00000000
,
00010000
00001000
00000000
00000010
00000000
00000000
00000100
00000000
00001000
00000010
00000000
00000100
00000000
00000000
00000001
00000000
,
00001000
00000000
00000001
00000000
00000100
00000010
00000000
00000010
00000000
00000100
00001000
00000000
00010000
00000000
00001000
00000000
,
00100000
00010000
00000000
10000000
00000000
00000000
00100000
00000000
01000000
00010000
00000000
00100000
00000000
00000000
01000000
00000000
,
10000000
00000000
01000000
00000000
00010000
00000000
00000000
00001000
00000000
00000000
00022000
00000000
00000000
00000000
00000000
00000000
,
00000000
00000000
00000000
00000000
00033000
00000000
00000010
00000000
00000000
00000100
00000000
00000000
00000001
00000000
00000001
00000000
,
00001000
00000000
00001000
00000000
00000100
00000010
00000000
00000010
00000000
00000100
00000010
00000000
00000001
00000000
00000100
00000000
,
00000010
00000100
00000000
00001000
00000000
00000000
00010000
00000000
00000000
00000000
00000000
00000000
00001000
00000000
00001000
00000000
,
00001000
00000000
00001000
00000000
00100000
00000000
00010000
00000000
10000000
00010000
00000000
10000000
00100000
00000000
10000000
00010000
,
00000000
10000000
01000000
00000000
00010000
00000000
00001000
00000000
00000010
00000100
00000000
00000100
00001000
00000000
00000010
00000100
,
00000000
00000100
00000001
00000000
00001000
00000100
00000000
00000100
00000000
00000010
00000100
00000000
00001000
00000000
00000100
00000000
,
00001000
00000001
00000000
00000100
00000000
00000000
00001000
00000000
00010000
00100000
00000000
01000000
00000000
00000000
00010000
00000000
,
00100000
00000000
01000000
00000000
00010000
00000000
00000000
01000000
00000000
00000000
20000000
00000000
00000000
00000000
00000000
00000000
,
00000000
02000000
00000000
00000000
,
33000000
10000000
00000000
00010000
,
00000000
00001000
00000000
00000000
,
00000000
00000010
00000000
00001000
,
00000100
00010000
00000000
00001000
,
00000000
00000000
00010000
00100000
00010000
00100000
01000000
10000000
,
01000000
10000000
00100000
10000000
00100000
10000000
00010000
01000000
,
00010000
00000000
01000000
00000000
00001000
00010000
00001000
00010000
00000010
00001000
00000010
00001000
00000001
00000010
00000001
00000010
,
00000100
00001000
00000100
00001000
00000010
00001000
00000000
00000001
00000100
00000000
00000000
00000000
00001100
00000000
00000000
00011000
,
00000000
00000000
00000000
00000000
00000000
00000000
00000000
00000000
01010000
00000000
00000000
00000000
00000000
00000000
00000000
00000000
20020000
30030000
00000000
00000000
00000000
00000000
00000000
00000000
00000000
00000000
00000000
00000000
00000000
00000000
00000000
00000000
00100000
00000000
00000000
00000000
00000000
00000000
00000000
00000000
10000000
00000000
00000000
00000000
01000000
00000000
00000000
00000000
00000000
00000000
00000000
00000000
00100000
00000000
00000000
00000000
01000000
00000000
00000000
00000000
00000000
00000000
00000000
00000000
,
00100000
00010000
00000000
01000000
00001000
00000000
00010000
00000010
00001000
00000000
00000100
00001000
00000000
00000001
00000100
00000000
,
00000010
00000100
00000000
00000010
00010000
00000000
00001000
01000000
00010000
00000000
01000000
00100000
00000000
01000000
00010000
00000000
,
10000000
01000000
00000000
00100000
00010000
00000000
01000000
00001000
00010000
00000000
00000100
00001000
00000000
00000001
00000100
00000000
,
00000010
00000000
00001000
00000001
00000000
00000010
00000100
00000000
00000010
00000000
00000001
00000100
00000000
00000001
00000100
00000000
,
00000010
00000100
00000000
00001000
00010000
00000000
00001000
00100000
00010000
00000000
10000000
01000000
00000000
10000000
01000000
00000000
,
00100000
01000000
00000000
00010000
01000000
00000000
00100000
00010000
10000000
00000000
00100000
01000000
00000000
00001000
00010000
00000000
,
00000010
00000000
00001000
00000100
00000000
00000010
00000100
00000000
00001000
00000000
00000010
00000100
00000000
00000001
00001000
00000000
,
00000100
00000000
00010000
00001000
00000000
00100000
00010000
00000000
01000000
00000000
00010000
01000000
00000000
01000000
00100000
00000000
,
00100000
10000000
00000000
10000000
01000000
00000000
00100000
00010000
00100000
00000000
01000000
00010000
00000000
00010000
00001000
00000000
,
00001000
00000010
00000000
00000010
00000001
00000000
00000100
00000001
00000100
00000000
00000010
00001000
00000000
00001000
00000100
00000000
,
00000010
00001000
00000000
00001000
00010000
00000000
00001000
00010000
00001000
00000000
00100000
00010000
00000000
00010000
01000000
00000000
,
00100000
00000000
10000000
01000000
00000000
01000000
00100000
00000000
00010000
00000000
00100000
01000000
00000000
10000000
01000000
00000000
,
10000000
00100000
00000000
01000000
00010000
00000000
00100000
00001000
00010000
00000000
00000010
00001000
00000000
00000001
00000010
00000000
,
00000100
00001000
00000000
00000001
00000100
00000000
00000010
00001000
00000010
00000000
00010000
00000010
00000000
00010000
00000010
00000000
,
00010000
00001000
00000000
00010000
00001000
00000000
01000000
00010000
10000000
00000000
01000000
00100000
00000000
00010000
00100000
00000000
,
01000000
00100000
00000000
00010000
00100000
00000000
01000000
00000000
10010000
00000000
00000000
00000000
00000000
00000000
00000000
00000000
;

//---------------dance-single - Copied from----------------
#NOTES:
     dance-single:
     Copied from:
     Challenge:
     14:
     0.299,0.289,0.097,0.089,0.322:
0000
0000
0000
0000
,
1000
0000
0000
0100
0000
0000
0000
0000
0000
0010
0000
0000
0001
0000
0000
0000
0000
0000
1000
0000
0000
0010
0000
0000
0100
0000
0000
0010
0000
0000
1000
0000
0000
0010
0000
0000
0100
0000
0000
0000
0001
0000
0100
0000
0000
0000
0010
0000
,
1000
0010
1010
0100
0001
0100
1010
1000
,
0001
0100
0000
0100
0010
0000
0010
1000
0100
0010
0100
1000
0001
0000
1000
0000
,
0001
0001
0101
0010
1000
0100
0010
0001
,
1000
0010
0000
0010
1000
0000
0100
0010
0001
0100
0010
1000
0100
0000
0010
0000
,
0001
0100
0101
0020
0000
1030
1001
0000
,
0001
0100
0000
0100
0001
0000
0100
0010
1000
0100
0010
0100
1000
0000
0001
0000
,
1000
0000
0010
0000
1010
0000
0100
0001
0100
0010
0000
0000
1000
0000
0010
0000
,
1000
0100
1000
0100
0010
0001
0010
0001
0100
0010
0100
0010
1000
0010
0100
0001
,
1000
0100
1000
0100
1000
0001
1000
0001
1000
0010
0100
0000
1001
0000
0001
0000
,
1000
0010
0100
0001
1000
0100
0010
0001
1000
0100
1000
0100
0010
0001
0010
0001
,
0100
0010
1000
0100
0010
0100
1000
0001
0100
0010
1000
0000
1001
0000
0001
0000
,
1000
0000
0001
0100
0010
1000
0100
0010
0100
1000
0001
0100
0010
1000
0100
1000
,
0001
0100
0001
0100
0010
1000
0010
1000
0001
0100
0010
0000
1010
0000
1000
0000
,
0001
0000
0100
0010
0000
0000
0010
1000
0100
0010
0100
0010
0001
0100
0010
1000
,
0100
0011
1000
0011
,
0001
0100
0000
0100
0001
0000
0100
0010
1000
0100
0010
0100
1000
0000
0001
0000
,
0100
1010
0100
0101
,
0001
0100
0000
0100
0010
0000
1000
0010
0100
0001
0100
0010
1000
0000
0100
0000
,
0100
0010
0011
0001
0100
0000
1010
0000
,
1000
0001
0000
0001
0100
0000
0010
1000
0100
0010
0100
1000
0001
0000
0100
0000
,
0010
1000
0100
0000
0010
0000
0011
0000
,
0001
0100
0000
0100
0010
0000
1000
0100
0010
0100
1000
0001
0100
0000
0000
0000
,
2000
3200
0300
0020
0032
0203
0320
0030
,
1000
0100
0000
0010
0001
0000
0100
0010
0100
0010
1000
0001
1000
0000
0010
0000
,
0200
0302
0103
0020
2030
3200
0310
0001
,
1000
0100
0000
0010
0001
0000
1000
0100
0010
0100
1000
0001
0100
0000
0010
0000
,
2000
3200
0310
0002
0203
0320
2030
3010
,
0100
0001
0000
0001
0100
0000
0010
1000
0100
0010
0100
1000
0001
0000
0100
0000
,
0010
0010
1001
0100
0000
0100
1001
0000
,
0001
0000
0000
0001
0000
0000
1000
0000
0001
1000
0001
1000
0001
0000
0000
0000
,
1000
0000
0010
0000
1010
0000
0100
0001
0100
0010
0000
0000
1010
0000
0000
0000
,
1000
0100
1000
0100
0010
0001
0010
0001
0100
0010
0100
0010
1000
0100
1000
0100
,
0010
0001
1000
0010
0100
0001
0100
0010
1000
0100
0010
0000
0001
0000
0100
0000
,
0001
0100
0010
1000
0100
0010
0100
1000
0001
0100
0010
1000
0100
0010
0100
1000
,
0001
0100
0010
1000
0100
0010
0001
0100
0010
1000
0100
0000
0010
0000
1001
0000
,
0001
0100
0010
1000
0100
1000
0001
0100
0010
1000
0100
1000
0001
0100
0010
1000
,
0100
0010
0001
0100
0010
1000
0100
0010
0001
0100
0010
0000
1000
0000
0001
0000
,
2000
0000
0000
3010
0000
0000
0100
0000
0001
0100
0001
0100
0010
1000
0010
1000
,
0001
0100
0010
1000
0200
0000
0320
0000
,
0031
0100
0000
0010
1000
0100
0010
0001
,
1000
0010
0100
0001
0100
0000
1010
0000
,
1000
0001
0100
0001
0100
0010
1000
0000
,
1001
0000
0000
0000
;

//---------------dance-single - Copied from----------------
#NOTES:
     dance-single:
     Copied from:
     Medium:
     7:
     0.143,0.149,0.063,0.000,0.006:
0000
0000
0000
0000
,
1000
0000
0001
0100
0001
0000
1000
0000
,
0001
0010
0000
0001
0010
0100
1000
0000
,
0001
0000
0100
0010
0100
0000
0001
0000
,
1000
0100
0000
1000
0100
0010
0001
0000
,
1000
0000
0001
0100
0001
0000
0100
0000
,
0001
0010
0000
0100
0000
1000
0001
0000
,
1000
0000
0010
0100
0010
0000
1000
0000
,
0001
1000
0100
0000
0010
0000
0011
0000
,
0001
1000
0001
0000
1000
0001
1000
0000
,
0010
1000
0100
0000
0010
0000
1001
0000
,
0001
0100
0010
0000
1000
0100
0010
0000
,
0001
1000
0100
0000
1000
0000
1001
0000
,
1000
0001
0100
0000
0010
1000
0010
0000
,
0100
0001
1000
0000
0010
0000
1001
0000
,
0001
0000
0000
0100
0000
0000
0010
0000
1000
0000
0000
0000
0001
0000
0000
0000
,
0010
0001
1000
0001
,
0001
0000
0100
0010
0100
0000
0001
0000
,
1000
1010
0100
0101
,
0001
0000
0100
0010
0100
0000
0001
0000
,
0010
0011
0100
1010
,
1000
0000
0001
0100
0010
0000
1000
0000
,
0001
0010
0001
0011
,
0001
0000
1000
0010
1000
0000
0001
0000
,
0100
0001
0000
0001
0100
0010
1000
0000
,
1000
0000
0001
0100
0010
0000
1000
0000
,
0001
0010
0001
1000
,
0001
0000
0100
0010
0100
0000
0001
0000
,
1000
0001
0000
0001
0010
0100
1000
0000
,
0001
0000
0100
0010
1000
0100
0010
0000
,
0010
1001
0000
1001
,
0001
0000
0000
0001
0000
0000
1000
0000
0001
0000
0000
0000
0001
0000
0000
0000
,
1000
0100
0010
1010
,
0001
0010
0001
0010
0001
0010
0001
0010
,
0001
0010
0001
0010
0001
0010
0001
0000
,
1000
0100
1000
0100
1000
0100
1000
0100
,
1000
0100
1000
0100
1000
0100
1000
0000
,
0001
0010
0100
1000
,
0100
0010
0001
1001
,
1000
0000
0000
0010
0000
0000
0100
0000
0001
0000
0000
0000
0010
0000
0000
0000
,
0001
0010
0100
0010
,
0001
0100
0000
0010
1000
0100
0010
0000
,
1000
0100
0010
1010
,
1000
0001
0100
1000
,
1001
0000
0000
0000
;

//---------------dance-single - ----------------
#NOTES:
     dance-single:
     :
     Easy:
     5:
     0.108,0.102,0.068,0.000,0.000:
0000
0000
0000
0000
,
1000
0001
0010
0100
,
1000
0000
1000
0001
,
1000
0100
0010
0001
,
1000
0000
0100
0010
,
0001
0010
0100
1000
,
0001
0000
0000
0001
,
1000
0010
0100
0001
,
1000
0100
0010
0011
,
0001
0010
0100
1000
,
0001
0100
0010
1001
,
0001
0010
0100
1000
,
0001
0100
0001
1001
,
1000
0100
0010
0001
,
0010
0100
1000
1001
,
0001
0000
1000
0001
,
0010
0001
1000
0001
,
0001
0100
0100
0001
,
1000
1010
0100
0101
,
0001
0100
0100
0001
,
0010
0011
0100
1010
,
1000
0001
0010
1000
,
0001
0010
0001
0011
,
0001
1000
1000
0001
,
0100
0000
0100
0010
,
0001
0100
0010
1000
,
0001
0010
0001
1000
,
0001
0100
0100
0001
,
1000
0000
0010
1000
,
0001
0100
1000
0010
,
0010
1001
0000
1001
,
0001
0000
0001
0001
,
1000
0100
0010
1010
,
0001
0010
1000
0010
,
0001
0100
1000
1001
,
1000
0100
0001
0100
,
1000
0010
0001
1000
,
0001
0010
0100
1000
,
0100
0010
0001
1001
,
1000
0000
0001
0010
,
0001
0010
0100
0010
,
0001
0000
1000
0010
,
1000
0100
0010
1010
,
1000
0001
0100
1000
,
1001
0000
0000
0000
;

//---------------dance-single - Copied from ----------------
#NOTES:
     dance-single:
     Copied from:
     Beginner:
     3:
     0.064,0.065,0.059,0.000,0.000: // measure 1
0000
0000
0000
0000
,  // measure 2
1000
1000
1000
0000
,  // measure 3
0001
0000
1000
0000
,  // measure 4
1000
0000
0100
0000
,  // measure 5
0010
0000
0001
0000
,  // measure 6
0001
0000
0010
0000
,  // measure 7
1000
0000
0000
1000
,  // measure 8
1000
0000
0100
0000
,  // measure 9
0001
0001
0001
0000
,  // measure 10
1000
1000
1000
0000
,  // measure 11
0001
0001
0001
0000
,  // measure 12
0001
0001
0001
0000
,  // measure 13
0100
0100
0100
0000
,  // measure 14
1000
0000
1000
0000
,  // measure 15
0001
0000
1000
0000
,  // measure 16
0001
0000
1000
0000
,  // measure 17
0010
0000
1000
0000
,  // measure 18
0001
0000
0100
0000
,  // measure 19
0000
1001
0000
1001
,  // measure 20
0000
0100
0100
0100
,  // measure 21
0000
0110
0000
1001
,  // measure 22
0000
0001
0001
0001
,  // measure 23
0000
0110
0000
1001
,  // measure 24
0000
1000
1000
0000
,  // measure 25
0100
0000
0100
0000
,  // measure 26
0001
0000
0010
0000
,  // measure 27
0001
0000
1000
0000
,  // measure 28
0001
0000
0100
0000
,  // measure 29
1000
0000
0010
0000
,  // measure 30
0001
0000
1000
0000
,  // measure 31
0000
1001
0000
1001
,  // measure 32
0000
0000
0001
0001
,  // measure 33
0000
0010
0000
1001
,  // measure 34
0000
0010
0000
0010
,  // measure 35
0000
0000
0000
0110
,  // measure 36
0000
1000
0000
0100
,  // measure 37
0000
0010
0000
1000
,  // measure 38
0001
0000
0100
0000
,  // measure 39
0100
0000
0000
1001
,  // measure 40
0000
0000
0001
0000
,  // measure 41
0001
0000
0100
0000
,  // measure 42
1000
0000
0110
0000
,  // measure 43
0010
0000
0000
1001
,  // measure 44
0000
0001
0000
0000
,  // measure 45
1001
0000
0000
0000
;
