#TITLE:Only Love Survives;
#SUBTITLE:;
#ARTIST:Ryan Dolan;
#TITLETRANSLIT:;
#SUBTITLETRANSLIT:;
#ARTISTTRANSLIT:;
#CREDIT:;
#BANNER:Only Love Survives.png.
#BACKGROUND:Only Love Survives-bg.png;
#LYRICSPATH:;
#CDTITLE:;
#MUSIC:Only Love Survives.ogg;
#OFFSET:0.100;
#SAMPLESTART:48.196;
#SAMPLELENGTH:12.000;
#SELECTABLE:YES;
#BPMS:0.000=128.000,69.000=64.010,86.000=128.020;
#STOPS:69.000=0.937
,175.500=0.469
;
#BGCHANGES:;

//---------------dance-single - ----------------
#NOTES:
     dance-single:
     :
     Hard:
     12:
     0.446,0.512,0.141,0.232,0.357:
0000
0000
0000
0000
,
0000
0000
0000
0000
,
0000
2001
3200
0320
,
0031
0000
0000
0000
0100
0000
0000
0100
0000
0000
0100
0000
0010
0000
0000
1000
,
0000
0000
0010
0000
2000
0000
0000
0001
0000
0000
3001
0000
0100
0000
0010
0000
,
1000
0000
0010
0000
0100
0000
0000
0100
0000
0000
0100
0000
0001
0000
0010
0000
,
0001
1000
0010
0000
1010
0000
1001
0000
,
0001
0000
1000
0010
1000
0000
0000
0001
0000
0000
0100
0000
0010
0000
0000
1000
,
0000
0000
0100
0000
0001
0000
0000
0100
0000
0000
1000
0000
0010
0000
0000
0000
,
0100
0000
0001
1000
0001
0000
0000
1000
0000
0000
0010
0000
0100
0000
0001
0000
,
1000
0010
2010
0000
0001
0000
0020
0000
,
3030
0000
0000
0000
1000
0000
0000
0001
0000
0000
1000
0000
0001
0000
1000
0100
,
0000
1000
0100
0000
0010
0000
0000
0001
0000
0000
1000
0000
0001
0000
0010
0000
,
0001
0000
1000
0000
0010
0000
0000
0010
0000
0000
0010
0000
1000
0000
0001
0000
,
0100
0010
2000
0000
3200
0000
2300
0000
,
3001
0000
0000
0000
0100
0000
0000
0100
0000
0000
0010
0000
1000
0000
0000
0001
,
0000
0000
0100
0000
0001
0000
0000
0100
0000
0000
0010
0000
1000
0000
0001
0000
,
0100
0000
0010
0000
1010
0000
0000
0000
2000
0000
0000
0000
0000
0000
0000
3020
,
0000
0000
0000
0000
0000
0000
0100
0200
0000
0000
0000
0000
0330
0000
0000
0000
,
0000
0000
0001
0000
1000
0000
0001
0000
0000
1000
0000
0000
0010
0000
0100
0000
0002
0000
0000
0000
0000
0000
0000
0000
0000
0000
0000
0000
0000
0000
0203
0000
,
0000
0000
0320
0000
,
0030
0000
0000
1000
0100
0010
0100
1000
0002
0000
0000
0000
0010
0000
0000
0000
,
1000
0103
2000
0010
,
0100
0000
0000
0000
3001
0000
1000
0000
0001
0000
0000
1000
0000
0000
0010
0000
,
0000
0100
0000
0000
0001
0000
0000
0010
0000
0000
0100
0000
0000
1000
0000
0000
,
0100
0010
0100
0000
0010
0001
0010
0100
,
1000
0001
0010
0001
1000
0100
0010
0001
,
0100
0000
0010
0000
1000
0000
0001
0000
1000
0100
1000
0100
0010
0001
0010
0001
,
1000
0010
1000
0010
0100
0001
0100
0001
1000
0010
1000
0001
0010
0100
1000
0001
,
1000
0000
0000
0000
0000
0000
0000
0000
1001
0000
0000
0001
0000
0000
0100
0000
,
0000
0010
0000
0000
1000
0000
0000
0010
0000
0000
0100
0000
0000
0001
0000
1000
,
0010
0000
0010
1000
0000
1000
0001
0000
1000
0000
0000
0010
0000
0000
0100
0000
,
0000
0001
0000
0000
0100
0000
0000
1000
0000
0000
0100
0000
0000
0001
0000
0000
,
0000
1000
0100
0001
0000
0001
0100
1000
,
0000
1000
0010
0001
0000
0001
0010
1000
,
0000
1000
0010
0100
0000
0100
0001
0100
,
0000
0010
1000
0010
0000
0100
0001
0100
,
0001
0000
0000
0100
0000
0000
0010
0000
2000
0000
0000
0000
0000
0000
0001
0000
,
0000
0000
0000
0000
0010
0000
3010
0000
0000
0000
0100
0000
0000
0001
0000
0000
,
0100
0000
0000
0010
0000
0000
1000
0000
0000
0010
0000
0000
1000
0000
2000
0000
,
0000
0000
0100
3200
0000
0000
0000
0310
,
0001
0010
1000
0000
0020
0000
0000
0000
,
0000
0000
0001
0032
0000
0000
0000
0000
,
0000
0000
0000
0000
0100
0000
0103
0000
0010
0000
0000
1000
0000
0000
1100
0000
,
0000
0000
1000
0000
0001
0000
0100
0000
0010
1000
0010
0000
0100
0001
0000
0001
,
1000
0000
1000
0010
0000
0010
0100
0000
0100
0001
0000
0000
1000
0000
0000
0001
,
0000
0000
0100
0000
0010
0000
1000
0010
0000
0010
1000
0000
1000
0001
0000
0001
,
1000
0000
0000
0001
0000
0000
0100
0000
0000
0010
0000
0000
1000
0000
0000
0001
,
0000
0000
0100
0000
0010
0000
1000
0001
0000
0001
0100
0000
0100
0010
0000
0010
,
1000
0000
0000
0000
0001
0000
0000
0000
0000
0000
0000
0000
0100
0000
0000
0010
,
0000
1000
0200
0000
0000
0302
0000
0000
,
0000
2003
0000
0000
0000
3100
0010
0001
,
0100
0000
0010
0000
2010
0000
0000
0001
0000
0000
3001
0000
1001
0000
0000
0000
,
0000
0000
0000
0000
0001
0000
0000
0100
0000
0000
0010
0000
1010
0000
0000
0000
,
0000
0000
0000
0000
1000
0000
0000
0001
0000
0000
0100
0000
0101
0000
0000
0000
,
0001
0000
0000
1000
0000
0000
0001
0000
0100
0000
1010
0000
0000
1001
0000
0000
,
0101
0000
0001
0000
1000
0000
0000
0010
0000
0000
1000
0000
1001
0000
0000
0000
,
0000
0000
0000
0000
0001
0000
0000
1000
0000
0000
0010
0000
1001
0000
0000
0000
,
0000
2002
0000
3003
;

//---------------dance-single - Copied from----------------
#NOTES:
     dance-single:
     Copied from:
     Easy:
     4:
     0.183,0.219,0.050,0.166,0.004:
0000
0000
0000
0000
,
0000
0000
0000
0000
,
0000
1001
0000
1000
,
0000
0001
0000
0100
,
0000
0010
0000
1000
,
0000
0001
0000
1000
,
0000
0010
0100
0001
,
0000
1000
0000
0001
,
0000
1000
0000
0001
,
0000
1000
0000
0010
,
0100
0001
1000
0020
,
0000
0000
0000
1030
,
0000
0001
0000
1000
,
0000
0010
0000
0100
,
0000
0001
1000
0020
,
0000
0000
0000
1030
,
0000
0001
0000
1000
,
0000
1001
2000
0000
,
3002
0000
0203
0000
,
0300
0000
2000
0000
,
0002
3000
0000
0000
0000
0000
0000
0000
0203
0000
0000
0000
0000
0000
0000
0000
,
0300
0000
0010
1000
0020
0000
0000
0000
,
0000
0000
0000
2030
0000
0000
0000
0000
,
0000
0000
0000
3002
0000
0000
0000
0000
,
0000
0000
0000
0003
,
1000
0001
1000
0000
0001
0000
0100
0000
,
0001
0100
0010
1000
,
0010
1000
0001
1000
,
0010
1000
0001
0100
,
0001
0000
0001
0000
2000
0000
0000
0010
,
0000
0010
0000
3010
0000
0000
0000
0000
,
0000
0000
0200
0000
,
0000
0000
0301
0000
,
0000
1000
0000
0001
,
0000
1000
0000
0010
,
0000
0100
0000
0001
,
0000
1000
0000
0000
,
0000
0000
0001
0000
1000
0000
0000
0010
,
0000
1000
0000
0000
,
0001
1000
0001
1000
,
0010
1000
0001
1000
,
0010
0010
2000
0000
,
0000
0000
3002
0000
,
0000
0000
0000
0003
1000
0000
0000
1001
,
0000
1000
0000
0001
,
1000
0001
0000
0100
,
0010
1000
0000
0001
,
0000
1000
0000
0010
,
0100
0001
1000
0001
,
0000
1000
0000
0010
,
0000
0000
2000
0000
0000
0001
0000
0000
,
0000
0002
0000
0000
0000
0000
3003
0000
,
0000
1000
0000
1001
,
0000
0010
0000
1001
,
0000
0100
0000
0110
,
0000
0000
0000
0000
0000
0000
0000
0000
0000
0000
1000
0000
0000
0001
0000
0000
,
1000
0002
0000
1003
,
0000
0020
0000
1030
,
0000
2000
0000
3001
;

//---------------dance-single - Copied from Copied f----------------
#NOTES:
     dance-single:
     Copied from Copied f:
     Medium:
     8:
     0.314,0.320,0.133,0.216,0.100:
0000
0000
0000
0000
,
0000
0000
0000
0000
,
0000
1001
0010
2000
,
0000
0000
0000
0000
0000
0000
0000
0000
0000
0000
0000
0000
3001
0000
0000
0100
,
0000
0010
1000
0000
0000
0000
0001
0000
,
1000
0000
0010
0000
0000
0000
1000
0001
,
0100
0010
2000
0000
3002
0000
0203
0000
,
0310
0000
0000
0000
1000
0000
0000
0000
0001
0000
0000
0000
0100
0000
0000
1000
,
0000
0100
0010
0000
0001
0000
1000
0000
,
0010
0000
0100
0000
0001
0000
0010
0001
,
1000
0001
0100
0000
0001
0000
2000
0000
,
0010
0000
0000
0000
3010
0000
0000
0000
0100
0000
0000
0000
0001
0000
0000
1000
,
0000
0001
0001
0000
0000
0000
1000
0000
,
0010
0101
0000
1000
,
0010
0100
0001
0000
1000
0000
0020
0000
,
0000
0000
0000
0000
0000
0000
0000
0000
0000
0000
0000
0000
1030
0000
0000
0001
,
0000
1000
0001
0000
0100
0000
0010
0000
,
1000
1001
2002
0000
,
0000
0000
0000
0000
,
3003
0000
0000
0000
0000
0000
1000
0000
0000
0001
0000
0000
0100
0000
0010
0000
2000
0000
0000
0000
0000
0000
0000
0000
0000
0000
0000
0000
0000
0000
0000
0000
,
0000
0000
0000
0000
,
3000
0000
0000
0001
0100
0000
0001
0000
2000
0000
0000
0000
0000
0000
0000
0000
,
0000
0000
0000
3020
0000
0000
0000
0000
,
0000
0000
0000
0000
0100
0000
0130
0000
0001
0000
0000
1000
0000
0000
0010
0000
,
0000
1000
0000
0000
0001
0000
0000
0100
0000
0000
0010
0000
0000
1000
0000
0000
,
0001
1000
0001
0000
2000
0000
0000
0000
,
0000
0000
3010
0020
0000
0000
0000
0000
,
0000
0000
0130
0100
0001
1000
0100
0010
,
0100
1000
0001
0100
0001
1000
0001
1000
,
1001
0000
0000
0000
0000
0000
0000
0000
1000
0000
0000
0001
0000
0000
0100
0000
,
0000
0001
0000
0000
1000
0000
0000
0010
0000
0000
0100
0000
0000
0001
0000
0000
,
0010
0000
0000
0100
0000
0000
0000
0000
1000
0000
0000
0100
0000
0000
1000
0000
,
0000
0001
0000
0000
1000
0000
0000
0010
0000
0000
0100
0000
0000
0001
0000
0000
,
0000
1000
0100
1000
0000
0001
0100
0001
,
0000
0010
0001
0010
0000
0100
1000
0100
,
0000
0010
0001
0010
0000
0001
1000
0001
,
0000
0100
0010
0100
0001
0000
1001
0000
,
1000
0000
0000
0001
0000
0000
1000
0000
0101
0000
0000
0000
1000
0000
0000
0000
,
0010
0100
0001
1000
,
0010
1000
0001
0001
,
0100
0100
0010
1000
,
0001
0100
0002
0000
2003
0000
0000
0000
,
0000
0000
0010
3020
0000
0000
0000
0000
,
0000
0000
0130
0100
0001
0000
0000
0001
,
0000
0000
1000
0000
0001
0000
0100
0010
,
0100
0000
0000
0000
0001
0000
0000
0000
0010
0000
0000
0000
0100
0000
0000
1000
,
0000
0100
1000
0000
0001
0000
0100
0010
,
0100
0000
0001
0000
1000
0000
0010
0100
,
0010
1000
0001
0000
1000
0000
0020
0000
,
0000
0000
0030
1000
,
0001
0100
0020
0000
0000
2030
0000
0000
,
0000
0002
0000
0000
3003
1000
0100
1000
,
0001
0100
2001
0000
0000
3000
1001
0000
,
0000
0000
0020
0000
0000
0030
0110
0000
,
0000
2000
3000
0101
,
0000
0000
0000
0000
0010
0000
0000
0000
1000
0000
1010
0000
0000
1001
0000
0000
,
0101
0002
0000
1003
,
0000
0020
0030
1001
,
0000
0200
0300
1001
,
0000
0010
0000
0000
;

//---------------dance-double - Copied from----------------
#NOTES:
     dance-double:
     Copied from:
     Hard:
     14:
     0.492,0.634,0.183,0.191,0.399:
00000000
00000000
00000000
00000000
,
00000000
00000000
00000000
00000000
,
00000000
00012000
00023000
00032000
,
00013000
00000000
00000000
00000000
00010000
00000000
00000000
00000100
00000000
00000000
00001000
00000000
00000100
00000000
00000000
00001000
,
00000000
00000000
00000010
00000000
00000100
00000000
00000000
00000001
00000000
00000000
00000001
00000000
00000010
00000000
00000100
00000000
,
00001000
00000000
00000100
00000000
00000010
00000000
00000000
00010000
00000000
00000000
00001000
00000000
00100000
00000000
00010000
00000000
,
10000000
00100000
10000000
00000000
10100000
00000000
10010000
00000000
,
00010000
00000000
10000000
00100000
10000000
00000000
00000000
00010000
00000000
00000000
01000000
00000000
00100000
00000000
00000000
10000000
,
00000000
00000000
01000000
00000000
00001000
00000000
00000000
00100000
00000000
00000000
00010000
00000000
00100000
00001000
00100000
00000000
,
00001000
00000000
00010000
00000000
00000010
00000000
00000000
00000100
00000000
00000000
00000001
00000000
00000100
00000010
00000100
00000000
,
00000001
00000100
00000101
00000000
00001100
00000000
00022000
00000000
,
00033000
00000000
00000000
00000000
00001000
00000000
00000000
00010000
00000000
00000000
00001000
00000000
01000000
00000000
00100000
10000000
,
00000000
10000000
01000000
00000000
00100000
00000000
00000000
00010000
00000000
00000000
10000000
00000000
00010000
00000000
00100000
00000000
,
00010000
00000000
10000000
00000000
00100000
00000000
00000000
00100000
00000000
00000000
00100000
00000000
10000000
00000000
00010000
00000000
,
01000000
00100000
02000000
00000000
03002000
00000000
00023000
00000000
,
00030010
00000000
00001000
00000000
00000010
00000100
00000000
00000000
00000001
00000010
00000001
00000000
00000100
00000000
00000010
00000100
,
00000010
00000000
00001000
00000000
00000100
00000000
00010000
00001000
00010000
00000000
00001000
00100000
00001000
00000000
00100000
00000000
,
00010000
00000000
10000000
00000000
10100000
00000000
00000000
00000000
02000000
00000000
00000000
00000000
03000000
00000000
00000000
00002000
,
00000000
00000000
00000000
00000000
00000000
00000000
00000000
00023000
00000000
00000000
00000000
00000000
00000000
00000000
00000000
00030000
,
00000000
00000000
00001000
00000000
00010000
00000000
00001000
00000000
00000000
00010000
00000000
00000000
00000010
00000000
00000100
00000000
00000002
00000000
00000000
00000000
00000000
00000000
00000000
00000000
00000000
00000000
00000000
00000000
00000000
00000000
00000200
00000000
,
00000000
00000003
00000000
00000000
00000000
00000000
00000000
00000000
00000320
00000000
00000000
00000000
00000000
00000000
00000000
00000000
,
00000030
00000000
00000000
00000001
00000100
00000010
00001000
00000001
00000100
00000000
00000000
00000000
00001100
00000000
00000000
00000000
,
00010100
00000000
00000000
00000000
00010100
00000000
00000000
00000000
00010000
00000000
00000000
00000001
00000000
00000000
00000100
00000000
,
00000000
00000010
00000000
00000000
00000100
00000000
00000001
00000000
00000100
00000000
00000010
00000100
00000000
00000010
00000100
00000000
,
00000001
00000100
00000000
00000010
00001000
00000000
00000100
00001000
00000000
00000100
00001000
00000000
00000010
00000100
00000000
00000000
,
00000001
00000010
00001000
00010000
01000000
10000000
01000000
00010000
,
00001000
00000010
00000001
00000010
00000100
00001000
00010000
00100000
,
01000000
00000000
10000000
00000000
00100000
00000000
01000000
00000000
00010000
00100000
00001000
00010000
00000100
00010000
00001000
00010000
,
00000100
00001000
00000010
00000100
00000001
00000100
00000010
00001000
00000100
00000010
00000001
00000100
00000010
00000100
00000001
00000100
,
00000001
00000000
00000000
00000000
00000000
00000000
00000000
00000000
00011000
00000000
00000000
00001000
00000000
00000000
01000000
00000000
,
00000000
00100000
00000000
00000000
10000000
00000000
00000000
00100000
00000000
00000000
01000000
00000000
00000000
00010000
00000000
10000000
,
00100000
00000000
00100000
10000000
00000000
10000000
00010000
00000000
10000000
00000000
00000000
00100000
00000000
00000000
01000000
00000000
,
00000000
00010000
00000000
00000000
01000000
00000000
00000000
10000000
00000000
00000000
01000000
00000000
00000000
00010000
00000000
00000000
,
00000000
10000000
01000000
00010000
00000000
00001000
00000100
00000001
,
00000000
00000001
00000100
00001000
00000000
00010000
00100000
10000000
,
00000000
10000000
01000000
00010000
00000000
00001000
00000010
00000001
,
00000000
00000010
00010000
00001000
00000000
00001000
00100000
00010000
,
01000000
00000000
00000000
01000000
00000000
00000000
00100000
00000000
20000000
00000000
00000000
00000000
00000000
00000000
00010000
00000000
,
00000000
00000000
00000000
00000000
00100000
00000000
30100000
00000000
00000000
00000000
01000000
00000000
00000000
00010000
00000000
00000000
,
01000000
00000000
00000000
00100000
00000000
00000000
10000000
00000000
00000000
00100000
00000000
00000000
10000000
00000000
02000000
00000000
,
00000000
00000000
03100000
00020000
00000000
00000000
00000000
00130000
,
00001000
00010000
00000100
00000000
00002000
00000000
00000000
00000000
,
00000000
00000000
00000001
00003002
00000000
00000000
00000000
00000000
,
00000000
00000000
00000000
00000000
00000000
00000000
00000103
00000000
00000010
00000000
00000000
00000100
00000000
00000000
00000101
00000000
,
00000000
00000000
00000000
00000000
11000000
00000000
10000000
00010000
00100000
01000000
10000000
00000000
00010000
01000000
00001000
00010000
,
00001000
00000000
00010000
00001000
00010000
00000000
00001000
00010000
00000100
00001000
00000010
00000000
00010000
00000100
00001000
00000010
,
00010000
00000000
00001000
00010000
00001000
00000000
00010000
00001000
01000000
00100000
01000000
00000000
00001000
00100000
00010000
01000000
,
00001000
00000000
00010000
00001000
00010000
00000000
00001000
00010000
00000100
00000000
00001000
00000000
00000010
00000100
00000001
00001000
,
00000100
00000000
00000010
00000000
00000001
00000000
00000100
00000000
00000010
00010000
00001000
00010000
00000100
00000000
00010000
00000000
,
00001000
00000000
00010000
00000000
00001000
00000000
01000000
00000000
00100000
00000000
10000000
00000000
01000000
00000000
00000000
00100000
,
00000000
10000000
00002000
00000000
00000000
00020000
00000000
00000000
,
00000000
00033010
00000000
00000000
00000000
00000001
00000100
00001000
,
00010000
00000000
01000000
00000000
10000000
00000000
00000000
00010000
00000000
00000000
00100000
00000000
00011000
00000000
00000000
00000000
,
00001000
00000000
00000000
00000000
00010000
00000000
00000000
01000000
00000000
00000000
00100000
00000000
10100000
00000000
00000000
00000000
,
00000000
00000000
00000000
00000000
10000000
00000000
00000000
00010000
00000000
00000000
01000000
00000000
00011000
00000000
00000000
00000000
,
00010000
00000000
00000000
00100000
00000000
00000000
00001000
00000000
00000100
00000000
00001100
00000000
00000000
00001010
00000000
00000000
,
00000011
00000000
00000001
00000000
00001000
00000000
00000000
00000100
00000000
00000000
00001000
00000000
00110000
00000000
00000000
00000000
,
00010000
00000000
00000000
00000000
00010000
00000000
00000000
10000000
00000000
00000000
00100000
00000000
10010000
00000000
00000000
00000000
,
00000000
20020000
00000000
30030000
;

//---------------dance-single - ----------------
#NOTES:
     dance-single:
     :
     Beginner:
     1:
     0.093,0.146,0.017,0.025,0.000:
0000
0000
0000
0000
,
0000
0000
0000
0000
,
0000
1001
0000
1000
,
0000
0000
0000
0100
,
0000
0010
0000
0000
,
0000
0000
0000
0000
,
0000
1000
0000
1000
,
0000
0000
0000
0000
,
0000
1000
0000
1000
,
0000
1000
0000
0000
,
0100
0000
1000
1000
,
0000
0000
0000
1000
,
0000
0001
0000
1000
,
0000
0010
0000
0100
,
0000
0001
0000
0010
,
0000
0000
0000
1000
,
0000
0001
0000
1000
,
0000
1001
1000
0000
,
0001
0000
0100
0000
,
0000
0000
1000
0000
,
0001
0000
0100
0000
,
0000
0000
0010
0000
,
0000
0000
0000
0000
,
0000
0000
0000
0000
,
0000
0000
0000
0000
,
1000
0000
0001
0000
,
0001
0000
1000
0000
,
1000
0000
0001
0000
,
1000
0000
0001
0000
,
0001
0000
2000
0000
,
0000
0000
3000
0000
,
0000
0000
0200
0000
,
0000
0000
0300
0000
,
0000
1000
0000
0001
,
0000
1000
0000
0010
,
0000
0100
0000
0001
,
0000
1000
0000
0000
,
0000
0000
1000
0000
,
0000
1000
0000
0000
,
0001
0000
0000
0000
,
0010
0000
0000
0000
,
0010
0000
1000
0000
,
0000
0000
0001
0000
,
0000
0000
1000
0000
,
0000
1000
0000
0000
,
0000
0001
0000
0000
,
0000
1000
0000
0000
,
0000
1000
0000
0000
,
0000
0001
0000
0000
,
0000
1000
0000
0000
,
0000
2000
0000
0000
,
0000
0000
0000
3000
,
0000
1000
0000
0001
,
0000
0010
0000
1000
,
0000
0100
0000
0010
,
0000
0000
0000
0000
,
1000
0000
0000
1000
,
0000
0000
0000
1000
,
0000
0000
0000
0001
;

//---------------dance-single - Copied from ----------------
#NOTES:
     dance-single:
     Copied from:
     Challenge:
     15:
     0.603,0.658,0.232,0.174,0.614: // measure 1
0000
0000
0000
0000
,  // measure 2
0000
0000
0000
0000
,  // measure 3
0000
0000
0000
0000
1000
0100
1000
0100
0010
0001
0010
0000
0001
1000
0001
1000
,  // measure 4
0001
0000
0100
0010
0100
0000
0010
1000
0010
0100
0001
0000
0010
0100
1000
0100
,  // measure 5
0010
0000
0001
1000
0100
0000
0010
0001
0010
0001
0010
0000
0100
1000
0100
1000
,  // measure 6
0100
0000
0010
0001
0010
0000
0100
1000
0100
0010
0001
0000
1000
0100
0010
0001
,  // measure 7
0010
0000
0100
1000
0010
0000
1000
0100
0010
0001
0010
0000
0100
1000
0100
0010
,  // measure 8
0001
0000
1000
0010
1000
0000
0001
0010
0100
1000
0100
0000
0010
0001
0100
0010
,  // measure 9
1000
0000
0100
0010
0001
0000
0010
0100
1000
0010
1000
0000
0010
0100
0001
0100
,  // measure 10
0001
0000
1000
0001
1000
0000
0100
0010
0001
0010
0100
0000
1000
0001
1000
0000
,  // measure 11
0010
1000
0010
0000
2010
0000
0000
0000
0001
0000
0000
0000
0020
0000
0000
0000
,  // measure 12
3030
0000
0000
0000
1000
0000
0001
0010
0100
1000
0100
0000
0010
0000
0001
0100
,  // measure 13
0000
0100
0010
0000
1000
0000
0100
0010
0001
0010
0100
0000
1000
0100
0010
0001
,  // measure 14
0010
0000
0100
0000
1000
0000
0100
0010
0001
0010
0100
0000
1000
0010
0100
0001
,  // measure 15
0100
0010
2000
0000
3200
0000
2300
0000
,  // measure 16
3001
0000
0000
0000
0100
0000
0010
0100
1000
0100
0010
0000
0001
0010
0100
1000
,  // measure 17
0100
0000
0100
0000
0001
0000
0010
0100
1000
0100
0010
0000
0001
0100
0010
0100
,  // measure 18
0001
0000
1000
0000
1010
0000
0000
0000
2000
0000
0000
0000
0000
0000
0000
3020
,  // measure 19
0000
0000
0000
0000
0000
0000
0100
0200
0000
0000
0000
0000
0330
0000
0000
0000
,  // measure 20
0000
0000
0001
0000
1000
0000
0001
0000
0000
1000
0000
0000
0010
0000
0100
0000
0002
0000
0000
0000
0000
0000
0000
0000
0000
0000
0000
0000
0000
0000
0203
0000
,  // measure 21
0000
0000
0320
0000
,  // measure 22
0030
0000
0000
1000
0100
0010
0100
1000
0002
0000
0000
0000
0013
0000
0100
1000
,  // measure 23
0000
1000
0100
0000
0010
0001
0000
0001
1000
0000
1000
0100
0000
0010
0001
0000
,  // measure 24
0100
0010
0000
1000
0001
0000
1000
0000
0001
0000
0000
0101
0000
0000
1010
0000
,  // measure 25
0000
0110
0000
0000
0101
0000
0000
0110
0000
0000
1010
0000
0000
1001
0000
0000
,  // measure 26
0100
0010
0100
0000
0010
0001
0010
0100
,  // measure 27
1000
0001
0010
0001
1000
0100
0010
0001
,  // measure 28
0100
0000
0010
0000
1000
0000
0001
0000
1000
0100
1000
0100
0010
0001
0010
0001
,  // measure 29
1000
0010
1000
0010
0100
0001
0100
0001
1000
0010
1000
0001
0010
0100
1000
0001
,  // measure 30
1000
0000
0000
0000
0000
0000
0000
0000
1001
0000
0000
0001
0000
0000
0100
0000
,  // measure 31
0000
0010
0000
0000
1000
0000
0000
0010
0000
0000
0100
0000
0000
0001
0000
1000
,  // measure 32
0010
0000
0010
1000
0000
1000
0001
0000
1000
0000
0000
0010
0000
0000
0100
0000
,  // measure 33
0000
0001
0000
0000
0100
0000
0000
1000
0000
0000
0100
0000
0000
0001
0000
1000
,  // measure 34
0100
0000
0000
0010
0000
0000
0001
0000
0100
0000
0000
0010
0000
0000
1000
0000
,  // measure 35
0000
0100
0000
0000
0010
0000
0000
0001
0000
0000
0100
0000
0000
0010
0000
0000
,  // measure 36
1000
0000
0000
0001
0000
0100
0010
0000
1000
0000
0000
0100
0000
0000
0010
0000
,  // measure 37
0000
0001
0000
0000
1000
0000
0010
0000
0000
0000
0100
0000
0001
0000
0100
0000
,  // measure 38
0001
0000
0000
0100
0000
0000
0010
0000
1000
0000
0001
0000
0101
0000
0001
0000
,  // measure 39
0010
0100
0010
0000
0110
0000
0100
1000
0100
0000
0010
0000
0011
0000
0100
0000
,  // measure 40
0010
1000
0010
1000
0001
0000
1001
2000
,  // measure 41
0000
3000
1100
2000
0000
0000
0000
3100
,  // measure 42
0010
0001
0010
0000
0022
0000
0000
0000
,  // measure 43
0033
0000
0001
2002
0000
0000
0000
0000
,  // measure 44
3003
0000
0000
0000
0100
0000
0100
0000
0010
0000
0000
1000
0000
0000
1100
0000
,  // measure 45
0000
0000
1000
0000
0001
0000
0100
0000
1000
0100
0001
0000
0100
0001
0100
0001
,  // measure 46
1000
0000
1000
0010
0100
0010
1000
0000
0001
1000
0001
1000
0100
0010
0001
0010
,  // measure 47
0100
0000
1000
0001
1000
0000
0010
0100
0010
1000
0100
0000
0010
0001
0100
0001
,  // measure 48
1000
0000
0001
0100
0001
0000
0100
0010
1000
0010
0100
0000
0001
0000
0010
0000
,  // measure 49
0100
0000
0100
0000
0010
0000
1000
0100
0010
0001
0100
0000
0010
1000
0100
0010
,  // measure 50
0001
0000
1000
0000
0001
0000
0100
0000
0010
0000
1000
0000
0100
0000
0000
0010
,  // measure 51
0000
0001
0100
0010
1000
0100
0010
0001
,  // measure 52
1000
0100
0010
0001
1000
0100
0010
0001
,  // measure 53
0100
0000
0010
0000
2010
0000
0000
0001
0000
0000
3001
0000
1001
0000
0000
0000
,  // measure 54
0000
0000
0000
0000
0001
0000
0000
0100
0000
0000
0010
0000
1010
0000
0000
0000
,  // measure 55
0000
0000
0000
0000
1000
0000
0000
0001
0000
0000
0100
0000
0101
0000
0000
0000
,  // measure 56
0001
0000
0000
1000
0000
0000
0001
0000
0100
0000
1010
0000
0000
1001
0000
0000
,  // measure 57
0101
0000
0001
0000
1000
0000
0000
0010
0000
0000
1000
0000
1001
0000
0000
0000
,  // measure 58
0000
0000
0000
0000
0001
0000
0000
1000
0000
0000
0010
0000
1001
0000
0000
0000
,  // measure 59
0000
2002
0000
3003
;
