#TITLE:One;
#SUBTITLE:(Original Mix);
#ARTIST:Marcelo CIC vs. WAO ft. Miss Palmer;
#TITLETRANSLIT:;
#SUBTITLETRANSLIT:;
#ARTISTTRANSLIT:;
#CREDIT:;
#BANNER:;
#BACKGROUND:;
#LYRICSPATH:;
#CDTITLE:;
#MUSIC:One (Original Mix).ogg;
#OFFSET:-1.875;
#SAMPLESTART:31.795;
#SAMPLELENGTH:14.100;
#SELECTABLE:YES;
#BPMS:0.000=128.000;
#STOPS:60.000=0.469
;
#BGCHANGES:;

//---------------dance-single - ----------------
#NOTES:
     dance-single:
     :
     Hard:
     10:
     0.509,0.488,0.120,0.170,0.120:
0000
0000
0000
0000
,
0000
0000
0000
0000
,
1000
0100
1000
0100
,
0010
0001
0010
0001
,
0010
0100
1000
0001
,
0200
0320
2030
3002
,
1003
0100
0001
1000
0010
0001
1000
0100
,
0001
1000
0010
0001
1000
0100
0010
0100
,
0010
0001
0010
0001
0020
0000
0000
0000
,
0032
0000
0203
0000
0310
1000
0010
1000
,
0001
0100
0010
1000
0001
0100
0010
1000
,
0020
0230
0302
0203
,
0310
1010
1000
1001
,
0100
0001
0100
0010
1000
0100
0010
0001
,
1000
0001
0100
0010
1000
0001
0100
0010
,
1000
0101
0110
1010
,
0001
1000
0001
1000
0001
0000
1000
0000
0000
0000
0002
0000
0000
0000
0000
0000
,
1003
0100
0010
0001
0010
0001
0020
0000
,
0031
1000
0001
1000
0001
0000
0010
0000
0000
0000
0200
0000
0000
0000
0000
0000
,
1300
0010
1000
0100
1000
0000
0002
0000
,
1003
0010
1000
0010
1000
0000
0010
0000
0000
0000
2000
0000
0000
0000
0000
0000
,
3001
0010
0100
1000
0100
0010
0002
0000
,
1003
0010
1000
0010
1000
0000
0100
0000
0000
0000
0020
0000
0000
0000
0000
0000
,
0032
0000
1003
0010
0100
0001
0200
0000
,
0310
1000
0100
1000
0100
1000
0000
0010
,
0100
0001
0100
0010
1000
0100
0010
0000
,
1000
0100
0010
0100
1000
0010
0000
0100
,
0001
0100
0010
0100
0001
0100
0010
0000
,
1000
0100
0010
0001
0100
0010
0000
1000
,
0100
0010
0001
0100
0010
1000
0100
0000
,
0010
0001
0100
0010
1000
0100
0000
0010
,
0001
1000
0010
0010
0100
0001
0101
0000
,
1001
0000
1000
0001
0010
0100
0000
0010
,
1000
0100
0010
0001
0010
0001
1000
0000
,
1001
0001
0100
0010
1000
0100
0000
0010
,
0001
0010
0001
0100
0010
1000
0100
0000
,
0010
0001
0010
0001
0010
0001
0000
1000
,
0010
1000
0010
1000
0010
0100
0001
1000
,
0100
1000
0100
1000
0100
1000
0000
0001
,
0010
0001
0100
0010
1000
0100
0020
0000
,
0032
0000
0000
0000
0103
0000
0000
0010
0000
0000
1000
0000
0001
0000
0100
0000
,
0001
0000
0100
0000
0001
0000
0000
0100
0000
0000
0010
0000
1000
0000
0010
0000
,
1000
0000
0010
0000
0100
0000
0000
0001
0000
0000
0100
0000
0010
0000
0100
0000
,
0010
0001
0100
0000
0010
0000
1001
0000
,
1001
0000
0000
0000
0001
0000
0000
0100
0000
0000
0010
0000
1000
0000
0000
0000
,
1001
0000
0000
0000
0001
0000
0000
0100
0000
0000
0010
0000
1000
0000
0001
0000
,
0100
0000
0010
0000
1000
0000
0000
1000
0000
0000
0001
0000
1000
0000
0010
0000
,
0100
0000
0000
0001
0000
0000
1000
0000
0100
0000
1000
0000
0010
0000
0100
0000
0001
0000
0100
0000
0000
0010
0000
0000
,
0100
0000
0001
0000
0010
0000
0000
0100
0000
0000
1000
0000
0010
0000
0100
0000
,
0001
0000
0100
0000
0010
0000
0000
0100
0000
0000
1000
0000
0010
0000
0000
0000
,
1010
0000
0000
0000
1000
0000
0000
0001
0000
0000
0100
0000
0010
0000
0000
0000
,
1000
0100
0010
0001
0101
0000
1000
0001
,
1000
0001
0100
0010
0100
0010
1000
0100
,
0010
0001
0100
0010
1000
0010
1000
0100
,
0001
0100
1000
0010
0100
0001
1000
0000
,
0001
0000
0010
0000
1001
0000
1000
0001
,
1000
0000
0001
0000
0100
0000
0000
0010
0000
0000
1000
0000
0001
0000
0000
0000
,
0100
0000
0000
0000
0010
0000
0000
1000
0000
0000
0010
0000
0100
0000
0001
0000
,
0100
0000
0001
0000
1000
0000
0000
0100
0000
0000
0100
0000
0010
0000
0000
0000
,
0010
0000
0000
0000
0000
0000
0001
0000
0000
0000
0000
0000
0010
0000
0100
0000
1000
0000
0100
0000
0000
0010
0000
0000
,
0001
0000
0100
0000
0010
0000
1000
0010
0000
1000
0010
0000
0100
0000
0001
0000
,
1000
0000
0100
0000
0010
0000
0001
0100
0000
0001
0100
0000
0010
0000
1000
0000
,
0100
0000
0010
0000
0001
0000
0100
0010
0000
0100
0010
0000
1000
0000
0000
0100
,
0000
0000
1000
0000
0000
0001
0000
0000
1000
0000
0000
0000
1001
0000
0000
0000
,
0001
0010
0100
1000
0100
0010
0001
0000
,
0100
0010
1000
0100
0010
0001
1000
0000
,
1000
1000
0010
0100
0001
0100
0010
0000
,
1000
0100
0001
0100
1000
0000
1001
0000
,
0100
0010
1000
0100
0010
0001
1000
0000
,
0100
0010
0001
0010
0100
1000
0001
0000
,
0010
0100
1000
0100
0010
0001
0100
0000
,
0100
0010
1000
0100
0010
0001
2002
0000
,
0000
0000
3003
0000
;

//---------------dance-single - ----------------
#NOTES:
     dance-single:
     :
     Easy:
     5:
     0.273,0.368,0.191,0.177,0.000:
0000
0000
0000
0000
,
0000
0000
0000
0000
,
1000
0000
0000
0000
,
0001
0100
0010
1000
,
0010
1000
0100
0010
,
0001
1000
0010
1000
,
2002
0000
0000
0000
,
0000
0000
0000
3003
,
0002
0000
0203
0000
,
0310
1000
0100
0010
,
0002
0000
0000
0003
,
1000
0100
1000
0100
,
2000
0000
3002
0100
,
0103
0010
1000
0001
,
1000
0100
0010
0001
,
1000
0010
0010
2002
,
0000
0000
3003
0000
0000
0200
0000
0000
,
0300
0001
0000
1001
,
0000
1000
0000
0010
,
0000
0100
0000
0020
,
0000
0000
1030
0000
0000
0002
0000
0000
,
0103
0010
0000
0010
,
0000
0000
1000
0000
0000
0002
0000
0000
,
0003
1000
0000
0010
,
0000
2000
0000
3000
,
0000
0001
0100
0001
,
0000
0200
0000
0300
,
0010
0010
1000
0001
,
0000
0200
0000
0300
,
0000
0010
1000
0100
,
0010
0001
0000
1000
,
0001
0100
0010
1000
,
0000
1000
0000
1001
,
0000
0010
0000
0100
,
0000
0010
0000
1000
,
0000
0001
0000
0100
,
0100
0100
0100
0010
,
0010
0010
0010
1000
,
0001
0100
0000
0010
,
1000
0100
0000
0010
,
0001
0100
0010
1000
,
0100
0010
0001
0100
,
0010
1000
0100
1000
,
0000
0001
0001
1001
,
1001
1001
0000
0110
,
0110
0110
0000
0011
,
0011
0011
0000
1100
,
1100
1100
0000
1001
,
1001
1001
0000
0110
,
0110
0110
0000
0011
,
0011
0011
0000
1000
,
1000
1000
0010
0001
,
0100
0010
1000
0100
,
0010
0001
0100
0010
,
1000
0100
0010
0001
,
0001
0001
1001
1000
,
0001
0200
0000
0310
,
1000
0200
0000
0310
,
0001
0200
0000
0310
,
1000
0001
1000
0000
0000
0000
0001
0000
,
0100
0010
0100
0000
0000
0000
0001
0000
,
1000
0100
1000
0000
0000
0000
0001
1000
,
0001
0000
1000
0001
1000
0000
0010
0000
,
0010
0100
0100
0002
,
0203
0320
2030
3001
,
0100
0001
0100
0010
,
1000
0100
0010
0001
,
0100
0010
1000
0100
,
0010
0100
1000
0001
,
0100
0010
1000
0100
,
0010
0100
1000
0001
,
0100
0010
1000
0001
,
2002
0000
0000
0000
,
0000
0000
0000
0000
,
0000
3003
0000
0000
;

//---------------dance-single - Copied from----------------
#NOTES:
     dance-single:
     Copied from:
     Challenge:
     15:
     0.680,1.000,0.234,0.142,0.464:
0000
0000
0000
0000
,
0000
0000
0000
0000
,
1000
0100
1000
0100
0010
0001
0010
0001
,
0100
0010
0100
0010
1000
0001
0100
0010
,
1000
0100
0010
0001
1000
0010
0100
0001
,
1000
0100
1000
0001
1000
0010
1000
0100
,
1000
0100
0010
0001
0010
0100
1000
0001
0100
0010
1000
0100
0010
0100
1000
0001
0010
0100
1000
0100
0010
0001
0100
0010
,
1000
0100
1000
0001
0100
0010
1000
0100
0010
0100
1000
0001
0100
0010
1000
0100
0010
0001
1000
0000
0000
0000
0000
0000
,
0001
0100
0001
0100
0010
0100
0010
0100
,
0001
0100
0010
1000
0100
0001
0100
1000
,
0001
0100
0010
1000
0100
0010
0001
0100
,
0010
1000
0010
0100
0001
0100
0010
1000
,
0020
0100
0100
0130
2000
0010
0010
3010
,
0100
0001
0100
0010
1000
0100
0010
0001
,
1000
0001
0100
0010
1000
0001
0100
0010
,
1000
0000
0101
0100
0110
0100
2010
0000
,
3001
0100
0010
1000
0001
0000
1000
0000
0000
0000
0102
0000
0000
0000
0000
0000
,
1003
0010
0100
0000
0001
0000
0010
0100
1000
0000
0001
0000
0120
0000
0000
0000
,
0130
0001
1000
0010
1000
0000
0001
0000
0000
0000
2001
0000
0000
0000
0000
0000
,
3001
0100
0010
0000
1000
0000
0100
0010
0001
0000
0000
0000
1002
0000
0000
0000
,
1003
0010
0100
0001
1000
0000
0010
0000
0000
0000
2010
0000
0000
0000
0000
0000
,
3001
0100
0010
0000
1000
0000
0100
0010
0100
0000
0010
0000
0002
0000
0000
0000
,
1003
0010
0100
0001
1000
0000
0100
0000
0000
0000
0020
0000
0000
0000
0000
0000
,
0032
0000
1003
0010
0100
0001
0200
0000
,
0310
1000
0100
0001
0100
1000
0000
0010
,
0100
0001
0100
0010
1000
0100
0001
0000
,
1000
0100
0001
0100
1000
0010
0000
0100
,
0001
0100
1000
0100
0001
0100
0010
0000
,
1000
0100
0010
0001
0100
0010
0000
1000
,
0100
0010
0001
0100
0010
1000
0100
0000
,
0010
0001
0100
0010
1000
0100
0000
0010
,
0001
1000
0010
0010
0100
0001
0101
0000
,
1001
0000
1000
0000
1001
0000
0001
0100
0010
0000
0100
0000
0110
0000
0010
0000
,
1000
0000
0100
0000
0010
0000
0001
0100
0000
0100
0001
0000
1001
0000
0000
0000
,
1001
0000
0001
0000
0100
0000
0010
1000
0010
0000
1000
0000
1001
0000
1000
0000
,
0001
0000
0100
0000
0010
0000
1000
0100
0000
0100
1000
0000
0001
0000
0100
0000
,
0010
0000
1000
0000
0100
0000
0010
0001
0010
0000
0100
0000
1000
0000
0100
0000
,
0001
0000
0100
0000
1000
0000
0010
0100
0000
0100
0001
0000
0100
0000
0010
0000
,
1000
0000
0100
0000
0010
0000
0000
0001
0000
0000
0100
0000
0001
0000
0100
0000
,
1000
0000
0100
0000
0001
0000
0100
0010
0000
0100
0010
0000
1000
0001
1000
0001
,
0100
0010
0100
0010
1000
0000
0001
0100
0000
0100
0001
0000
1000
0010
0100
0001
,
1000
0010
0100
0010
1000
0000
0001
0100
0000
0100
0001
0000
1000
0100
1000
0100
,
0010
0001
0010
0001
1000
0010
0100
0001
1000
0100
0010
0100
1000
0000
0100
0000
,
0010
0000
0000
0000
0001
0000
0000
0000
0100
0000
0000
0000
0010
1000
0010
0000
1000
0000
0000
0000
0001
0000
0000
0000
0101
0000
0000
0000
0010
0000
0000
0000
,
1000
0000
0100
0000
0011
0000
0000
1001
0000
0000
1010
0000
0101
0000
0001
0000
,
0100
0000
0010
0000
1000
0000
0001
0100
0000
0010
1000
0000
1001
0000
0001
0000
,
0100
0000
0010
0000
1010
0000
0000
1000
0000
0000
0001
0000
1001
0000
0010
0000
,
0100
0000
0000
1000
0000
0000
0001
0000
0010
0000
0100
0000
2000
0000
0000
0000
0000
0000
3001
0000
0000
0100
0000
0000
,
0010
0000
0100
0000
0001
0000
0000
0100
0000
0000
0010
0000
1010
0000
0100
0000
,
0001
0000
0100
0000
0010
0000
1000
0100
0000
1000
0100
0000
0020
0000
0001
0000
,
0001
0000
0031
0000
1000
0000
0000
0001
0000
0000
0100
0000
0110
0000
0010
0000
,
1000
0000
0100
0000
0010
0000
0001
0000
0101
0000
0000
0000
1001
0000
0001
0100
,
0010
0000
1000
0000
0100
0010
0001
0000
0100
0000
0010
0000
1000
0000
0001
0100
,
0010
0000
1000
0000
0100
0010
0001
0000
0100
0000
0000
0000
0010
1000
0010
1000
,
0001
0100
0010
1000
0100
0010
0001
0100
0010
1000
0100
0010
0001
0000
0000
0000
,
0001
0000
0000
0000
0000
0000
0001
0000
0010
0000
0001
0000
0010
0000
0000
0000
0000
0000
0100
0000
0000
0000
0000
0000
1001
0000
0000
0000
0000
0000
0010
0000
0000
0000
0000
0000
1001
0000
0000
0000
0000
0000
1000
0000
0000
0100
0000
0000
,
2000
0000
0001
0000
0001
0000
3001
0100
0000
0000
0010
0000
2000
0000
0001
0000
,
0001
0000
3001
0000
0100
0000
0010
1000
0000
0010
1000
0000
0002
0000
0100
0000
,
0100
0000
0103
0000
0010
0000
1000
0100
0000
0000
1100
0000
0010
0000
0001
0100
,
0010
0000
0000
0000
0000
0000
1000
0000
0000
0000
0000
0000
0100
0000
0000
0000
0000
0000
0010
0000
0000
0001
0000
0000
0010
0000
0000
0000
0100
0000
0000
0000
1000
0000
0000
0000
0100
0000
0000
0000
0000
0000
0010
0000
0000
0000
0000
0000
,
0001
0000
0100
0000
0010
0000
1000
0010
0000
1000
0010
0000
0100
0000
0001
0000
,
1000
0000
0100
0000
0010
0000
0001
0100
0000
0001
0100
0000
0010
0000
1000
0000
,
0100
0000
0010
0000
0001
0000
0100
0010
0000
0100
0010
0000
1000
0100
0000
0100
,
1000
0000
1000
0001
0000
0001
1000
0000
1000
0001
0100
0010
2001
0000
0000
0001
,
3001
0000
0010
0000
0100
0000
1000
0000
0100
0000
0010
0000
0001
0000
0000
0001
,
0100
0000
0010
0000
1000
0000
0100
0000
0010
0000
0001
0010
0100
0000
0000
0100
,
1000
0000
1000
0000
0010
0000
0100
0000
0001
0000
0100
0000
0010
0000
0000
0010
,
1000
0000
0100
0000
0001
0000
0100
0000
1000
0000
0000
0000
1001
0000
0000
0001
,
0100
0000
0010
0000
1000
0000
0100
0000
0010
0000
0001
0000
1000
0000
0000
0010
,
0100
0000
0001
0000
0100
0000
0010
0000
1000
0000
0001
1000
0001
0000
0000
1000
,
0010
0000
0100
0000
0001
0000
1000
0000
0100
0000
0010
0000
0001
0000
0000
0001
,
0100
0010
1000
0100
0010
0001
2002
0000
,
0000
0000
3003
0000
;

//---------------dance-single - ----------------
#NOTES:
     dance-single:
     :
     Beginner:
     2:
     0.118,0.157,0.064,0.106,0.000: // measure 1
0000
0000
0000
0000
,  // measure 2
0000
0000
0000
0000
,  // measure 3
1000
0000
0000
0000
,  // measure 4
1000
0000
0010
0000
,  // measure 5
0100
0000
1000
0000
,  // measure 6
0010
0000
1000
0000
,  // measure 7
2002
0000
0000
0000
,  // measure 8
0000
0000
0000
3003
,  // measure 9
0001
0000
0100
0000
,  // measure 10
0001
0000
0010
0000
,  // measure 11
1000
0000
0001
0000
,  // measure 12
0020
0000
0030
0000
,  // measure 13
0100
0000
1000
0000
,  // measure 14
2000
0000
3000
0000
,  // measure 15
0001
0000
1000
0000
,  // measure 16
0001
0000
0000
0002
,  // measure 17
0000
0000
0000
0003
,  // measure 18
0000
1000
0000
0020
,  // measure 19
0000
0030
0000
0200
,  // measure 20
0000
0300
0000
0002
,  // measure 21
0000
0003
0000
2000
,  // measure 22
0000
3000
0000
0020
,  // measure 23
0000
0030
0000
0200
,  // measure 24
0000
0300
0000
0001
,  // measure 25
0000
0100
0000
0010
,  // measure 26
0000
1000
0000
0001
,  // measure 27
0000
0100
0000
0010
,  // measure 28
0000
0001
0000
1000
,  // measure 29
0000
0001
0000
0100
,  // measure 30
0000
0010
0000
1000
,  // measure 31
0000
0100
0000
0010
,  // measure 32
0000
0001
0000
1001
,  // measure 33
0000
0000
0000
0000
,  // measure 34
0000
0000
0000
0010
,  // measure 35
0000
0000
0000
0000
,  // measure 36
0000
0000
0000
0100
,  // measure 37
0000
0000
0000
0000
,  // measure 38
0000
0000
0000
0100
,  // measure 39
0000
0000
0000
0000
,  // measure 40
0000
0000
0000
1000
,  // measure 41
0000
0001
0000
0100
,  // measure 42
0000
0010
0000
1000
,  // measure 43
0000
0001
0000
0000
,  // measure 44
0000
0000
0000
1001
,  // measure 45
0000
0000
0000
1001
,  // measure 46
0000
0000
0000
0110
,  // measure 47
0000
0000
0000
0110
,  // measure 48
0000
0000
0000
1000
,  // measure 49
0000
1000
0000
0001
,  // measure 50
0000
0001
0000
0100
,  // measure 51
0000
0100
0000
1000
,  // measure 52
0000
0000
1001
0000
,  // measure 53
0001
0000
1000
0000
,  // measure 54
0001
0000
0100
0000
,  // measure 55
0100
0000
0001
0000
,  // measure 56
0000
0000
1001
0001
,  // measure 57
0000
1000
0000
1000
,  // measure 58
0000
0000
0000
0001
,  // measure 59
0000
0000
0000
1000
,  // measure 60
0000
0000
0000
0001
,  // measure 61
0000
0000
0000
0100
,  // measure 62
0000
0000
0000
0001
,  // measure 63
0000
1000
0000
0001
,  // measure 64
0000
0000
0000
0002
,  // measure 65
0003
0000
0000
2000
,  // measure 66
3000
0000
0000
0010
,  // measure 67
0000
0000
0000
0100
,  // measure 68
0000
0000
0000
0001
,  // measure 69
0000
0000
0000
0100
,  // measure 70
0000
0000
0000
0010
,  // measure 71
0000
0000
0000
1000
,  // measure 72
0000
0000
0000
2002
,  // measure 73
0000
0000
0000
0000
,  // measure 74
0000
0000
0000
0000
,  // measure 75
3003
0000
0000
0000
;

//---------------dance-single - Copied from ----------------
#NOTES:
     dance-single:
     Copied from:
     Medium:
     7:
     0.400,0.446,0.120,0.234,0.028: // measure 1
0000
0000
0000
0000
,  // measure 2
0000
0000
0000
0000
,  // measure 3
1000
0001
0100
0010
,  // measure 4
1000
0100
0010
0001
,  // measure 5
0100
0010
1000
0100
,  // measure 6
0010
0001
0100
0010
,  // measure 7
1000
0100
1000
0100
0010
0001
0100
0010
,  // measure 8
1000
0100
0010
0100
1000
0001
1000
0000
,  // measure 9
2002
3003
0202
0303
,  // measure 10
0002
0203
0320
2030
,  // measure 11
3010
0100
0001
0100
,  // measure 12
0020
2030
3200
0320
,  // measure 13
0031
0100
0100
0001
,  // measure 14
2001
0010
0001
0100
,  // measure 15
3001
0100
0001
0000
1000
0010
1000
0000
,  // measure 16
1001
0010
0010
0201
,  // measure 17
0310
1000
0010
1000
0000
0010
0000
0000
,  // measure 18
0100
0001
0100
0010
1000
0000
0002
0000
,  // measure 19
1003
0010
0100
0001
0000
2000
0000
0000
,  // measure 20
3001
0100
0001
1000
0010
0000
0200
0000
,  // measure 21
0301
1000
0010
0100
0000
0002
0000
0000
,  // measure 22
0103
0010
1000
0100
0010
0000
0002
0000
,  // measure 23
0103
0010
1000
0100
0000
0020
0000
0000
,  // measure 24
0031
1010
0101
0001
,  // measure 25
1000
0000
0001
0100
0010
1000
0000
0010
,  // measure 26
0100
0001
0100
0000
0010
0000
1000
0000
,  // measure 27
0100
0000
0010
0001
0100
0010
0000
0010
,  // measure 28
1000
0100
0010
0000
0001
0000
0100
0000
,  // measure 29
0010
0000
1000
0100
0010
0100
0000
1000
,  // measure 30
0001
0000
0100
0010
1000
0100
0010
0000
,  // measure 31
0001
0100
0010
1000
0100
0010
0000
0001
,  // measure 32
0100
0001
0100
0010
1000
0001
0100
0000
,  // measure 33
0110
0000
0000
0000
0100
0000
0000
0100
0000
0000
0010
0000
1000
0000
0000
0000
,  // measure 34
1001
0000
0000
0000
0001
0000
0000
0100
0000
0000
0010
0000
1000
0000
0000
0000
,  // measure 35
1001
0000
0001
0100
0010
1000
0000
0001
,  // measure 36
0100
0001
1000
0001
0100
0001
0100
0000
,  // measure 37
0010
1000
0100
0010
0100
1000
0000
0001
,  // measure 38
0100
0000
0010
1000
0010
0000
0100
0000
,  // measure 39
0001
0000
1000
0100
1000
0100
0000
0010
,  // measure 40
0001
0100
0010
1000
,  // measure 41
0001
0000
0000
0000
0100
0000
0000
0010
0000
0000
0100
0000
1000
0000
0000
0000
,  // measure 42
0010
0000
0000
0000
0100
0000
0000
0001
0000
0000
0100
0000
0010
0000
0000
0000
,  // measure 43
1000
0000
0100
0010
0001
0010
0100
1000
,  // measure 44
0100
0010
0001
0000
1001
0000
0001
0000
,  // measure 45
0100
0010
1000
1001
,  // measure 46
0001
0100
0010
1010
,  // measure 47
0100
0001
0100
1010
,  // measure 48
1000
0000
0000
0001
0000
0001
0100
0000
0100
0010
0000
0000
,  // measure 49
2000
0000
0000
0000
0001
0000
0000
0001
0000
0000
3001
0000
0000
0000
0000
0000
,  // measure 50
0100
0010
1000
0100
,  // measure 51
0200
0000
0000
0000
0001
0000
0000
0001
0000
0000
0301
0000
0100
0000
0000
0000
,  // measure 52
0010
1000
1001
0001
,  // measure 53
0100
0010
1000
0100
,  // measure 54
0010
0000
0001
0000
0100
0000
0010
1000
,  // measure 55
0010
0000
0100
0001
0100
0000
0010
0000
,  // measure 56
0010
0000
0010
0000
1001
0000
0001
0100
,  // measure 57
0001
0000
0100
0000
0010
0000
1000
0010
,  // measure 58
1000
0000
0100
0000
0010
0000
0001
0100
,  // measure 59
0010
0000
1000
0000
0100
0000
0010
0001
,  // measure 60
0100
0000
0010
0000
2000
0000
3001
0100
,  // measure 61
0001
0000
0100
0000
0010
0000
1000
0100
,  // measure 62
0010
0000
0001
0000
0100
0000
0010
1000
,  // measure 63
0001
0000
0100
0000
0010
0000
1000
0100
,  // measure 64
0001
0100
1000
0002
,  // measure 65
0203
2300
3200
0302
,  // measure 66
0023
2030
3020
0031
,  // measure 67
1000
0001
0100
0010
,  // measure 68
1000
0100
0010
0001
,  // measure 69
0100
0010
1000
0001
,  // measure 70
0100
0010
1000
0001
,  // measure 71
1000
0010
0100
0001
,  // measure 72
0010
0010
0100
2002
,  // measure 73
0000
0000
0000
0000
,  // measure 74
0000
0000
0000
0000
,  // measure 75
3003
0000
0000
0000
;
