#TITLE:Nonagon;
#SUBTITLE:;
#ARTIST:They Might Be Giants;
#TITLETRANSLIT:;
#SUBTITLETRANSLIT:;
#ARTISTTRANSLIT:;
#CREDIT:;
#BANNER:;
#BACKGROUND:;
#LYRICSPATH:;
#CDTITLE:;
#MUSIC:Nonagon.ogg;
#OFFSET:1.140;
#SAMPLESTART:29.540;
#SAMPLELENGTH:14.360;
#SELECTABLE:YES;
#BPMS:0.000=166.000;
#STOPS:;
#BGCHANGES:;

//---------------dance-single - ----------------
#NOTES:
     dance-single:
     :
     Beginner:
     2:
     0.124,0.206,0.049,0.000,0.000: // measure 1
0000
0000
0000
0000
,  // measure 2
1000
0000
0000
0000
,  // measure 3
0001
0000
0000
0000
,  // measure 4
0100
0000
0000
0000
,  // measure 5
0010
0000
0000
0000
,  // measure 6
1000
0000
0000
0000
,  // measure 7
0001
0000
0000
0000
,  // measure 8
0100
0000
0000
0000
,  // measure 9
0010
0000
0000
0000
,  // measure 10
1000
0000
0000
0000
,  // measure 11
0001
0000
0000
0000
,  // measure 12
0010
0000
0000
0000
,  // measure 13
0100
0000
0000
0000
,  // measure 14
0010
0000
0000
0000
,  // measure 15
1000
0000
0000
0000
,  // measure 16
0001
0000
0000
0000
,  // measure 17
1001
0000
0000
0000
,  // measure 18
1000
0000
0000
0000
,  // measure 19
0001
0000
0000
0000
,  // measure 20
0100
0000
0000
0000
,  // measure 21
0010
0000
0000
0000
,  // measure 22
1000
0000
0000
0000
,  // measure 23
0001
0000
0000
0000
,  // measure 24
1000
0000
0000
0000
,  // measure 25
0001
0000
0000
0000
,  // measure 26
1000
1000
1000
0000
,  // measure 27
0001
0000
0000
0000
,  // measure 28
0100
0000
0010
0010
,  // measure 29
0010
0000
0000
0000
,  // measure 30
1000
0000
0001
0000
,  // measure 31
0100
0000
0010
0000
,  // measure 32
1000
0000
0000
0000
,  // measure 33
1001
0000
0000
0000
,  // measure 34
1001
0000
1000
0000
,  // measure 35
1000
0000
0000
0000
,  // measure 36
0001
0000
1000
0000
,  // measure 37
0001
0000
0000
0000
,  // measure 38
1000
0000
1000
0000
,  // measure 39
0001
0000
0001
0000
,  // measure 40
0100
0000
0000
0000
,  // measure 41
0000
0000
0000
0000
,  // measure 42
0010
0000
0010
0000
,  // measure 43
1000
0000
1000
0000
,  // measure 44
0001
0000
0000
0000
,  // measure 45
0000
0000
0000
0000
,  // measure 46
1000
0000
0000
0000
,  // measure 47
0001
0000
0000
0000
,  // measure 48
0000
0000
0000
0000
,  // measure 49
0010
0000
0000
0000
,  // measure 50
1000
0000
1000
0000
,  // measure 51
0001
0000
0001
0000
,  // measure 52
1000
0000
0000
0000
,  // measure 53
0001
0000
0000
0000
,  // measure 54
0100
0000
0000
0000
,  // measure 55
0010
0000
0000
0000
,  // measure 56
1000
0000
0000
0000
,  // measure 57
1001
0000
0000
0000
;

//---------------dance-single - ----------------
#NOTES:
     dance-single:
     :
     Easy:
     5:
     0.289,0.380,0.049,0.135,0.000: // measure 1
0000
0000
0000
0000
,  // measure 2
1000
0000
0001
0000
,  // measure 3
0100
0010
1000
0001
,  // measure 4
1000
0000
0000
0001
0000
0000
0000
0000
,  // measure 5
1000
0000
0000
0010
0000
0000
0000
0000
,  // measure 6
0100
0001
1000
0010
,  // measure 7
0100
0001
0010
0100
,  // measure 8
1000
0000
0000
0001
0000
0000
0000
0000
,  // measure 9
1000
0000
0000
0001
0000
0000
0000
0000
,  // measure 10
1000
0010
1000
0001
,  // measure 11
0100
0000
0000
0000
,  // measure 12
0010
1000
0001
0100
,  // measure 13
0010
0000
0000
0000
,  // measure 14
1000
0000
0001
0000
,  // measure 15
1000
0000
0010
0100
,  // measure 16
0010
1000
0001
1000
,  // measure 17
1001
0000
0000
0000
,  // measure 18
0001
0100
0001
0100
,  // measure 19
0001
1000
0001
0100
,  // measure 20
0010
0000
0000
1000
0000
0000
0000
0000
,  // measure 21
0001
0000
0000
1000
0000
0000
0000
0000
,  // measure 22
1000
0010
1000
0000
,  // measure 23
0001
0100
0001
1000
,  // measure 24
0001
0000
2000
3002
,  // measure 25
0203
0320
2030
3000
,  // measure 26
0001
0100
0001
1000
,  // measure 27
0001
0000
0000
1000
0000
0000
0000
0000
,  // measure 28
0010
0100
0010
1000
,  // measure 29
0001
0000
0000
0000
,  // measure 30
1000
0001
0100
0010
,  // measure 31
1000
0001
0100
0001
,  // measure 32
0010
0100
1000
0001
,  // measure 33
1001
0000
1000
0001
,  // measure 34
1000
0000
1000
0000
,  // measure 35
0020
0000
0000
0030
,  // measure 36
0100
0000
0001
0000
,  // measure 37
2000
0000
0000
3000
,  // measure 38
0001
1000
0001
0100
,  // measure 39
0001
1000
0001
0100
,  // measure 40
0002
0000
0000
0000
,  // measure 41
0003
0000
0000
0000
,  // measure 42
1000
0001
0100
0010
,  // measure 43
1000
0001
0100
0001
,  // measure 44
2000
0000
0000
0000
,  // measure 45
3000
0000
0000
0000
,  // measure 46
0001
0000
1000
0001
,  // measure 47
0100
0000
0000
0010
,  // measure 48
1000
0001
1000
0001
,  // measure 49
1000
0000
0000
0000
,  // measure 50
0010
0100
0010
1000
,  // measure 51
0001
0100
0001
0010
,  // measure 52
0100
1000
0001
0100
,  // measure 53
1001
0000
0000
0000
,  // measure 54
1000
0000
0000
1000
0000
0000
0001
0000
,  // measure 55
0001
0000
0000
0001
0000
0000
0100
0000
,  // measure 56
0100
0000
0000
0010
0000
0000
1000
0000
,  // measure 57
2002
0000
0000
3003
0000
0000
0000
0000
;

//---------------dance-couple - ----------------
#NOTES:
     dance-couple:
     :
     Hard:
     15:
     0.000,0.000,0.000,0.000,0.000:
00000000
00000000
00000000
00000000
;

//---------------dance-single - Copied from----------------
#NOTES:
     dance-single:
     Copied from:
     Medium:
     9:
     0.456,0.482,0.318,0.159,0.031: // measure 1
0000
0000
0000
0000
,  // measure 2
1000
0001
0100
0010
,  // measure 3
1000
0000
0001
0100
0001
0000
1000
0000
,  // measure 4
1001
0000
0000
0101
0000
0000
0000
0000
,  // measure 5
0011
0000
0000
1001
0000
0000
0000
0000
,  // measure 6
1000
0001
1000
0000
0010
0000
0100
0000
,  // measure 7
0001
0010
0001
0000
1000
0000
0001
0000
,  // measure 8
1001
0000
0000
1010
0000
0000
0000
0000
,  // measure 9
0101
0000
0000
1001
0000
0000
0000
0000
,  // measure 10
1000
0001
1000
0001
1000
0000
0010
0000
,  // measure 11
0101
0000
0000
1001
0000
0000
0000
0000
,  // measure 12
1000
0001
1000
0000
0001
0000
0100
0000
,  // measure 13
0020
2030
3002
2003
,  // measure 14
3001
1000
0010
0100
,  // measure 15
0001
0010
0001
1000
,  // measure 16
0010
1000
0010
0000
0100
0001
0100
0000
,  // measure 17
1001
0000
0000
0000
,  // measure 18
1000
0100
0001
0000
0100
0000
1000
0000
,  // measure 19
1000
0010
0001
0000
0010
0000
1000
0000
,  // measure 20
1001
0000
0000
0101
0000
0000
0000
0000
,  // measure 21
0011
0000
0000
1001
0000
0000
0000
0000
,  // measure 22
1000
0010
1000
0000
0001
0000
0100
0000
,  // measure 23
0001
0010
0001
0000
1000
0000
0001
0000
,  // measure 24
1000
0010
2000
3002
,  // measure 25
0203
0320
2030
3000
,  // measure 26
0001
1000
0001
1000
0001
0000
1000
0000
,  // measure 27
1010
0000
0000
0101
0000
0000
1000
0001
,  // measure 28
1000
0001
0100
0001
,  // measure 29
0010
0000
0001
1000
0001
0000
1000
0000
,  // measure 30
0001
0100
0001
0000
1000
0000
0010
0000
,  // measure 31
0100
0000
0001
0000
0010
0001
0010
0000
,  // measure 32
0001
1000
0001
0000
0100
0010
0100
0000
,  // measure 33
1001
0000
1000
0010
,  // measure 34
1000
0010
0000
0000
0100
0001
0000
0000
,  // measure 35
0010
0001
0000
0001
0000
0000
1000
0000
,  // measure 36
0001
0100
0000
0000
0010
1000
0000
0000
,  // measure 37
0001
0100
0001
0100
0000
0001
1000
0000
,  // measure 38
0001
0100
0001
0000
1000
0000
0010
0000
,  // measure 39
0100
0000
0001
0010
0001
0000
1000
0000
,  // measure 40
0200
0000
0000
1300
0000
0000
0000
0000
,  // measure 41
0020
0000
0000
1030
0000
0000
0000
0000
,  // measure 42
0001
0100
0001
0000
1000
0000
0010
0100
,  // measure 43
0010
1000
0001
0100
,  // measure 44
0010
0000
0000
0000
1000
0000
0001
0000
1000
0000
0001
0000
,  // measure 45
1000
0000
0001
0000
1000
0000
0001
0000
0000
0000
0000
0000
,  // measure 46
1000
0001
0000
1000
0001
0000
1000
0000
,  // measure 47
0010
0000
0000
0000
0000
0000
0100
0001
,  // measure 48
0100
0000
0001
1000
0001
0000
1000
0010
,  // measure 49
0000
0000
0000
0000
0000
0000
0100
0001
,  // measure 50
0100
0000
0010
0000
1000
0000
0001
0100
,  // measure 51
0001
0000
1000
0010
1000
0000
0001
0000
,  // measure 52
0101
0000
0000
1001
0000
0000
0010
0000
,  // measure 53
1001
0000
0000
0000
0000
0000
1000
0001
,  // measure 54
1000
0000
0000
0101
0000
0000
0001
0000
,  // measure 55
0011
0000
0000
1001
0000
0000
0010
0100
,  // measure 56
0010
0000
0000
1001
0000
0000
0100
0000
,  // measure 57
2200
0000
0000
0000
0000
0000
0000
0000
0000
0000
0000
0000
0000
0000
0000
0000
0000
0000
0000
0000
0000
0000
0000
0000
0000
0000
0000
0000
0000
0000
0000
0000
0000
0000
0000
0000
0000
0000
0000
0000
0000
0000
0000
0000
0000
0000
0000
0000
0000
3300
0000
0000
0000
0000
0000
0000
0000
0000
0000
0000
0000
0000
0000
0000
0000
0000
0000
0000
0000
0000
0000
0000
0000
0000
0000
0000
0000
0000
0000
0000
0000
0000
0000
0000
0000
0000
0000
0000
0000
0000
0000
0000
0000
0000
0000
0000
0000
0000
0000
0000
0000
0000
0000
0000
0000
0000
0000
0000
0000
0000
0000
0000
0000
0000
0000
0000
0000
0000
0000
0000
0000
0000
0000
0000
0000
0000
0000
0000
0000
0000
0000
0000
0000
0000
0000
0000
0000
0000
0000
0000
0000
0000
0000
0000
0000
0000
0000
0000
0000
0000
0000
0000
0000
0000
0000
0000
0000
0000
0000
0000
0000
0000
0000
0000
0000
0000
0000
0000
0000
0000
0000
0000
0000
0000
0000
0000
0000
0000
0000
0000
0000
0000
0000
0000
0000
0000
0000
0000
0000
0000
0000
0000
;

//---------------dance-single - Copied from----------------
#NOTES:
     dance-single:
     Copied from:
     Hard:
     13:
     0.684,0.622,0.306,0.269,0.031: // measure 1
0000
0000
0000
0000
,  // measure 2
1000
0100
1000
0100
0010
0001
0010
0001
,  // measure 3
0100
0010
1000
0010
0100
0001
0010
0100
,  // measure 4
1000
0100
0000
0100
0010
0000
0010
0001
,  // measure 5
0000
0001
1000
0000
0001
0100
0001
0100
,  // measure 6
0010
1000
0100
0001
0100
0000
1000
0010
,  // measure 7
0100
0001
0100
0001
1000
0001
0100
0000
,  // measure 8
0010
2000
0000
3001
0200
0000
0310
2000
,  // measure 9
0000
3001
0100
0000
0010
1000
0001
0100
,  // measure 10
0001
1000
0010
0100
0001
0010
0100
1000
,  // measure 11
1100
0000
0000
1001
0000
0001
0100
0001
,  // measure 12
0010
0001
0100
0000
0001
0010
0100
1000
,  // measure 13
0002
0000
0023
0000
0230
0000
2300
0010
,  // measure 14
3010
0100
0001
0000
1000
0100
0001
0100
,  // measure 15
1000
0000
0001
0100
0010
1000
0100
0010
,  // measure 16
0001
0001
0100
0100
0010
0010
1000
1000
,  // measure 17
1001
0000
0000
0000
0000
0001
0001
0001
,  // measure 18
1000
0100
0001
0100
2000
0000
3001
0010
,  // measure 19
1000
0010
0001
1000
0100
0010
0100
1000
,  // measure 20
1001
0000
0000
0101
0000
0001
0100
0010
,  // measure 21
1010
0000
1000
0001
0000
0001
1000
0000
,  // measure 22
0001
0100
1000
0100
0001
0000
0010
0100
,  // measure 23
0010
1000
0001
0100
0001
0000
0010
0000
,  // measure 24
0011
0001
2000
3020
,  // measure 25
0230
0302
2003
3000
,  // measure 26
0001
0100
1000
0100
0001
0100
0010
0000
,  // measure 27
1010
0010
1000
0010
0100
0001
0010
0001
,  // measure 28
0100
0001
0010
0100
1000
0000
0001
0100
,  // measure 29
0001
0000
2000
3020
2030
3000
0001
0100
,  // measure 30
1000
0100
0001
0100
0010
1000
0001
0000
,  // measure 31
1001
0000
0001
0100
0010
1000
0100
0001
,  // measure 32
0100
0100
1000
1000
0001
0001
1000
1000
,  // measure 33
1002
0000
2003
3001
,  // measure 34
1001
1000
0000
0000
1010
0010
0000
0000
,  // measure 35
1010
0010
0100
0001
1000
0100
0010
0000
,  // measure 36
0110
0010
0000
0000
1001
0001
0000
0000
,  // measure 37
1001
1000
0100
0010
0100
1000
0001
1000
,  // measure 38
0001
0010
1000
0000
0020
0000
0031
0100
,  // measure 39
1000
0000
0100
0001
0010
0001
0100
0000
,  // measure 40
0001
1000
0000
1000
0001
0000
0001
0100
,  // measure 41
0000
0100
0010
1000
0010
0100
0001
0100
,  // measure 42
0010
1000
0100
0001
0100
0000
1000
0001
,  // measure 43
1000
1001
0101
0011
,  // measure 44
0001
0000
0000
0000
1000
0000
0010
0000
1000
0000
0001
0000
,  // measure 45
1000
0000
0000
0000
0001
0000
0000
0000
1000
0000
0000
0000
0001
0000
0000
0010
0000
0000
0010
0000
0000
0010
0000
0000
,  // measure 46
0001
0100
0000
0100
0002
0000
1003
0000
,  // measure 47
1001
0000
1000
0010
0100
0000
0001
0010
,  // measure 48
0001
0000
0100
0010
1000
0000
0010
0100
,  // measure 49
0001
1000
0010
1000
0001
1000
0001
1000
,  // measure 50
0010
0100
0001
1000
0100
0001
0100
1000
,  // measure 51
0001
0000
1000
0010
1000
0000
0001
1000
,  // measure 52
0001
0010
1000
0010
0001
0100
1000
0100
,  // measure 53
0001
0100
0010
1000
0000
0001
1000
0010
,  // measure 54
1010
0000
1000
1001
0000
0000
1000
0000
,  // measure 55
1001
0000
0100
0101
0000
0001
0010
1000
,  // measure 56
0010
0000
0001
1000
0000
1000
0001
0000
,  // measure 57
2002
0000
3003
0000
;
