#TITLE:Never Going Home;
#SUBTITLE:;
#ARTIST:DRC Project;
#TITLETRANSLIT:;
#SUBTITLETRANSLIT:;
#ARTISTTRANSLIT:;
#CREDIT:;
#BANNER:;
#BACKGROUND:;
#LYRICSPATH:;
#CDTITLE:cdtitle.png;
#MUSIC:DRC Project - Never Going Home (The Party Song).ogg;
#OFFSET:0.244;
#SAMPLESTART:49.580;
#SAMPLELENGTH:12.000;
#SELECTABLE:YES;
#BPMS:0.000=141.000;
#STOPS:;
#BGCHANGES:;

//---------------dance-single - ----------------
#NOTES:
     dance-single:
     :
     Easy:
     3:
     0.160,0.203,0.108,0.010,0.000:
0000
0000
0000
0000
,
1001
0000
0000
0000
,
1000
0000
0001
0000
,
0100
0000
0010
0000
,
1000
0000
0001
0000
,
1000
0000
0000
0001
,
1000
0000
0010
0000
,
0100
0000
0001
0000
,
1000
0000
0010
0000
,
0100
0000
0001
0000
,
0110
0000
0010
0000
,
0100
0000
0001
0000
,
1000
0000
0001
0000
,
0100
0000
0000
0000
,
0010
0000
1000
0000
,
0001
0000
0100
0000
,
0010
0000
1000
0000
,
0001
0000
1000
0000
,
1001
0000
1000
0000
,
0001
0000
0100
0000
,
0010
0000
1000
0000
,
0010
0000
0010
0010
,
1001
0000
0100
0000
,
0001
0000
0100
0000
,
0010
0000
1000
0000
,
1001
0000
0000
0000
,
1001
0000
0000
0000
,
0100
0000
0010
0000
,
1000
0000
0001
0000
,
0100
0000
0010
0000
,
1000
0000
0001
0000
,
1000
0000
0001
0000
,
1000
0000
0010
0000
,
0100
0000
0001
0000
,
1001
0000
0000
0000
,
0110
0000
0010
0000
,
0010
0000
0100
0000
,
0001
0000
0001
0000
,
1000
0000
1000
0000
,
0001
0000
0001
0000
,
0100
0000
0100
0000
,
0010
0000
1000
0000
,
0001
0000
0100
0000
,
0020
0000
0030
0000
,
0100
0000
0001
0000
,
1000
0000
1000
0000
,
0001
0000
0100
0000
,
0010
0000
1000
0000
,
0001
0000
1000
0000
,
0001
0000
0010
0000
,
1001
0000
0000
0000
,
0110
0000
0000
0000
,
0001
0000
0000
0000
,
1000
0000
0000
0000
,
0000
0000
0000
0000
,
0001
0000
1000
0000
,
0010
0000
0100
0000
,
0000
0000
0000
0000
,
0000
0000
0000
0000
,
1001
0000
0000
0000
;

//---------------dance-double - Easy----------------
#NOTES:
     dance-double:
     Easy:
     Easy:
     3:
     0.209,0.280,0.088,0.118,0.000:
00000000
00000000
00000000
00000000
,
00000000
00000000
00000000
00000000
,
00000000
00000000
00000000
00000000
,
00000000
00000000
00000000
00000000
,
20000000
30000000
00010000
00010000
,
02000000
03000000
00001000
00001000
,
00020000
00030000
00000010
00000010
,
00002000
00000000
00000000
00003000
,
00000010
00000000
00000100
00000100
,
00001000
00000000
00010000
00010000
,
00100000
00000000
01000000
01000000
,
00020000
00000000
00000000
00030000
,
00100000
00000000
01000000
01000000
,
10000000
00000000
00010000
00010000
,
01000000
00000000
00001000
00001000
,
00020000
00000000
00000000
00030000
,
00000000
00000010
00000000
00000100
,
00000000
00000010
00000000
00001000
,
00000000
00000100
00000000
00010000
,
00000000
00001000
00001000
00001000
,
00100000
01000000
00000000
10000000
,
00000000
00010000
00000000
01000000
,
00000000
00100000
00000000
01000000
,
20010000
00000000
00000000
30000000
,
01000000
01000000
00100000
00100000
,
00010000
00010000
10000000
10000000
,
01000000
01000000
00010000
00010000
,
00001000
00001000
00000010
00000010
,
00000001
00000001
00000100
00000100
,
00001000
00001000
00010000
00010000
,
00100000
00100000
10000000
10000000
,
01000000
01000000
00100000
00100000
,
01100000
00000000
00000000
00000000
,
10010000
00000000
10010000
00000000
,
00001000
00001000
00010000
00010000
,
00000110
00000000
00000110
00000000
,
00010000
00010000
00001000
00001000
,
00100000
00010000
10000000
01000000
,
00020000
00000000
00000000
00030000
,
00002000
00000000
00000000
00003000
,
00020000
00030000
00002000
00003000
,
00100000
00100000
00100000
00100000
,
01000000
01000000
01000000
01000000
,
10000000
10000000
10000000
10000000
,
00010000
00010000
00010000
00010000
,
00100000
00100000
00001000
00001000
,
00010000
00001000
00010000
00001000
,
00020000
00000000
00000000
00030000
,
00011000
00000000
00000000
00000000
,
00001001
00000000
00000000
00000000
,
00000000
00000000
00000000
00000000
,
00000000
00000000
00000000
00000000
,
00000000
00000000
00000000
00000000
,
00000000
00000000
00000000
00000000
,
00000000
00000000
00000000
00000000
,
00000000
00000000
00000000
00000000
,
00000000
00000000
00000000
00000000
,
10010000
00000000
00000000
00000000
;

//---------------dance-single - ----------------
#NOTES:
     dance-single:
     :
     Medium:
     6:
     0.337,0.376,0.177,0.206,0.000:
0000
0000
0000
0000
,
1001
0000
1000
0001
,
0100
0000
0010
1000
0000
1000
0000
0000
,
0010
0000
0100
0001
0000
0001
0000
0000
,
0100
0000
0010
1000
0000
1000
0000
0000
,
0002
0000
0000
0000
0000
0003
1000
0001
,
1000
0000
0000
0010
0000
0010
0000
0000
,
0100
0000
0001
1000
0000
1000
0000
0000
,
0010
0000
0100
0001
0000
0001
0000
0000
,
1000
0000
0001
0100
0000
0000
0001
0000
,
1001
0000
0010
0100
0000
0100
0000
0000
,
0001
0000
0010
0001
0000
0001
0000
0000
,
1000
0000
0001
0100
0000
0100
0000
0000
,
0020
0030
0000
1000
,
0001
0000
0100
0010
0000
0010
0000
0000
,
1000
0000
0001
0100
0000
0100
0000
0000
,
0010
0000
1000
0001
0000
0001
0000
0000
,
1000
0000
0001
0100
0000
0100
0000
0000
,
1010
0000
1000
0001
,
0100
0010
1000
0100
,
0010
0001
0100
0010
,
1000
0010
1010
1001
,
0101
0000
0001
0000
1000
0000
0010
0100
,
0000
0001
0000
1000
0000
0010
0100
0010
,
0000
1000
0001
0100
,
1001
0000
1000
0001
,
0101
0000
0010
0000
1000
0000
0001
0100
,
0000
0010
1000
0001
0000
0100
0010
0100
,
0000
0000
0000
0000
0001
1000
0001
1000
,
0000
0000
0000
0010
0000
0000
1000
0001
,
0000
0000
0000
0000
1000
0000
0001
0100
,
0000
0000
0000
0010
0000
0010
0000
1001
,
0000
1000
0100
0010
,
1001
0000
0001
1000
,
1001
0000
1000
0001
,
0002
0203
0310
1000
,
0001
0100
0010
1000
,
0002
0203
0310
1000
,
0001
0100
0010
1000
,
1001
1001
0010
0100
,
0002
0103
0010
1000
,
0001
0100
0010
1000
,
0100
0001
0100
1000
,
0020
0100
0100
0130
,
0002
2003
3020
0230
,
0301
1000
0100
0001
,
0100
1000
0010
0100
,
0001
1001
0010
1001
,
0100
0010
1000
0100
,
0010
0010
0001
0001
,
1001
0010
0100
0010
,
2002
0000
0000
3003
,
2000
0000
3000
0000
,
0002
0000
0003
0000
,
0000
0000
0000
1000
,
0002
0000
0203
0000
,
0320
0000
2030
0000
,
0002
0000
0000
0000
,
0000
0000
0000
3003
,
1001
0000
0000
0000
;

//---------------dance-double - ----------------
#NOTES:
     dance-double:
     :
     Medium:
     5:
     0.365,0.392,0.285,0.255,0.000:
00000000
00000000
00000000
00000000
,
00000000
00000000
00000000
00000000
,
00000000
00000000
00000000
00000000
,
00000000
00000000
00000000
00000000
,
00210000
00001000
00010000
00301000
,
00021000
00000100
00001000
00030100
,
00001020
00010000
00001000
00010030
,
00012000
00100000
00010000
00103000
,
00120000
10000000
00100000
10030000
,
12000000
00100000
10000000
03100000
,
00210000
01000000
00010000
01300000
,
00102000
00010000
00100000
00013000
,
00002010
00000001
00000010
00003001
,
00000201
00000010
00000001
00000310
,
00001020
00000100
00001000
00000130
,
00020010
00001000
00000010
00031000
,
00022000
00000000
00000000
00033000
00100000
00000000
00010000
01000000
,
00000000
00001000
00010000
00001000
00000000
00010000
00000100
00000020
,
00000000
00000030
00000000
00000000
00000001
00001000
00000001
00000100
,
00000000
00000010
00001000
00000100
00000011
00000000
00001001
00000000
,
00002020
00000000
00003030
00000000
00001000
00000000
00000010
00000100
,
00000000
00000001
00000100
00000001
00000000
00001000
00000100
00001000
,
00000000
00000000
00000010
00000000
00010000
00001000
00010000
00000100
,
00000000
00001000
00000010
00001000
00000000
00000100
00010000
00000000
,
00011000
00000000
00011000
00000000
00001000
00010000
00000100
00000000
,
00001000
00000010
00000100
00000000
00000001
00000010
00000100
00000000
,
00010000
00001000
00100000
00000000
00010000
01000000
00100000
00000000
,
10000000
01000000
00100000
00000000
00001000
00010000
00001000
00000000
,
00011000
00000000
00011000
00000000
00010000
01000000
10000000
00000000
,
00200000
00000000
00310000
00000000
00001000
00000100
00000001
00000000
,
00000020
00000000
00001030
00000000
00010000
00100000
10000000
00000000
,
00200000
00000000
00000000
00310000
00000000
00000000
00001000
00000000
,
00011000
00000000
00000000
00000000
,
00000010
00000000
00000100
00000000
00000010
00000000
00001000
00000001
,
00000000
00000010
00000000
00000100
00000000
00000010
00000000
00000000
,
00100000
00000000
01000000
00000000
00100000
00000000
00010000
10000000
,
00000000
00100000
01000000
00100000
00000000
10000000
00010000
00000000
,
00100000
00000000
00001000
00000000
00010000
00000010
00000000
00000100
,
00000000
00000000
00000001
00001000
00000000
00001001
00000000
00000002
,
00000000
00000000
00000000
00000000
00000000
00000003
00000000
00001000
,
00000100
00000000
00010000
00002000
00000000
00000000
00000000
00003000
,
00020000
00000000
00000000
00000000
00000000
00030000
00001000
01000000
,
00000000
00010000
00000000
10000000
00000000
00100000
00000000
00000000
,
10100000
00000000
10010000
00000000
00110000
00000000
01010000
00010000
,
00000000
00000000
11000000
10000000
00000000
00010000
00000000
00000000
,
00100000
00101000
00000100
00010100
,
00000010
00001000
00000100
00010000
00000000
00001000
00000000
02000000
,
00000000
00000000
00000000
00000000
03000000
00100000
00100000
00100000
,
10000000
00100000
01000000
00010000
00000000
00100000
00002000
00000000
,
00013000
00000000
00000000
00000000
00000000
00100000
00000000
01000000
,
00000000
00000000
00000000
00000000
00000000
00000100
00000000
00000010
,
00000000
00000000
00000000
00000000
,
00000000
00000000
00000000
10000000
,
00100000
00000000
00010000
00000000
,
00001000
00000000
00000100
00000000
,
00000002
00000000
00000000
00000000
,
00000000
00000000
00000000
00000000
,
00001003
00000000
00000000
00000000
;

//---------------dance-single - ----------------
#NOTES:
     dance-single:
     :
     Hard:
     8:
     0.439,0.434,0.167,0.275,0.010:
0000
0000
0000
0000
,
1001
0000
0000
0000
1000
0001
0100
0000
,
0010
0000
1000
0010
0000
0100
0000
0001
,
0010
0000
0100
1000
0000
0001
0000
0100
,
0010
0000
1000
0001
0000
0100
0000
0010
,
2000
0000
0000
3002
0000
0000
0103
0000
0010
0000
1000
0000
0100
0000
0010
0000
,
0001
0000
0001
0100
0000
0010
0000
1000
,
0010
0000
0100
0001
0000
0001
0010
0001
,
1000
0000
0010
0100
0000
0001
0000
0010
,
0100
0000
1000
0100
0000
0010
0001
0000
,
1001
0000
0010
0100
0000
0100
0000
0001
,
0010
0000
0001
1000
0000
1000
0000
0010
,
0100
0000
0100
0001
0000
0001
0000
0010
,
0002
0000
0000
0203
0000
0000
0310
0000
1000
0000
0001
0000
0100
0000
0010
0000
,
1000
0000
0001
0100
0000
0100
0000
0010
,
1000
0000
0001
0010
0000
0010
0100
1000
,
0100
0000
0100
0010
0000
0010
0000
0001
,
0100
0000
0010
1000
0000
0001
0100
0001
,
1001
0000
0010
0000
1000
0010
0100
0010
,
0000
1000
0000
0001
0000
0100
0010
0100
,
0001
0000
0001
0000
1000
0100
0010
0001
,
0000
0100
0010
1000
1010
0000
1001
0000
,
0101
0000
0001
0000
0100
0010
1000
0010
,
0000
0100
0000
0001
0000
0100
0010
2000
,
0000
3000
0001
0000
0100
0010
1000
0010
,
0000
0100
0001
0100
0000
0010
1000
0000
,
1001
0000
0010
0000
0100
0010
1000
0100
,
0000
0010
0001
0200
0000
0310
1000
0020
,
0000
0030
0100
0000
0001
1000
0001
0200
,
0000
0310
1000
0020
0000
0130
0001
0020
,
0000
0000
0130
0000
1000
0001
0100
0010
,
0000
1000
0001
0100
0000
0100
0000
1010
,
0000
0000
0100
0001
0010
0001
0100
0001
,
0000
1000
0001
0100
0000
0001
1000
0001
,
1001
0000
0000
1000
0100
1000
0100
0000
,
0020
0000
0032
0000
0203
0000
0310
1000
,
0000
1000
0000
0001
0000
0100
0000
0000
,
0020
0000
2030
0000
3002
0000
0103
0010
,
0000
0000
1000
0100
0010
0001
0000
0000
,
0010
0000
0100
0000
0001
0010
0000
0100
,
0000
0000
1000
0001
0000
0200
0000
0020
,
0000
0000
0000
0000
0330
0000
1000
0001
,
0100
0010
1000
0100
0000
0000
0000
0000
,
0022
0000
0000
0000
0030
0000
1000
1000
,
0000
0100
0000
0010
0000
0100
0003
0000
,
0101
0000
1010
0000
0101
0000
0001
0100
,
0010
0000
1000
0010
0100
0001
0010
0000
,
1100
0101
0010
1000
,
0010
0100
0010
1000
0000
0001
0000
0020
,
0000
0000
0000
0000
0000
0130
1000
0100
,
1000
0100
0010
0001
0000
1000
0100
1000
,
1100
0000
0000
0000
0000
0001
0000
2000
,
0000
3010
0100
0000
0000
0001
0000
2000
,
0000
0000
0000
3000
,
0001
0000
0000
1000
,
0002
0000
0200
0003
,
0020
0300
2000
0030
,
0002
0000
0000
0000
,
0000
0000
3003
0000
,
1001
0000
0000
0000
;

//---------------dance-double - ----------------
#NOTES:
     dance-double:
     :
     Hard:
     8:
     0.536,0.615,0.324,0.128,0.344:
00000000
00000000
00000000
00000000
,
00000000
00000000
00000000
00000000
,
00000000
00000000
00000000
00000000
,
00000000
00000000
00000000
00000000
,
10000000
01000000
10000000
01000000
10000000
01000000
10000000
01000000
,
00100000
00010000
00100000
00010000
00100000
00010000
00100000
00010000
,
01000000
00001000
01000000
00001000
01000000
00001000
01000000
00001000
,
00010000
00000100
00010000
00000100
00010000
00000100
00010000
00000100
,
00001100
00001000
00000100
00001100
00000000
00001100
00000000
00000100
,
00000110
00000010
00000001
00000011
00000000
00000011
00000000
00000001
,
00001001
00001000
00000010
00001010
00000000
00001010
00000000
00001000
,
00000010
00000000
00000000
00000001
00000000
00000000
00000100
00000000
00000000
00000000
00001000
00010000
00001000
00000000
00100000
00000000
,
00110000
00010000
10000000
10010000
00000000
10010000
00000000
10000000
,
10100000
00100000
01000000
01100000
00000000
01100000
00000000
01000000
,
01010000
00010000
00100000
00110000
00000000
00110000
00000000
00100000
,
01100000
01000000
10000000
10010000
00010000
00100000
00110000
10010000
,
10000000
00010000
10000000
00010000
10000000
00010000
10000000
00010000
,
00100000
00001000
00100000
00001000
00100000
00001000
00100000
00001000
,
01000000
00001000
01000000
00001000
01000000
00001000
01000000
00001000
,
00010000
00000100
00010000
00000100
00010100
00000000
00001100
00000000
,
00001001
00001000
00000001
00001000
00000001
00001000
00000001
00001000
,
00000010
00010000
00000010
00010000
00000010
00010000
00000010
00010000
,
00000100
00010000
00000100
00010000
00000100
00010000
00000100
00001000
,
00000100
00000010
00000100
00000110
00000000
00001100
00001100
00000000
,
00010100
00000000
00011000
00000000
00001000
00010000
00000000
00002000
,
00000000
00000000
00000000
00000000
01003000
00000000
00100000
00000000
00000000
00000000
10000000
00000000
00000000
00000000
00010000
10000000
,
00010000
00000000
00000000
00000000
00100000
00000000
00001000
00000000
00000000
00000000
00010000
00000000
00000100
00000000
00001000
00000001
,
00001000
00000000
00000010
00000100
00000000
00000001
00001000
00000100
,
00001100
00000000
00000000
00000000
00000011
00000000
00000000
00000000
00000010
00000000
00000001
00000000
00000100
00000000
00000010
00000100
,
00000010
00000000
00000100
00000010
00000000
00002000
00000000
00000000
,
00003002
00000000
00000000
00000000
00000000
00001003
00000000
00000100
,
00010000
00000000
00001000
00000000
00100000
00000000
01000000
00000000
00000000
00000000
00100000
01000000
00100000
00000000
01000000
00000000
,
01100000
00000000
00000000
00000000
00000000
00000000
00100000
01000000
00100000
00000000
01000000
00000000
10000000
00000000
00000000
00000000
,
10000000
00000000
00000000
10000000
01000000
00000000
00000000
01000000
00100000
00000000
00000000
00100000
00001000
00000000
00000000
00001000
,
00010000
00000000
00000000
00010000
00000100
00000000
00000000
00000100
00001000
00000000
00000000
00001000
00000010
00000000
00000000
00000010
,
00000100
00000000
00000000
00000100
00000001
00000000
00000000
00000001
00001000
00000000
00000000
00001000
00000100
00000000
00000000
00000100
,
00010000
00000000
00000000
00010000
00001000
00000000
00000000
00001000
00100000
00000000
00000000
00100000
01000000
00000000
00000000
01000000
,
10000000
00000000
00000000
10000000
00010000
00000000
00000000
00010000
01000000
00000000
00000000
01000000
00100000
00000000
00000000
00100000
,
10000000
00000000
00000000
10000000
01000000
00000000
00000000
01000000
00100000
00000000
00000000
00100000
00001000
00000000
00000000
00001000
,
00010000
00000000
00000000
00010000
00000010
00000000
00000000
00000010
00001000
00000000
00000000
00001000
00000001
00000000
00000000
00000001
,
00000010
00000000
00000000
00000010
00000100
00000000
00000000
00000100
00001000
00000000
00000000
00001000
00000001
00000000
00000000
00000000
,
00000001
00000000
00000000
00000001
00000100
00000000
00000000
00000100
00000010
00000000
00000000
00000010
00010000
00000000
00000000
00010000
,
00001000
00000000
00000000
00001000
01000000
00000000
00000000
01000000
00010000
00000000
00000000
00010000
00100000
00000000
00000000
00100000
,
01000000
00000000
00000000
01000000
10000000
00000000
00000000
10000000
00010000
00000000
00000000
00010000
01000000
00000000
00000000
01000000
,
00001000
00000000
00000000
00001000
00010000
00000000
00000000
00010000
00000010
00000000
00000000
00000010
00000100
00000000
00000000
00000100
,
00000001
00000000
00000000
00000001
00001000
00000000
00000000
00001000
00000100
00000000
00000000
00000100
00000010
00000000
00000000
00000010
,
00000001
00000000
00000000
00000001
00000100
00000000
00000000
00000100
00000010
00000000
00000000
00000010
00010000
00000000
00000000
00010000
,
00001000
00000000
00000000
00001000
00100000
00000000
00000000
00100000
00010000
00000000
00000000
00010000
10000000
00000000
00000000
10000000
,
00100000
00000000
00000000
00100000
01000000
00000000
00000000
01000000
00010000
00000000
00000000
00010000
10000000
00000000
00000000
10000000
,
00020000
00000000
00000000
00000000
00000000
01000000
00000000
10030000
,
02000000
00000000
00000000
00000000
00000000
00100000
00000000
13000000
,
00020000
00000000
00000000
00000000
00000000
00000000
00000000
00030000
,
00200000
00000000
00000000
00000000
00000000
00000000
01000000
00300000
,
00020000
00000000
00000000
00030000
02000000
00000000
00000000
03000000
,
00002000
00000000
00000000
00003000
00020000
00000000
00000000
00030000
,
00000020
00000000
00000000
00000000
,
00000000
00000200
00000000
00000000
,
00000330
00000000
00000000
00000000
;

//---------------dance-single - ----------------
#NOTES:
     dance-single:
     :
     Challenge:
     12:
     0.562,0.579,0.206,0.363,0.118:
0000
0000
0000
0000
,
1001
0000
0000
0000
0000
0000
0001
0100
0010
0000
1000
0000
0010
0000
0000
0000
,
2010
0000
0000
0000
0001
0000
0001
0000
0000
0000
3100
0000
0000
0000
0001
0100
,
0002
0000
0000
0000
1000
0000
1000
0000
0000
0000
0103
0000
0000
0000
0010
1000
,
0001
0000
0000
0000
0001
0000
0101
0000
0000
0000
1010
0000
0000
0000
1000
0001
,
0200
0000
0000
0320
0000
0000
2030
0000
0000
0000
3001
1000
0001
0000
0100
0000
,
0010
0000
0000
0000
1000
0000
0020
0000
0000
0000
2030
0000
0000
0000
3001
0100
,
0001
0000
0000
0000
1000
0000
0002
0000
0000
0000
0103
0010
0100
0000
0001
0000
,
1000
0000
0000
0000
0010
0000
0200
0000
0000
0000
0302
0000
0000
0000
1003
0010
,
2000
0000
3000
0000
0001
0000
0020
0000
0000
0000
0130
1000
0100
0000
0010
0000
,
1001
0000
1000
0000
0010
0000
0100
0000
0001
0000
1000
0000
0001
0000
0100
0010
,
0100
0000
0001
0000
0100
0000
0010
0000
1000
0000
0100
0000
0010
0000
0001
1000
,
0001
0000
0100
0000
0010
0000
1000
0000
0100
0000
0010
0000
0001
0000
0100
0010
,
0200
0000
0000
0320
0000
0000
2030
0000
0000
0000
3001
0100
0010
0000
1000
0000
,
0100
0000
0010
0000
0001
0000
0001
0000
0010
0000
0001
0000
1000
0000
0010
0100
,
0010
0000
1000
0000
0010
0000
0010
0000
0100
0000
0010
1000
0010
0000
0100
0000
,
0001
0000
0010
0000
0001
0000
0001
0000
0010
0000
0001
0000
0100
0000
0010
1000
,
0010
0000
0100
0000
0001
0000
0100
0000
0010
0000
1000
0001
0100
0000
0010
0000
,
1010
0000
1001
0000
0010
0100
0010
1000
,
0000
0001
0000
0100
0000
0010
1000
0010
,
0000
M000
0000
M000
0001
0010
0001
0100
,
0000
0010
1000
0010
1010
0000
1001
0000
,
0101
0000
0M0M
0000
0001
0100
0010
1000
,
0000
0010
0000
0100
0000
0001
0100
0010
,
M000
0000
00M0
0000
0001
0100
0010
1000
,
1001
0000
0000
0000
0000
0000
0010
1000
0010
0000
0100
0000
0001
0000
0100
0000
,
0101
0001
0100
0010
1000
0010
0100
0002
,
0000
0000
0013
0000
0010
0000
0002
0000
0000
0000
1003
0000
0010
0000
0100
0001
,
0100
0010
1000
0010
0100
0010
1000
0002
,
0000
0103
0001
2000
0000
3010
1000
0010
,
1000
0000
1000
0000
0010
0100
0010
0100
,
0000
0010
0000
1MM1
0000
0000
0000
1MMM
,
0000
0000
1000
0001
0100
0010
1000
0010
,
0000
0000
0100
0000
0001
0000
0100
0000
0000
0000
0010
1000
0010
0000
1000
0000
,
1010
0000
0000
0000
0000
0000
0001
0100
0010
0000
1000
0000
0100
0000
0000
0000
,
0011
0000
0001
0010
0100
1000
0001
0100
,
0010
1000
0001
0100
0010
1000
0001
0010
,
0001
0100
0001
1000
0010
1000
0100
1000
,
0001
0010
0001
0100
0001
0100
0010
1000
,
0100
0010
0100
1000
0001
0100
0010
1000
,
0100
0010
0100
1000
0001
0100
0010
1000
,
0100
0010
0001
0010
0001
0100
0001
1000
,
0001
0100
0010
1000
0010
0100
0010
0100
,
0220
0000
0000
0000
0330
0000
0001
0200
,
0000
0320
0000
2030
0000
0002
3003
0000
,
1001
0000
0110
0000
1001
0000
0001
0020
,
0000
0030
0100
2000
0000
0002
3003
0000
,
0001
0001
0001
0010
,
0100
1000
0100
0010
0001
0010
0100
1000
,
0001
0010
0100
0010
1000
0100
0010
0100
,
1000
0000
0001
0000
0100
0000
0010
0000
1000
0000
0001
0100
0010
0000
1000
0000
,
1001
0000
0000
0000
0000
2000
0000
0002
,
0000
0000
0000
3003
0000
2000
0000
0020
,
0000
0000
0000
0000
,
0000
3030
0000
0000
0000
0000
1000
0000
,
0020
0000
0230
0000
,
0320
0000
0230
0000
,
0302
0000
0000
0000
,
0000
0000
0003
0000
,
1001
0000
0000
0000
;

//---------------dance-double - ----------------
#NOTES:
     dance-double:
     :
     Challenge:
     8:
     0.505,0.531,0.255,0.314,0.029:
00000000
00000000
00000000
00000000
,
00000000
00000000
00000000
00000000
,
00000000
00000000
00000000
00000000
,
00000000
00000000
00000000
00000000
,
00000100
00000000
00000000
00000000
00001000
00000000
00000001
00000000
00000000
00000000
00000100
00000000
00000000
00000000
00000010
00001000
,
00000010
00000000
00000000
00000000
00010000
00000000
00001000
00000000
00000000
00000000
00100000
00010000
00100000
00000000
00001000
00000000
,
01000000
00000000
00000000
00000000
00010000
00000000
10000000
00000000
00000000
00000000
01000000
00000000
00000000
00000000
00100000
00010000
,
00100000
00000000
00000000
00000000
00001000
00000000
00010000
00000000
00000000
00000000
00000010
00001000
00000010
00000000
00000100
00000000
,
00000001
00001000
00000100
00010000
00001000
00100000
01000000
10000000
,
00100000
01000000
00001000
00010000
00000010
00000100
00000001
00001000
,
00000010
00010000
00001000
00100000
00010000
10000000
01000000
00100000
,
02000000
00000000
00000000
20000000
00000000
00000000
00200000
00000000
33300000
00000000
01000000
10000000
01000000
00000000
00100000
00000000
,
00010000
01000000
00001000
00010000
00000100
00001000
00000010
00000100
,
00000001
00001000
00000100
00000010
00000100
00010000
00001000
01000000
,
00010000
00100000
01000000
10000000
00100000
01000000
00010000
00100000
,
00001000
00010000
00000100
00001000
00000010
00000100
00000001
00000010
,
00001002
00000000
00000000
00000000
00000103
00001000
00000100
00000001
,
00000000
00000010
00000000
00000100
00000000
00001000
00000100
00010000
,
01000000
10000000
01000000
00100000
00010000
01000000
00010000
00200000
,
00000000
00301000
00001000
00010000
00011000
00000000
00101000
00000000
,
10001000
00000000
10000000
00000000
01000000
00010000
01000000
10000000
,
00000000
00100000
00000000
01000000
00000000
00010000
01000000
00002000
,
00010000
00010000
00013000
00000000
00000100
00000001
00000100
00001000
,
00000000
00000010
00001000
00001020
00000000
00010030
00002000
00103000
,
00210000
00000000
01300000
00000000
00100000
01000000
10000000
00100000
,
00010000
00100000
01000000
00001000
00010000
00000100
00001000
00000001
,
00001001
00001000
00000010
00000001
00000010
00000100
00000001
00001000
,
00000100
00010000
00001000
00100000
10000000
00100000
00010000
10000000
,
10020000
00000000
01030000
00000000
00100000
00100000
01000000
02000000
,
00010000
03010000
00100000
00001000
00010000
00000100
00000010
00000001
,
00000010
00001000
00000010
00000001
00001000
00000010
00000100
00000020
,
00000000
00001030
00000100
00020000
00000000
00002000
00100000
00033010
,
02000200
00000000
00000000
00000000
00000000
00000000
00000000
03000300
,
00011000
00000000
10100000
00000000
00011000
00000000
00000011
00001000
,
00000100
00010000
00001000
00100000
00010000
01000000
00100000
10000000
,
10100000
00000000
01010000
00000000
00101000
00000000
00010100
00001000
,
00100000
00000100
00010000
00000010
00001000
00000001
00000100
00000010
,
00000101
00000000
00011000
00000000
11000000
00000000
00011000
00001000
,
01000000
00010000
01000000
10000000
01000000
00001000
00010000
00001000
,
00000200
00000000
00000000
00000000
00000000
00000000
00000000
00000001
,
00000002
00000000
00000010
00000020
00000000
00000000
00000333
00000000
,
00000100
00000001
00000100
00000010
00001000
00000100
00010000
00001000
,
01000000
00100000
00010000
00100000
10000000
01000000
00100000
00010000
,
11000000
00110000
00001100
00000011
,
00000001
00000100
00001000
00010000
00001000
00000010
00000001
00000100
,
00000002
00000023
00000230
00002300
,
00003100
00010000
00001000
01000000
00001000
00010000
00000100
00000010
,
00000002
00000000
00000000
00000000
00000000
00000100
00000100
00000103
,
00000010
00000010
00001000
00001000
00000000
00000100
00010000
00001000
,
00002000
00000000
00000000
00000000
00000000
00010000
00000000
00020000
,
00000000
00000000
00000000
00000000
00030000
00000100
00000000
00000200
,
00000000
00000000
00000000
00000000
00000000
00000000
00000000
00000300
,
00000000
00000000
00000000
01000000
,
02000000
00000000
00000000
03000000
20000000
00000000
00000000
30000000
,
00200000
00000000
00000000
00300000
00020000
00000000
00000000
00030000
,
00000020
00000000
00000000
00000000
,
00000000
00000000
00000000
00000000
00000000
00000000
00000000
00003030
,
00000011
00000000
00000000
00000000
;

//---------------dance-single - Copied from ----------------
#NOTES:
     dance-single:
     Copied from:
     Beginner:
     1:
     0.084,0.137,0.020,0.000,0.000: // measure 1
0000
0000
0000
0000
,  // measure 2
1001
0000
0000
0000
,  // measure 3
1000
0000
0000
0000
,  // measure 4
0001
0000
0000
0000
,  // measure 5
0100
0000
0000
0000
,  // measure 6
0010
0000
0000
0000
,  // measure 7
1000
0000
0000
0000
,  // measure 8
0001
0000
0000
0000
,  // measure 9
1000
0000
0000
0000
,  // measure 10
0001
0000
0000
0000
,  // measure 11
1001
0000
0000
0000
,  // measure 12
0010
0000
0000
0000
,  // measure 13
0100
0000
0000
0000
,  // measure 14
0001
0000
0000
0000
,  // measure 15
1000
0000
0000
0000
,  // measure 16
0001
0000
0000
0000
,  // measure 17
0010
0000
0000
0000
,  // measure 18
0010
0000
0000
0000
,  // measure 19
0100
0000
0010
0000
,  // measure 20
0100
0000
0001
0000
,  // measure 21
1000
0000
0000
0000
,  // measure 22
0001
0000
1000
0000
,  // measure 23
1000
0000
0000
0000
,  // measure 24
0001
0000
0000
0000
,  // measure 25
1000
0000
0000
0000
,  // measure 26
0010
0000
0000
0000
,  // measure 27
0100
0000
0001
0000
,  // measure 28
1000
0000
0001
0000
,  // measure 29
0100
0000
0000
0000
,  // measure 30
0010
0000
1000
0000
,  // measure 31
0001
0000
0000
0000
,  // measure 32
0010
0000
0000
0000
,  // measure 33
0010
0000
0000
0000
,  // measure 34
0100
0000
0000
0000
,  // measure 35
0010
0000
0000
0000
,  // measure 36
1000
0000
0000
0000
,  // measure 37
0001
0000
0000
0000
,  // measure 38
1000
0000
0000
0000
,  // measure 39
0010
0000
0000
0000
,  // measure 40
0100
0000
0000
0000
,  // measure 41
1000
0000
0000
0000
,  // measure 42
0001
0000
0000
0000
,  // measure 43
1000
0000
0000
0000
,  // measure 44
0001
0000
0000
0000
,  // measure 45
1000
0000
0000
0000
,  // measure 46
0010
0000
0000
0000
,  // measure 47
0100
0000
0000
0000
,  // measure 48
0001
0000
0000
0000
,  // measure 49
0000
0000
0000
0000
,  // measure 50
0010
0000
0000
0000
,  // measure 51
0010
0000
0000
0000
,  // measure 52
1000
0000
0000
0000
,  // measure 53
0000
0000
0000
0000
,  // measure 54
0000
0000
0000
0000
,  // measure 55
0000
0000
0000
0000
,  // measure 56
0001
0000
0000
0000
,  // measure 57
1000
0000
0000
0000
;
