#TITLE:Moshi Moshi;
#SUBTITLE:;
#ARTIST:Smile.dk;
#TITLETRANSLIT:;
#SUBTITLETRANSLIT:;
#ARTISTTRANSLIT:;
#CREDIT:Braeden47;
#BANNER:Moshi Moshi.png;
#BACKGROUND:Moshi Moshi-bg.png;
#LYRICSPATH:;
#CDTITLE:;
#MUSIC:Moshi Moshi.ogg;
#OFFSET:-0.014;
#SAMPLESTART:44.954;
#SAMPLELENGTH:30.000;
#SELECTABLE:YES;
#DISPLAYBPM:136.000;
#BPMS:0.000=136.000,91.000=68.000,93.000=136.000,125.000=68.000,131.000=136.000,145.000=272.000,147.000=136.000,151.000=272.000,157.000=136.000;
#STOPS:145.000=0.110
,145.500=0.110
,146.000=0.110
,146.500=0.110
;
#BGCHANGES:;

//---------------dance-single - ----------------
#NOTES:
     dance-single:
     :
     Challenge:
     14:
     0.724,0.783,0.167,0.268,0.447:
0000
0000
0000
0000
0000
0000
1001
1000
,
0001
0100
0010
0000
0000
0000
0000
0000
,
0000
0000
0000
0000
0000
0000
1000
0100
,
1000
0001
1000
0000
0010
0100
0001
1000
,
0010
0000
0100
0000
0001
0010
0001
0000
1000
0100
1000
0100
2000
0000
3000
0000
,
0000
0000
0000
0000
0001
0100
0001
0100
0001
0000
0100
0000
0010
0000
1000
0000
,
0100
0010
0001
0100
1000
0100
0001
0010
,
0100
1000
0010
0100
0001
0001
1000
0100
,
1000
0000
0100
0000
0010
0000
0100
0000
0010
0000
0001
0000
1000
0100
1000
0100
,
0010
0100
1000
0001
0010
0100
0010
0100
1000
0100
0010
0100
0010
0000
0001
0000
,
0100
0010
1000
0010
0100
0001
0010
0001
,
1001
0000
1000
0010
1010
1000
0001
0100
,
0010
0000
1000
0000
0100
0000
0010
0000
0001
0000
1000
0000
0001
0010
0100
0010
,
0001
1000
0100
0010
0100
1000
0001
1000
0001
0100
0001
0100
0002
0000
1000
0000
,
1003
0010
0100
0001
1000
0100
0020
0001
,
0031
1000
0100
0010
0100
1000
0002
0100
,
0103
0000
0010
0000
1000
0000
0100
0000
0010
0000
0001
0000
1000
0010
0100
0010
,
1000
0001
0100
0010
0100
0001
0100
0010
1000
0001
0100
0010
1000
0000
0100
0000
,
0001
0100
1000
0010
0001
0010
1000
0100
,
0010
0100
0010
0100
0010
0100
0020
0000
,
0000
0000
0001
0000
0000
0000
0100
0000
0000
0000
0001
0000
0031
1000
0001
1000
,
0010
1000
0010
1000
0001
0000
0000
0001
0010
0000
0100
0000
1000
0000
1000
0000
,
0010
0000
0010
0000
0100
0000
0100
0000
0001
0000
0001
0000
1001
1000
0010
0100
,
0002
0000
2003
3000
1001
0000
0001
0000
1000
0000
0001
0010
0001
0000
1000
0100
,
1000
0100
0010
0001
1000
0010
0100
0001
,
1000
0000
0001
0100
0001
0000
1000
0100
1000
0000
0001
1000
0001
0000
1000
0010
,
1000
0000
0001
0100
0001
0000
0100
0000
0010
0000
1000
0000
0001
0000
0100
0000
,
0001
0100
0001
0100
0001
0000
1000
0000
0010
0000
0100
0001
0200
0000
0000
0000
,
0310
0000
1000
0000
0100
0000
0010
0001
2000
0000
0000
0000
3001
0000
0100
0000
,
0010
0000
1000
0000
0001
0000
1000
0100
1000
0000
0001
0010
0001
0000
1000
0100
,
0010
0000
0001
0010
0100
0000
2000
0000
3020
0000
0230
0000
0302
0023
0230
0000
,
2300
0000
3001
0000
1001
0001
1000
0001
0200
0000
0000
0000
0320
0000
0000
0000
,
2030
0000
0000
0000
3001
0100
0010
1000
0010
0000
0010
0100
0001
0010
0001
0010
,
0100
1000
0100
1000
0001
0010
0001
0010
0100
1000
0100
1000
0001
0000
0100
0000
,
0010
1000
0010
1000
0000
0100
0000
0100
,
0000
0001
0000
1000
0000
0010
1001
1000
,
0100
0010
0001
0001
0001
0001
1001
1000
,
0010
0000
0100
0000
0001
1000
0001
0000
1000
0000
0010
0000
2020
0000
0000
0000
,
0000
0000
0000
0000
,
3030
0000
0000
0000
1001
0000
0000
0000
0101
0000
0001
0000
0100
0000
0010
1000
,
0020
0000
0000
0000
1030
0000
0100
0000
0001
0000
0100
0010
0002
0000
0000
0000
,
1003
0000
0100
0000
0001
0000
0100
0000
0010
0000
0001
1000
0001
0000
1000
0010
,
1000
0000
0001
0100
0001
0000
1000
0100
0010
0000
0001
0010
0100
0000
1000
0000
,
0001
0100
0010
1000
1010
1000
0001
0100
,
0010
0000
1000
0100
1000
0000
0001
0010
0001
0000
1000
0000
0020
0000
0000
0000
,
0130
0000
0010
0000
0100
0000
1000
0000
0001
0000
1000
0100
0010
0000
0001
0010
,
0100
0000
1000
0001
0100
0000
0001
1000
0010
0000
0100
0000
0001
0000
1000
0000
,
0001
0100
0001
0000
0100
0000
0010
0000
1010
0000
1000
0000
0001
0000
0100
0000
,
0010
0000
1001
0110
0000
0000
0000
0000
;

//---------------dance-solo - Copied from----------------
#NOTES:
     dance-solo:
     Copied from:
     Hard:
     10:
     0.362,0.351,0.123,0.089,0.000:
000000
000000
000000
100001
,
100000
000001
000000
100000
,
000000
000000
000100
000000
000000
000000
010000
000010
,
010000
000010
010000
000000
000000
000000
000100
000000
,
000000
100000
000001
100001
,
000000
000000
000000
000000
000000
000000
100000
000001
,
100000
000001
000000
100000
000000
000100
000000
000100
,
000000
001000
000000
001000
000000
000000
000100
000000
,
100000
000100
000000
100000
000000
000010
000000
000000
,
020020
000000
000000
030030
000000
000000
010000
000010
,
010000
000010
000000
010000
000000
000010
000000
000000
,
010000
010000
000010
100000
,
000010
100000
000000
000010
000000
010000
000000
000000
,
000010
010000
000001
100001
,
100000
000001
000000
100000
000000
000200
000000
000000
,
000000
100000
100000
010300
,
100000
001000
000000
100000
000000
001000
000000
000000
,
000000
000000
100000
000000
000100
000000
010000
001000
,
100000
000001
000000
000001
000000
100000
000000
000100
,
000000
000100
000000
000100
000000
000000
000020
000000
,
000000
010000
000000
010000
000000
200000
000000
000000
,
000000
000000
000000
000000
300030
000000
100000
000010
,
100000
001000
100000
000001
100000
000000
100100
000000
,
000000
000000
100000
000001
100000
000100
100000
000000
,
000001
100000
001000
100000
000001
000000
010000
000010
,
010000
000010
010000
000000
010000
000000
000010
000000
,
000010
000000
100000
000000
100000
000000
000001
100000
,
000001
000000
100001
000000
100000
000100
100000
000000
,
000001
001000
000001
100000
000001
000000
000010
010000
,
000100
010000
000010
000000
100000
000001
000000
010000
,
000000
000010
000000
000000
000000
000000
010000
000010
,
100000
000001
200000
000000
000001
000000
000100
000000
,
000100
000000
000010
000000
000010
300000
000100
000000
,
000000
000000
100000
000000
000000
000000
100001
000001
,
100000
000100
000100
100000
,
000100
000100
000010
010000
,
000010
000000
010000
000010
010000
000010
000000
000000
,
000000
100000
000001
200002
,
000000
000000
000000
000000
000000
000000
000000
300000
,
000003
000000
100001
000000
000100
100000
000100
100000
,
000100
000000
000010
010000
000010
010000
000010
000000
,
000100
100000
000010
010000
000010
000000
010000
000100
,
000000
100000
000000
000010
000000
000000
100000
000000
,
000010
010000
000001
100000
000010
100000
000001
100000
,
001000
000000
100000
000100
100000
000010
100000
000000
,
001000
001000
000100
001000
000100
000000
001000
001000
,
000000
000010
000000
010000
000000
000000
001000
000000
,
100000
000001
010000
000010
100000
100000
000010
000010
,
000010
000000
010010
100001
000000
000000
000000
000000
;

//---------------dance-single - ----------------
#NOTES:
     dance-single:
     :
     Hard:
     10:
     0.490,0.432,0.089,0.313,0.028:
0000
0000
0000
0000
,
0000
0000
0000
0000
,
0000
0000
0000
0000
0000
0000
1000
0100
,
1000
0001
1000
0000
0001
0100
0000
0010
,
1000
0000
0010
0000
1000
0001
1000
0000
0001
0000
0100
0000
0020
0000
0000
0000
,
0000
0000
0000
0000
1000
1030
0001
0100
,
0010
2000
0000
3020
0000
0230
0000
0301
,
0010
0100
0000
1000
0100
0010
0100
0000
,
0010
0100
0000
0010
0000
0001
1000
0100
,
0001
0100
1000
0010
0001
0010
1000
0001
,
1000
0020
0000
0230
0000
0301
0010
0100
,
1000
0000
0001
0100
0010
1000
0010
0000
,
0100
0010
0000
1000
0000
0010
1000
0100
,
0001
0100
1000
0010
0100
0010
1000
0100
,
0010
0200
0000
2300
0000
3002
0000
1003
,
0010
1000
0000
0001
0100
0001
0020
0000
,
0130
1000
0000
0100
0000
0010
0001
1000
,
0100
0001
0100
1000
0010
0000
0100
0001
,
0010
0002
0000
0203
0000
0320
0000
0030
,
0001
0100
0010
1000
0010
1000
0002
0000
,
0000
1000
0000
0100
0000
1003
0001
0100
,
1000
0100
0001
0100
0010
1000
0010
0100
,
0001
0010
0100
1000
0001
0000
2002
0000
,
3003
0000
0001
0100
0001
1000
0001
0000
,
1000
0010
1000
0001
1000
0000
0010
0100
,
0010
1000
0010
0000
2000
0001
0000
0100
,
0000
3010
0000
1000
0100
0010
0001
0100
,
0010
0000
1010
0010
0100
0001
1000
0000
,
0010
0100
0001
1000
0100
0000
0010
0100
,
1000
0100
0020
0000
0032
1000
0000
0010
,
0000
0000
0103
0000
0000
0000
0010
0000
1000
0000
0001
0000
1000
0100
1000
0000
,
0001
0100
0101
0100
0020
0000
1030
0000
,
0001
0000
0000
0000
0100
0000
0010
0000
1000
0000
0001
1000
0002
0000
0000
0000
,
0000
0000
0000
0000
0003
0000
1001
1000
,
0001
0100
0010
0000
0000
2000
0000
3020
,
0000
0230
0000
0301
0000
0000
0011
0001
,
0100
0010
1000
1000
1000
1000
1001
0000
,
0001
0000
0100
0000
0010
1000
0010
0000
0100
0000
0001
0000
2000
0000
0000
0000
,
0000
0000
0000
0000
,
3000
0000
0000
0000
1000
0100
0001
0100
,
1000
0000
0001
0010
1000
0010
0001
0000
,
0100
0010
1000
0010
0200
0000
0302
0010
,
0000
1000
0000
0103
0000
0000
0010
1000
,
0001
0100
0001
0000
1001
0001
0100
0010
,
1000
0000
0001
0100
0010
1000
0001
0000
,
1000
0100
0010
0001
0010
0000
0002
0100
,
0000
1000
0000
0100
0003
0000
0010
1000
,
0001
0100
0001
0000
1000
0000
0010
0000
0100
0000
0001
0000
0010
0000
0100
0000
,
1000
0000
1000
1001
0000
0000
0000
0000
;

//---------------dance-single - ----------------
#NOTES:
     dance-single:
     :
     Easy:
     4:
     0.254,0.270,0.100,0.212,0.000:
0000
0000
0000
0000
,
0000
0000
0000
0000
,
0000
0000
0000
1000
,
0001
1000
0000
1001
,
0000
0010
0000
2000
,
0000
0000
0000
0000
0000
3000
0001
0000
,
0100
0001
1000
0020
,
0000
2030
0000
3001
,
0100
0010
1000
0002
,
0000
0000
0000
1003
,
0010
0100
0001
0020
,
0000
0030
0200
0000
0000
0300
1000
0000
,
0001
0100
0010
2000
,
0000
0000
0000
3001
,
0100
0001
1000
0020
,
0000
0230
0000
0301
,
1000
0010
0100
0002
,
0000
2003
0000
3010
,
0100
0001
0010
0200
,
0000
2300
0000
3002
,
0000
2003
0000
3010
,
0100
0001
1000
0001
,
0001
1000
1000
1001
,
0000
1001
0010
0100
,
0001
1000
0010
0100
,
0001
0000
1000
0000
0000
0001
0000
1000
,
0000
0001
0000
0000
0000
0000
1000
0000
,
0000
1001
0001
0100
,
0010
1000
0001
1000
,
0010
0000
1000
0001
,
1000
0010
0100
0001
,
1000
0001
0100
0000
,
0000
0010
1000
0002
,
0000
0000
0000
0000
0000
0000
0000
0000
0000
0000
0000
0000
0000
0000
0000
0000
0000
0000
0000
0000
0000
0000
0000
0000
0000
0000
0000
0000
0000
0000
0000
0000
0000
0000
0000
0000
0000
0000
0000
0000
0000
0000
0000
0000
0000
0000
0000
0000
0000
0003
0000
0000
0000
0000
0000
0000
0000
0000
0000
0000
0000
0000
0000
0000
0000
0000
0000
0000
0000
0000
0000
0000
0000
0000
0000
0000
0000
0000
0000
0000
0000
0000
0000
0000
0000
0000
0000
0000
0000
0000
0000
0000
0000
0000
0000
0000
0000
0000
0000
0000
0000
0000
0000
0000
0000
0000
0000
0000
0000
0000
0000
0000
0000
0000
0000
0000
0000
0000
0000
0000
0000
0000
0000
0000
0000
0000
0000
0000
0000
0000
0000
0000
0000
0000
0000
0000
0000
0000
0000
0000
0000
0000
0000
0000
1001
0000
0000
0000
0000
0000
0000
0000
0000
0000
0000
0000
0000
0000
0000
0000
0000
0000
0000
0000
0000
0000
0000
0000
0000
0000
0000
0000
0000
0000
0000
0000
0000
0000
0000
0000
0000
0000
0000
0000
0000
0000
0000
0000
0000
0000
0000
0000
,
0010
1000
0000
0001
,
0000
1000
0000
0010
,
0100
0002
0003
1001
,
0000
1000
0000
2002
,
0000
0000
0000
0000
,
3003
0000
1000
0001
,
1000
0000
0010
0100
,
0000
0000
0001
0000
1000
0000
0000
0010
,
0000
0010
0000
0010
0000
0000
1000
0000
,
0001
1000
1001
0001
,
0001
1000
0010
0010
,
1000
0000
0001
0000
1000
0000
0000
0010
,
0000
1000
0000
0010
0000
0000
0000
0000
,
1000
0001
1001
0000
,
0000
0000
1000
0001
0000
0000
0000
0000
;

//---------------dance-single - ----------------
#NOTES:
     dance-single:
     :
     Medium:
     7:
     0.386,0.378,0.145,0.246,0.000:
0000
0000
0000
1001
,
0010
0100
0000
0000
,
0000
0000
0000
0000
0000
0000
1000
0001
,
1000
0010
0000
1001
,
0000
0000
0010
1000
0010
0000
1001
0000
,
0000
2000
3000
0001
,
0100
0001
0010
0100
,
1000
0001
0100
0010
,
1000
0000
0001
0000
0100
0000
0010
1000
,
0001
0100
0001
0010
0100
1000
0100
0000
,
0010
0001
0100
0010
,
1000
0001
0100
0100
,
0010
0000
1000
0000
0001
0000
0100
0010
,
0100
0010
1000
0001
1000
0001
0100
0000
,
0010
1000
0001
0010
,
0010
0100
0100
2000
,
3001
0000
0200
0000
0301
0000
1000
0010
,
1000
0010
0100
0001
0100
0001
1000
0000
,
0001
1000
0000
0010
,
0010
1000
1000
0001
,
0100
0000
0010
0000
1000
0000
0001
0100
,
0010
1000
0001
0010
0100
1000
0001
0000
,
0100
0000
0010
1000
0010
0000
2002
0000
,
3003
0000
1000
0001
1000
0000
0010
0000
,
1000
0001
1000
0000
0010
0000
0100
0001
,
0100
0000
0002
0000
0000
1000
0000
0010
,
0000
0100
0000
0000
0000
0000
1003
0000
,
0010
0000
1010
0000
1000
0001
0100
0000
,
0010
0000
1000
0001
0100
0000
0010
1000
,
0001
0000
2000
0000
0000
0010
0000
0001
,
0000
0200
0000
0000
3300
0000
1000
0001
,
1000
0000
0000
0000
0000
0000
0000
0000
0000
0000
0000
0000
0000
0000
0000
0000
0000
0000
0000
0000
0000
0000
0000
0000
0000
0000
0000
0000
0000
0000
0000
0000
0000
0000
0000
0000
0000
0000
0000
0000
0000
0000
0000
0000
0000
0000
0000
0000
2001
0000
0000
0000
0000
0000
0000
0000
0000
0000
0000
0000
0000
0000
0000
0000
0000
0000
0000
0000
0000
0000
0000
0000
0000
0000
0000
0000
0000
0000
0000
0000
0000
0000
0000
0000
0000
0000
0000
0000
0000
0000
0000
0000
0000
0000
0000
0000
0010
3000
0000
0000
0000
0000
0000
0000
0000
0000
0000
0000
0000
0000
0000
0000
0000
0000
0000
0000
0000
0000
0000
0000
0000
0000
0000
0000
0000
0000
0000
0000
0000
0000
0000
0000
0000
0000
0000
0000
0000
0000
0000
0000
0000
0000
0000
0000
1000
0000
0000
0000
0000
0000
0000
0000
0000
0000
0000
0000
0000
0000
0000
0000
0000
0000
0000
0000
0000
0000
0000
0000
0000
0000
0000
0000
0000
0000
0000
0000
0000
0000
0000
0000
0000
0000
0000
0000
0000
0000
0000
0000
0000
0000
0000
0000
,
0001
0000
1000
0010
0100
0001
2000
0000
,
0000
0000
3000
1001
,
0010
0000
0100
0000
0000
0001
0000
1000
,
0000
0010
0000
0000
0000
0000
0101
0000
,
0010
0000
1000
0001
1000
0001
1000
0000
,
0001
0000
0100
0001
0100
0000
2002
0000
,
0000
0000
0000
0000
,
3003
0000
1001
0000
1000
0010
1000
0000
,
0001
0000
0100
0010
0100
0000
0001
0000
,
0010
0100
0010
0000
0200
0000
2300
0000
,
3002
0203
0320
1030
,
0001
0100
0010
0000
1000
0001
0100
0000
,
0010
0000
1000
0001
0100
0000
0010
0000
,
1000
0001
0100
0010
2000
0000
3002
0000
,
0203
0320
2030
3001
,
0100
0010
0100
0000
1001
0000
0010
0000
,
1000
0000
1001
1001
0000
0000
0000
0000
;

//---------------dance-single - ----------------
#NOTES:
     dance-single:
     :
     Beginner:
     2:
     0.113,0.162,0.078,0.000,0.000:
0000
0000
0000
0000
,
0000
0000
0000
0000
,
0000
0000
0000
1000
,
0000
0000
0000
0001
,
0000
0000
0000
1001
,
0000
0000
0000
1001
,
0000
0000
0000
1000
,
0000
0000
0000
0001
,
0000
0100
0000
0010
,
0000
0000
0000
1000
,
0000
0000
0000
0001
,
0000
0000
0000
0010
,
0000
0010
0000
0100
,
0000
0100
0000
1000
,
0000
0001
0000
0100
,
0000
0000
0000
0010
,
0000
1000
0000
0001
,
0000
0000
0000
1000
,
0000
0001
0000
0100
,
0000
0000
0000
0010
,
0000
1000
0000
0001
,
0000
0000
0000
1000
,
0000
0001
0000
1001
,
0000
1001
0000
0000
,
1000
0000
0000
0001
,
0000
0100
0000
0000
,
0000
0000
0000
0001
,
0000
1000
0000
0000
,
0001
0000
0000
0100
,
0000
0010
0000
0000
,
0000
1000
0000
0001
,
0000
1001
0000
0010
,
0000
1000
0000
0001
,
0000
0000
0000
1001
,
0000
0000
0000
0010
,
0000
0000
0000
0100
,
0000
0001
0000
0000
,
0000
1000
0000
0000
,
0000
0000
0000
0000
,
0000
0000
1000
0000
,
0000
0001
0000
0000
,
0010
0000
0100
0000
,
1000
0000
0001
0000
,
0000
0000
1000
0000
,
0000
0001
0000
0000
,
0100
0000
0010
0000
,
1000
0000
0001
0000
,
1000
0000
0001
0000
,
0000
1001
0000
0000
;

//---------------dance-double - ----------------
#NOTES:
     dance-double:
     :
     Easy:
     5:
     0.273,0.323,0.078,0.067,0.000: // measure 1
00000000
00000000
00000000
00011000
,  // measure 2
00000000
00000000
00000000
00000000
,  // measure 3
00000000
00000000
00000000
00001000
,  // measure 4
00000000
00100000
00000000
00010000
,  // measure 5
00000000
10000000
00000000
00010000
,  // measure 6
00000000
10000000
10000000
00010000
,  // measure 7
00100000
00001000
00010000
00000010
,  // measure 8
00010000
00000010
00010000
00000100
,  // measure 9
00010000
00001000
00100000
00001000
,  // measure 10
01000000
00001000
00100000
00010000
,  // measure 11
10000000
01000000
00010000
01000000
,  // measure 12
10000000
00100000
00010000
00100000
,  // measure 13
10000000
00010000
01000000
00001000
,  // measure 14
00010000
00000010
00001000
00000001
,  // measure 15
00000100
00001000
00000100
00000001
,  // measure 16
00000010
00001000
00000010
00000001
,  // measure 17
00000100
00000010
00010000
00001000
,  // measure 18
00010000
00000010
00010000
00001000
,  // measure 19
00010000
00000010
00010000
00000100
,  // measure 20
00010000
00000010
00010000
00000100
,  // measure 21
00000000
00001000
00000000
00001000
00000000
00001000
00000000
00000000
,  // measure 22
00000000
00010000
00000000
00001000
,  // measure 23
00100000
00100000
00010000
00200000
,  // measure 24
00000000
00300000
00010000
00000000
00010000
00000000
00010000
00000000
,  // measure 25
10000000
10000000
10000000
00100000
,  // measure 26
01000000
00000000
00002000
00000000
00000000
00010000
00000000
00010000
,  // measure 27
00000000
00013000
00000000
00000000
00000000
00000000
00010000
00000000
,  // measure 28
00000010
00001001
00001000
00000100
,  // measure 29
00000001
00000100
00001000
00000010
,  // measure 30
00001000
00000000
00000100
00000000
00000000
00010000
00000000
00010000
,  // measure 31
00000000
00010000
00000000
00000000
00000000
00000000
00001000
00000000
,  // measure 32
00100000
00011000
00001000
00100000
,  // measure 33
00010000
00000000
10000000
00010000
01000000
00010000
10000000
00000000
,  // measure 34
00010000
01000000
00001000
00011000
,  // measure 35
00010000
00000000
00000010
00000000
00000000
00001000
00000000
00000001
,  // measure 36
00000000
00000100
00000000
00000000
00000000
00000000
00000010
00000000
,  // measure 37
00001000
00000002
00000003
00001001
,  // measure 38
00000000
00000010
00010000
00022000
,  // measure 39
00000000
00000000
00000000
00000000
00000000
00000000
00000000
00033000
,  // measure 40
00000000
00000000
00011000
00000000
,  // measure 41
00001000
00000000
00100000
00000000
,  // measure 42
00010000
10000000
01000000
00010000
,  // measure 43
00001000
00000100
00000001
00000100
,  // measure 44
00001000
00010000
01000000
10000000
,  // measure 45
00000010
01000000
00001000
00010000
,  // measure 46
00000010
00000000
00010000
00000000
00002000
00000000
00000000
00100000
,  // measure 47
00000000
00100000
00000000
00103000
00000000
00000000
00000000
00000000
,  // measure 48
00001000
00010000
00000010
00010000
,  // measure 49
00001000
00100000
00000000
00000000
;

//---------------dance-double - ----------------
#NOTES:
     dance-double:
     :
     Hard:
     12:
     0.580,0.756,0.112,0.123,0.212: // measure 1
00000000
00000000
00000000
00000000
00000000
00000000
00011000
00001000
,  // measure 2
00010000
00000010
00000100
00000000
00000000
00000000
00000000
00000000
,  // measure 3
00000000
00000000
00000000
00000000
00000000
00000000
10000000
01000000
,  // measure 4
10000000
00010000
10000000
00000000
00100000
01000000
00001000
00010000
,  // measure 5
00001000
00000000
00100000
00000000
00001000
00010000
00001000
00000000
00010000
00000000
00000100
00000000
00010100
00000000
00000000
00000000
,  // measure 6
00000000
00000000
00000000
00000000
00001000
00000001
00001000
00000001
00001000
00000000
00000010
00000000
00010000
00000000
00001000
00000000
,  // measure 7
00010000
00000010
00010000
00000100
00001000
00000010
00010000
00000100
,  // measure 8
00001000
00000000
00000010
00010000
00001000
00000000
00010000
00001000
,  // measure 9
01000000
00000000
00000000
00000000
00100000
00000000
10000000
00000000
00010000
00000000
00000000
00000000
10000000
00010000
10000000
00000000
,  // measure 10
00010000
01000000
00010000
00000000
00100000
00010000
00100000
00000000
00001000
00100000
00001000
00000000
00010000
00000000
00001000
00000000
,  // measure 11
01000000
00100000
01000000
00001000
00100000
00010000
01000000
00001000
,  // measure 12
00100000
00010000
01000000
00000000
00100000
10000000
00010000
00000000
,  // measure 13
01000000
00000000
00001000
00000000
00010000
00000000
00000000
00000000
00000010
00000000
00001000
00000000
00000010
00000100
00000010
00000000
,  // measure 14
00010000
00001000
00010000
00000000
00000010
00001000
00000010
00000000
00001000
00000001
00000100
00000000
00000010
00000000
00010000
00000000
,  // measure 15
00001000
00100000
00001000
00010000
00000010
00000100
00000001
00000100
,  // measure 16
00001000
00000000
00001000
00000100
00000001
00000000
00001000
00000100
,  // measure 17
00010000
00000000
00001000
00000000
00000100
00000000
00001000
00000000
00010000
00000000
00000100
00000000
00010000
00001000
00010000
00000000
,  // measure 18
00001000
00100000
00001000
00000000
00010000
00100000
00010000
00000000
10000000
00010000
10000000
00000000
01000000
00000000
00010000
00000000
,  // measure 19
00001000
00000100
00000001
00000100
00001000
00010000
01000000
10000000
,  // measure 20
00100000
00010000
00001000
00000010
00000001
00000010
00000200
00000000
,  // measure 21
00000000
00000000
00001000
00000000
00000000
00000000
00000010
00000000
00000000
00000000
00000310
00000000
00000100
00000010
00000100
00000000
,  // measure 22
00000001
00001000
00000001
00000000
00001000
00000100
00001000
00000000
00000100
00010000
00000100
00000000
00010000
00000000
00010000
00000000
,  // measure 23
00001000
00000000
00001000
00000000
01000000
00000000
01000000
00000000
00100000
00000000
00100000
00000000
10010000
00000000
00100000
01000000
,  // measure 24
00020000
00000000
20030000
30000000
10010000
00000000
10000000
00000000
01000000
00000000
00010000
00000000
01000000
00000000
00000000
00000000
,  // measure 25
00100000
00010000
00001000
00000100
00000001
00000000
00000100
00000010
,  // measure 26
00000001
00000100
00000020
00000000
00000100
00000100
00000000
00001000
,  // measure 27
00000000
00000130
00000000
00000000
00000001
00001000
00000100
00010000
,  // measure 28
00000010
00000100
00000101
00000001
00000100
00001000
00010000
00000000
,  // measure 29
01000000
10000000
01000000
00010000
00001000
00000000
00000100
00000001
,  // measure 30
00000010
00001000
00000020
00000000
00000001
00000001
00000000
00000100
,  // measure 31
00000000
00000000
00001030
00000000
00000000
00000000
00010000
00000000
01000000
00000000
10000000
00000000
00010000
01000000
00010000
00000000
,  // measure 32
10000000
00000000
00010000
00000000
10000000
00100000
01000000
00001000
00010000
00000000
00000000
00000000
00002000
00000000
00000000
00000000
,  // measure 33
00023000
00000000
00000000
00000000
00031000
00010000
00000100
00010000
00001000
00000000
00010000
00001000
00100000
00010000
00100000
00010000
,  // measure 34
10000000
01000000
10000000
01000000
00100000
00010000
00100000
00010000
10000000
01000000
10000000
01000000
10000000
00000000
00100000
00000000
,  // measure 35
01000000
00010000
10000000
00000000
00000000
01000000
00000000
00010000
,  // measure 36
00000000
01000000
00000000
00000000
00000000
00001000
00011000
00010000
,  // measure 37
00000010
00000100
00000001
00001000
00000001
00001000
00000001
00000100
,  // measure 38
00000010
00000000
00010000
00000000
00000010
00000100
00000010
00000000
00010000
00000000
00001000
00000000
00020000
00000000
00000000
00000000
,  // measure 39
00000000
00000000
00000000
00030000
,  // measure 40
00000000
00000000
00000000
00000000
00011000
00010000
00000100
00000010
,  // measure 41
00000100
00000000
00010000
00001000
01000000
00100000
10000000
00000000
,  // measure 42
01000000
00010000
01000000
00100000
00010000
00000000
00000100
00000200
,  // measure 43
00000000
00002300
00000000
00003010
00000000
00000100
00000010
00010000
,  // measure 44
00000010
00000100
00000010
00000000
00001000
00000000
00000100
00000000
00010000
00000000
00001000
00000000
01000000
00000000
00010000
00000000
,  // measure 45
00100000
00000000
00001000
00100000
00010000
01000000
00001000
00000000
,  // measure 46
00010000
00000100
00001000
00000010
00010000
00000000
00002000
00010000
,  // measure 47
00000000
00100000
00000000
00013000
00000000
00010000
00000100
00001000
,  // measure 48
00000001
00001000
00000010
00001000
00000010
00000000
00001000
00000000
00001100
00000000
00000100
00000000
00100000
00000000
00010000
00000000
,  // measure 49
00100000
00000000
00101000
00010100
00000000
00000000
00000000
00000000
;

//---------------dance-double - ----------------
#NOTES:
     dance-double:
     :
     Medium:
     9:
     0.405,0.405,0.078,0.123,0.000: // measure 1
00000000
00000000
00000000
00011000
,  // measure 2
00010000
00000020
00000000
00000000
,  // measure 3
00000000
00000000
00000000
00000000
00000000
00000030
00001000
00000001
,  // measure 4
00001000
00000001
00002000
00000000
00000000
00000000
00003100
00000000
,  // measure 5
00010000
00000000
00001000
00100000
00001000
00010000
00002000
00000000
,  // measure 6
00000000
00000000
00103000
00001000
00100000
00001000
00010000
00001000
,  // measure 7
00100000
00000000
00010000
01000000
00100000
00000000
01000000
00010000
,  // measure 8
01000000
00000000
00001000
00010000
00001000
00000000
00020000
00000000
,  // measure 9
00030100
00000100
00000000
00001000
00000000
00000002
00000000
00000000
,  // measure 10
00000000
00000000
00000000
00000000
00000000
00001003
00000010
00001000
,  // measure 11
00000100
00001000
00000000
00000100
00000000
00100000
00000000
00001000
,  // measure 12
00000000
00010000
00000000
00001000
00000000
00100000
00001000
00000000
,  // measure 13
00010000
00001000
00000000
00100000
00000000
00001000
00100000
00001000
,  // measure 14
01000000
00010000
01000000
00010000
10000000
00010000
10000000
01000000
,  // measure 15
10000000
00000000
10000000
01000000
00010000
00000000
00001000
00000100
,  // measure 16
00000001
00000000
00000001
00000100
00001000
00000000
00010000
01000000
,  // measure 17
10000000
00000000
00100000
01000000
00100000
00000000
10000000
00010000
,  // measure 18
10000000
00000000
01000000
00001000
01000000
00000000
00010000
00001000
,  // measure 19
00010000
00001000
00010000
00000010
00010000
00000010
00010000
00001000
,  // measure 20
00010000
00001000
01000000
00001000
01000000
00001000
00020000
00000000
,  // measure 21
00000000
00000010
00000000
00000010
00000000
00000020
00000000
00000000
,  // measure 22
00000000
00000000
00000000
00000000
00030030
00000000
00010000
00001000
,  // measure 23
00010000
00000010
00010000
00001000
00010000
00000000
00011000
00000000
,  // measure 24
00000000
00000000
00001000
00000001
00001000
00000001
00001000
00000000
,  // measure 25
00000100
00010000
00000010
00010000
00001000
00000000
00010000
01000000
,  // measure 26
10000000
01000000
00010000
00000000
00100000
00100000
00000000
00001000
,  // measure 27
00000000
00200000
00000000
00000000
00000000
00000000
00001000
00000000
,  // measure 28
00301000
00000000
00101000
00000000
00001000
00010000
00001000
00000000
,  // measure 29
00010000
00000010
00010000
00000010
00010000
00000000
00000001
00001000
,  // measure 30
00000001
00001000
00000002
00000000
00000000
00000000
00001000
00000000
,  // measure 31
00000000
00000000
00001003
00000000
00000000
00000000
00000010
00010000
,  // measure 32
00001000
00010000
00001000
00000000
00010000
00000000
00001000
00000000
,  // measure 33
00100000
00000000
00001000
00100000
00001000
00000000
00200000
00000000
,  // measure 34
00000000
00000000
00300000
00101000
,  // measure 35
00001000
00010000
00001000
00000000
00000000
00100000
00000000
10000000
,  // measure 36
00000000
00100000
00000000
00000000
00000000
00000000
00001000
00010000
,  // measure 37
00001000
00010000
00000010
00000010
00000010
00000010
00001010
00000000
,  // measure 38
00000000
00000000
00001000
00000001
00001000
00000000
00000002
00000000
,  // measure 39
00000000
00000000
00000000
00000000
,  // measure 40
00000003
00000000
00000000
00000000
00000001
00000100
00001000
00010000
,  // measure 41
01000000
00000000
10000000
01000000
00010000
00001000
00000100
00000000
,  // measure 42
00000001
00000010
00001000
00000010
00000001
00000000
00001000
00000100
,  // measure 43
00000000
00100000
00000000
00010000
00000000
10000000
01000000
00010000
,  // measure 44
00001000
00000100
00000001
00000100
00001000
00000100
00000010
00010000
,  // measure 45
00001000
00000000
00010000
01000000
10000000
01000000
00100000
00000000
,  // measure 46
10000000
01000000
00010000
01000000
00100000
00000000
00001000
00001000
,  // measure 47
00000000
00010000
00000000
00000010
00000000
00000000
00000000
00000000
,  // measure 48
00000001
00001000
00000100
00010000
00001000
00000000
00010000
00001000
,  // measure 49
01000000
00000000
10010000
10010000
00000000
00000000
00000000
00000000
;
